osu file format v14

[General]
AudioFilename: Foxsky - Kirby Smash.mp3
AudioLeadIn: 0
PreviewTime: -1
Countdown: 1
SampleSet: None
StackLeniency: 0.7
Mode: 0
LetterboxInBreaks: 1
WidescreenStoryboard: 1

[Editor]
Bookmarks: 128610
DistanceSpacing: 1
BeatDivisor: 8
GridSize: 16
TimelineZoom: 1.9

[Metadata]
Title:Kirby Smash
TitleUnicode:Kirby Smash
Artist:Foxsky
ArtistUnicode:Foxsky
Creator:Makan1
Version:Stop edgeguarding
Source:
Tags:
BeatmapID:866767
BeatmapSetID:347203

[Difficulty]
HPDrainRate:7
CircleSize:4
OverallDifficulty:7
ApproachRate:9
SliderMultiplier:2.2
SliderTickRate:1

[Events]
//Background and Video events
0,0,"kirby_dj_by_eeveefilms-d7egr9n.jpg",0,0
//Break Periods
2,90477,99121
2,108810,121344
//Storyboard Layer 0 (Background)
//Storyboard Layer 1 (Fail)
//Storyboard Layer 2 (Pass)
//Storyboard Layer 3 (Foreground)
//Storyboard Sound Samples

[TimingPoints]
0,555.555555555556,4,1,0,100,1,0
10833,555.555555555556,4,1,0,100,1,0
10833,-133.333333333333,4,1,0,100,0,0
19721,-100,4,1,0,100,0,0
20832,-50,4,1,0,100,0,0
21943,-100,4,1,0,100,0,0
23054,-50,4,1,0,100,0,0
24166,-100,4,1,0,100,0,0
25277,-50,4,1,0,100,0,0
26388,-100,4,1,0,100,0,0
27499,-50,4,1,0,100,0,0
28608,-86.9565217391304,4,1,0,100,0,0
33055,-66.6666666666667,4,1,0,100,0,0
37499,-50,4,1,0,100,0,1
40833,-133.333333333333,4,1,0,100,0,1
41666,-50,4,1,0,100,0,1
41944,-100,4,1,0,100,0,1
43055,-133.333333333333,4,1,0,100,0,1
46388,-66.6666666666667,4,1,0,100,0,1
47499,-100,4,1,0,100,0,1
50833,-80,4,1,0,100,0,1
52503,-50,4,1,0,100,0,1
53333,-100,4,1,0,100,0,1
54721,-50,4,1,0,100,0,1
55416,-50,4,1,0,100,0,1
60277,-55.5555555555555,4,1,0,100,0,0
60833,-100,4,1,0,100,0,0
64258,-66.6666666666667,4,1,0,100,0,0
67777,-66.6666666666667,4,1,0,100,0,0
68055,-50,4,1,0,100,0,0
69166,-66.6666666666667,4,1,0,100,0,0
69721,-100,4,1,0,100,0,0
73055,-100,4,1,0,100,0,1
82152,-66.6666666666667,4,1,0,100,0,1
90833,-100,4,1,0,100,0,0
99721,-111.111111111111,4,1,0,100,0,0
100485,-100,4,1,0,100,0,0
105485,-66.6666666666667,4,1,0,100,0,0
108610,-100,4,1,0,100,0,0
111944,-125,4,1,0,100,0,0
112499,-100,4,1,0,100,0,0
126388,-50,4,1,0,100,0,0
130485,-50,4,1,0,100,0,0
130560,-50,4,1,0,100,0,0
132777,-50,4,1,0,100,0,0
135277,-100,4,1,0,100,0,0
139721,-133.333333333333,4,1,0,100,0,0
140694,-80,4,1,0,100,0,0
141388,-80,4,1,0,100,0,0
144166,-50,4,1,0,100,0,0
148333,-100,4,1,0,100,0,0
149166,-100,4,1,0,100,0,0
149721,-100,4,1,0,100,0,0
151944,-100,4,1,0,100,0,0
154374,-66.6666666666667,4,1,0,100,0,0
157221,-100,4,1,0,100,0,0
158055,-66.6666666666667,4,1,0,100,0,0
158610,-66.6666666666667,4,1,0,100,0,0
163055,-100,4,1,0,100,0,0
170971,-66.6666666666667,4,1,0,100,0,0
180277,-125,4,1,0,100,0,0
180833,-142.857142857143,4,1,0,100,0,0
181388,-181.818181818182,4,1,0,100,0,0
181944,-200,4,1,0,100,0,0
188610,-100,4,1,0,100,0,0
196388,-200,4,1,0,100,0,0
197221,-100,4,1,0,100,0,0

[HitObjects]
64,304,10833,5,0,0:0:0:0:
144,192,11110,1,0,0:0:0:0:
144,192,11249,1,0,0:0:0:0:
208,304,11527,1,0,0:0:0:0:
208,304,11666,1,0,0:0:0:0:
208,304,11805,1,0,0:0:0:0:
304,192,11944,1,0,0:0:0:0:
224,176,12221,6,0,P|240:144|259:119,1,41.2500015735627
320,112,12499,2,0,P|352:128|377:147,1,41.2500015735627
368,224,12777,1,0,0:0:0:0:
304,288,13055,1,0,0:0:0:0:
224,256,13333,1,0,0:0:0:0:
192,176,13471,1,0,0:0:0:0:
128,112,13749,5,0,0:0:0:0:
240,224,13888,1,0,0:0:0:0:
208,64,14027,1,0,0:0:0:0:
144,208,14166,1,0,0:0:0:0:
70,232,14444,6,0,L|94:270,3,41.2500015735627
176,320,14999,1,0,0:0:0:0:
256,256,15277,5,0,0:0:0:0:
317,312,15555,2,0,P|337:264|336:252,1,41.2500015735627
336,176,15971,1,0,0:0:0:0:
416,208,16110,1,0,0:0:0:0:
400,112,16249,1,0,0:0:0:0:
480,144,16388,1,0,0:0:0:0:
444,68,16666,6,0,L|398:100,4,41.2500015735627
352,32,17499,1,0,0:0:0:0:
327,109,17777,2,0,P|293:87|272:51,1,82.5000031471254
342,182,18333,2,0,P|378:162|400:128,1,82.5000031471254
324,254,18888,2,0,P|290:232|270:197,1,82.5000031471254
288,320,19444,5,0,0:0:0:0:
144,192,19721,1,0,0:0:0:0:
256,64,20277,1,0,0:0:0:0:
368,192,20833,1,0,0:0:0:0:
368,192,21110,1,0,0:0:0:0:
256,320,21388,1,0,0:0:0:0:
337,308,21666,2,0,P|257:237|177:297,1,220
112,272,22221,5,0,0:0:0:0:
112,272,22360,1,0,0:0:0:0:
256,192,22638,1,0,0:0:0:0:
256,192,22777,1,0,0:0:0:0:
256,192,22916,1,0,0:0:0:0:
256,192,23055,1,0,0:0:0:0:
192,128,23333,5,0,0:0:0:0:
256,64,23471,1,0,0:0:0:0:
320,128,23610,1,0,0:0:0:0:
384,64,23749,1,0,0:0:0:0:
448,128,23888,1,0,0:0:0:0:
384,256,24166,5,0,0:0:0:0:
320,192,24444,1,0,0:0:0:0:
256,256,24583,1,0,0:0:0:0:
160,192,24860,1,0,0:0:0:0:
192,96,24999,1,0,0:0:0:0:
128,128,25138,1,0,0:0:0:0:
230,163,25277,1,0,0:0:0:0:
320,192,25555,6,0,P|333:139|316:87,1,110
226,205,25833,2,0,P|253:258|307:278,1,110
250,128,26110,2,0,P|189:133|151:192,1,110
256,160,26388,1,0,0:0:0:0:
336,160,26666,1,0,0:0:0:0:
397,203,26805,1,0,0:0:0:0:
369,279,27083,2,0,P|345:265|326:245,3,55
259,200,27777,6,0,P|246:249|268:301,1,110
192,176,28055,6,0,P|160:224|160:288,1,110
144,112,28333,1,0,0:0:0:0:
64,192,28610,5,0,0:0:0:0:
80,240,28888,2,0,P|112:256|176:256,1,63.250001206398
192,256,29166,1,0,0:0:0:0:
192,176,29444,2,0,P|240:192|274:233,1,63.250001206398
288,224,29721,1,0,0:0:0:0:
368,224,29999,2,0,P|361:193|344:166,1,63.250001206398
319,128,30276,1,0,0:0:0:0:
320,48,30555,2,0,P|289:54|262:71,1,63.250001206398
224,97,30832,1,0,0:0:0:0:
109,193,31110,5,0,0:0:0:0:
64,240,31249,1,0,0:0:0:0:
128,256,31388,1,0,0:0:0:0:
272,208,31666,5,0,0:0:0:0:
319,253,31805,1,0,0:0:0:0:
335,189,31944,1,0,0:0:0:0:
208,112,32221,5,0,0:0:0:0:
253,65,32360,1,0,0:0:0:0:
189,49,32499,1,0,0:0:0:0:
64,160,32777,5,0,0:0:0:0:
48,208,32916,1,0,0:0:0:0:
64,240,33055,1,0,0:0:0:0:
96,272,33194,1,0,0:0:0:0:
136,292,33333,1,0,0:0:0:0:
176,272,33471,1,0,0:0:0:0:
208,240,33610,1,0,0:0:0:0:
224,208,33749,1,0,0:0:0:0:
256,192,33888,1,0,0:0:0:0:
304,192,34027,5,0,0:0:0:0:
352,192,34166,1,0,0:0:0:0:
384,160,34305,1,0,0:0:0:0:
368,112,34444,1,0,0:0:0:0:
336,80,34583,1,0,0:0:0:0:
288,80,34721,1,0,0:0:0:0:
240,96,34860,1,0,0:0:0:0:
192,144,34999,1,0,0:0:0:0:
160,208,35138,1,0,0:0:0:0:
128,272,35277,1,12,0:0:0:0:
112,256,37499,5,12,0:0:0:0:
58,194,37777,6,12,P|158:188|181:299,1,220
192,304,38333,1,0,0:0:0:0:
214,317,38610,2,0,P|262:333|294:285,1,110
302,282,38888,2,0,P|318:234|270:186,1,110
277,185,39166,2,0,P|245:169|245:73,1,110
240,80,39444,1,0,0:0:0:0:
320,64,39721,5,0,0:0:0:0:
400,128,39907,5,0,0:0:0:0:
336,176,39999,1,0,0:0:0:0:
176,176,40184,5,0,0:0:0:0:
112,128,40277,1,0,0:0:0:0:
96,224,40462,5,0,0:0:0:0:
160,256,40555,1,0,0:0:0:0:
368,272,40740,5,0,0:0:0:0:
416,224,40833,1,0,0:0:0:0:
224,128,41018,5,0,0:0:0:0:
176,176,41110,1,0,0:0:0:0:
352,176,41295,5,0,0:0:0:0:
304,128,41388,1,0,0:0:0:0:
176,240,41666,6,0,P|256:272|368:224,1,192.500007343293
336,160,42221,1,0,0:0:0:0:
176,64,42499,1,0,0:0:0:0:
176,240,42777,1,0,0:0:0:0:
240,144,43055,1,0,0:0:0:0:
304,208,43240,1,0,0:0:0:0:
304,208,43333,1,0,0:0:0:0:
272,288,43518,1,0,0:0:0:0:
272,288,43610,1,0,0:0:0:0:
176,304,43888,5,0,0:0:0:0:
112,240,44027,1,0,0:0:0:0:
144,160,44166,1,0,0:0:0:0:
64,200,44351,5,0,0:0:0:0:
64,200,44444,1,0,0:0:0:0:
190,81,44629,1,0,0:0:0:0:
192,80,44721,1,0,0:0:0:0:
157,251,44999,1,0,0:0:0:0:
84,94,45277,1,0,0:0:0:0:
236,178,45462,1,0,0:0:0:0:
236,178,45555,1,0,0:0:0:0:
320,128,45833,5,0,0:0:0:0:
384,224,46018,1,0,0:0:0:0:
368,256,46111,1,0,0:0:0:0:
288,288,46295,1,0,0:0:0:0:
256,272,46388,1,0,0:0:0:0:
304,208,46666,6,0,P|227:199|178:262,1,165.000006294251
179,295,47221,1,0,0:0:0:0:
115,343,47499,1,0,0:0:0:0:
51,295,47684,1,0,0:0:0:0:
51,295,47777,1,0,0:0:0:0:
67,215,47962,1,0,0:0:0:0:
67,215,48055,2,0,P|99:167|179:167,1,110
160,160,48610,5,0,0:0:0:0:
192,240,48795,1,0,0:0:0:0:
192,240,48888,1,0,0:0:0:0:
272,320,49073,1,0,0:0:0:0:
272,320,49166,1,0,0:0:0:0:
272,160,49351,1,0,0:0:0:0:
272,160,49443,1,0,0:0:0:0:
352,240,49629,1,0,0:0:0:0:
352,240,49721,1,0,0:0:0:0:
432,208,49860,5,0,0:0:0:0:
368,64,49999,1,0,0:0:0:0:
320,144,50138,1,0,0:0:0:0:
326,143,50277,2,0,P|281:82|306:6,1,110
192,144,50833,5,0,0:0:0:0:
96,240,51110,1,0,0:0:0:0:
96,240,51249,1,0,0:0:0:0:
224,272,51388,1,0,0:0:0:0:
336,208,51666,1,0,0:0:0:0:
415,199,51944,2,0,P|402:165|362:132,1,68.75
291,275,52221,2,0,P|268:250|258:218,1,68.75
372,272,52499,2,0,P|320:352|253:345,1,137.5
208,336,52916,5,0,0:0:0:0:
160,208,53055,1,0,0:0:0:0:
208,144,53194,1,0,0:0:0:0:
129,128,53333,2,0,P|160:80|208:64,1,110
240,64,53680,2,0,P|256:64|272:80,2,27.5
288,96,53888,2,0,P|288:112|272:128,2,27.5
320,128,54073,2,0,P|320:144|304:160,2,27.5
384,176,54305,5,0,0:0:0:0:
320,224,54444,1,0,0:0:0:0:
272,288,54583,1,0,0:0:0:0:
192,288,54721,1,0,0:0:0:0:
115,316,54860,2,0,P|116:262|147:218,1,110
384,320,55277,2,0,P|384:272|384:176,1,110
304,320,55555,2,0,P|304:272|304:176,1,110
224,320,55833,2,0,P|224:272|224:176,1,110
224,176,56110,1,0,0:0:0:0:
272,256,56295,5,0,0:0:0:0:
320,208,56388,1,0,0:0:0:0:
176,80,56573,1,0,0:0:0:0:
128,128,56666,1,0,0:0:0:0:
320,128,56851,1,0,0:0:0:0:
272,80,56944,1,0,0:0:0:0:
128,208,57129,1,0,0:0:0:0:
176,256,57221,1,0,0:0:0:0:
320,304,57430,1,0,0:0:0:0:
320,288,57499,6,0,P|304:240|256:208,1,110
176,368,57777,2,0,P|221:338|239:288,1,110
96,208,58055,2,0,P|114:258|159:287,1,110
176,208,58333,1,0,0:0:0:0:
240,256,58611,1,0,0:0:0:0:
320,272,58889,1,0,0:0:0:0:
400,240,59166,1,0,0:0:0:0:
480,240,59444,2,0,P|461:189|416:160,1,110
384,160,59721,1,0,0:0:0:0:
336,176,59999,5,0,0:0:0:0:
336,176,60138,1,0,0:0:0:0:
240,64,60277,1,0,0:0:0:0:
160,224,60555,1,0,0:0:0:0:
160,224,60694,1,0,0:0:0:0:
112,112,60833,1,0,0:0:0:0:
336,176,61110,1,0,0:0:0:0:
240,64,61388,1,0,0:0:0:0:
160,64,61666,1,0,0:0:0:0:
64,80,61944,6,0,P|96:144|144:176,1,110
144,176,62360,1,0,0:0:0:0:
160,176,62499,2,0,P|210:155|247:114,1,110
256,112,62916,1,0,0:0:0:0:
272,112,63055,2,0,P|322:132|359:173,1,110
368,192,63610,1,0,0:0:0:0:
320,256,63888,5,0,0:0:0:0:
256,288,64027,1,0,0:0:0:0:
192,256,64166,1,0,0:0:0:0:
192,256,64305,1,0,0:0:0:0:
240,144,64444,1,0,0:0:0:0:
240,144,64583,1,0,0:0:0:0:
128,144,64721,1,0,0:0:0:0:
128,144,64860,1,0,0:0:0:0:
304,256,64999,1,0,0:0:0:0:
304,256,65138,1,0,0:0:0:0:
331,178,65277,6,0,P|363:203|384:239,1,82.5000031471254
253,160,65555,2,0,P|285:112|358:97,1,82.5000031471254
283,275,65833,2,0,P|192:272|128:176,1,165.000006294251
128,208,66249,5,0,0:0:0:0:
224,48,66388,1,0,0:0:0:0:
224,48,66527,1,0,0:0:0:0:
256,224,66666,1,0,0:0:0:0:
256,224,66805,1,0,0:0:0:0:
128,112,66944,1,0,0:0:0:0:
128,112,67083,1,0,0:0:0:0:
304,144,67221,1,0,0:0:0:0:
304,144,67360,1,0,0:0:0:0:
377,107,67499,6,0,P|380:175|344:223,1,82.5000031471254
319,225,67777,2,0,P|279:221|244:199,1,82.5000031471254
208,112,68055,2,0,P|144:192|224:288,1,220
224,288,68471,1,0,0:0:0:0:
96,320,68610,5,0,0:0:0:0:
112,224,68888,1,0,0:0:0:0:
192,144,69027,1,0,0:0:0:0:
256,304,69166,1,0,0:0:0:0:
256,304,69305,1,0,0:0:0:0:
96,128,69444,1,0,0:0:0:0:
160,48,69583,1,0,0:0:0:0:
192,144,69721,1,0,0:0:0:0:
96,128,69860,1,0,0:0:0:0:
128,224,69999,5,0,0:0:0:0:
224,224,70138,1,0,0:0:0:0:
272,304,70277,1,0,0:0:0:0:
352,256,70416,1,0,0:0:0:0:
432,240,70555,2,0,P|400:192|368:192,1,55
336,144,70833,1,0,0:0:0:0:
224,224,70971,1,0,0:0:0:0:
224,224,71041,1,0,0:0:0:0:
224,224,71110,1,0,0:0:0:0:
128,192,71249,5,0,0:0:0:0:
256,48,71388,1,0,0:0:0:0:
336,240,71527,1,0,0:0:0:0:
336,240,71666,1,0,0:0:0:0:
240,160,71805,1,0,0:0:0:0:
224,256,71944,1,0,0:0:0:0:
256,192,72083,12,0,73055,0:0:0:0:
112,272,73194,5,0,0:0:0:0:
112,272,73264,1,0,0:0:0:0:
112,272,73333,1,0,0:0:0:0:
144,224,73471,1,0,0:0:0:0:
240,304,73610,1,0,0:0:0:0:
176,176,73749,1,0,0:0:0:0:
320,256,73888,1,0,0:0:0:0:
208,128,74027,1,0,0:0:0:0:
400,208,74166,1,0,0:0:0:0:
480,240,74305,5,0,0:0:0:0:
480,240,74374,1,0,0:0:0:0:
476,217,74444,2,0,P|471:185|460:160,1,55
448,144,74721,1,0,0:0:0:0:
336,288,75277,5,0,0:0:0:0:
176,336,75416,1,0,0:0:0:0:
176,336,75486,1,0,0:0:0:0:
176,336,75555,1,0,0:0:0:0:
80,208,75694,1,0,0:0:0:0:
288,96,75833,1,0,0:0:0:0:
256,288,75971,1,0,0:0:0:0:
208,112,76110,1,0,0:0:0:0:
336,272,76249,1,0,0:0:0:0:
144,160,76388,5,0,0:0:0:0:
208,288,76527,1,0,0:0:0:0:
208,288,76596,1,0,0:0:0:0:
208,288,76666,1,0,0:0:0:0:
320,336,76805,1,0,0:0:0:0:
448,256,76944,1,0,0:0:0:0:
501,195,77360,6,0,P|468:178|453:179,2,27.5
405,132,77638,2,0,P|388:165|389:180,2,27.5
192,272,77916,1,0,0:0:0:0:
386,130,78055,1,0,0:0:0:0:
146,130,78194,1,0,0:0:0:0:
340,272,78333,1,0,0:0:0:0:
266,43,78471,1,0,0:0:0:0:
187,48,78610,6,0,P|192:75|208:97,1,55
262,148,78888,2,0,P|240:164|214:170,1,55
123,176,79166,2,0,P|155:240|187:256,1,110
256,288,79721,5,0,0:0:0:0:
352,192,79860,1,0,0:0:0:0:
352,192,79930,1,0,0:0:0:0:
352,192,79999,1,0,0:0:0:0:
256,80,80138,1,0,0:0:0:0:
160,192,80277,1,0,0:0:0:0:
256,288,80416,1,0,0:0:0:0:
352,192,80555,1,0,0:0:0:0:
256,80,80694,1,0,0:0:0:0:
337,88,80833,6,0,P|331:114|315:136,1,55
261,187,81111,2,0,P|282:203|309:208,1,55
401,215,81389,2,0,P|369:279|337:295,1,110
256,192,81944,5,0,0:0:0:0:
256,192,82083,1,0,0:0:0:0:
336,128,82221,2,0,P|352:96|336:48,1,82.5
256,192,82499,1,0,0:0:0:0:
256,192,82638,1,0,0:0:0:0:
320,272,82776,2,0,P|352:288|400:272,1,82.5
256,192,83055,1,0,0:0:0:0:
256,192,83194,1,0,0:0:0:0:
176,256,83332,2,0,P|160:288|176:336,1,82.5
256,192,83610,5,0,0:0:0:0:
128,304,84166,5,0,0:0:0:0:
384,192,84305,1,0,0:0:0:0:
128,80,84444,1,0,0:0:0:0:
384,304,84583,1,0,0:0:0:0:
128,192,84721,1,0,0:0:0:0:
384,80,84860,2,0,L|352:112,2,41.2500015735627
256,80,85138,1,0,0:0:0:0:
256,304,85277,1,0,0:0:0:0:
256,192,85416,1,0,0:0:0:0:
256,192,85485,1,0,0:0:0:0:
256,192,85555,1,0,0:0:0:0:
352,288,85694,5,0,0:0:0:0:
384,160,85833,1,0,0:0:0:0:
128,80,86249,2,0,L|176:96,2,41.2500015735627
192,208,86527,2,0,L|205:168,2,41.2500015735627
256,96,86805,1,0,0:0:0:0:
304,240,86944,1,0,0:0:0:0:
304,240,87083,1,0,0:0:0:0:
352,144,87221,1,0,0:0:0:0:
208,192,87360,1,0,0:0:0:0:
128,272,87499,5,0,0:0:0:0:
128,272,87638,1,0,0:0:0:0:
224,304,87777,1,0,0:0:0:0:
224,304,87916,1,0,0:0:0:0:
304,272,88055,1,0,0:0:0:0:
304,272,88194,1,0,0:0:0:0:
386,265,88333,2,0,P|363:217|332:196,1,82.5000031471254
208,144,88610,6,0,P|192:112|192:48,1,82.5000031471254
304,144,88888,2,0,P|336:128|400:128,1,82.5000031471254
304,240,89166,2,0,P|320:272|320:336,1,82.5000031471254
208,240,89444,2,0,P|176:256|112:256,1,82.5000031471254
64,224,89721,1,0,0:0:0:0:
149,179,89860,1,0,0:0:0:0:
208,240,89999,1,0,0:0:0:0:
272,192,90138,1,0,0:0:0:0:
336,256,90277,1,0,0:0:0:0:
96,288,99721,5,0,0:0:0:0:
160,192,99999,1,0,0:0:0:0:
160,192,100138,1,0,0:0:0:0:
224,288,100277,1,0,0:0:0:0:
287,345,100555,2,0,P|303:313|303:249,1,63.250001206398
304,240,100833,1,0,0:0:0:0:
361,166,101110,2,0,P|329:150|265:150,1,63.250001206398
256,149,101388,1,0,0:0:0:0:
200,96,101666,1,0,0:0:0:0:
120,80,101944,5,0,0:0:0:0:
120,196,102222,1,0,0:0:0:0:
120,196,102361,1,0,0:0:0:0:
216,144,102500,1,0,0:0:0:0:
270,202,102777,2,0,P|242:216|211:222,1,63.250001206398
164,219,103055,1,0,0:0:0:0:
100,160,103333,2,0,P|85:187|79:218,1,63.250001206398
83,266,103611,1,0,0:0:0:0:
156,344,103888,1,0,0:0:0:0:
272,324,104166,5,0,0:0:0:0:
200,260,104444,1,0,0:0:0:0:
176,172,104721,1,0,0:0:0:0:
126,205,104859,1,0,0:0:0:0:
123,145,104998,1,0,0:0:0:0:
164,64,105277,1,0,0:0:0:0:
240,40,105555,2,0,P|272:32|320:44,1,82.5
336,56,105833,1,0,0:0:0:0:
276,124,106110,1,0,0:0:0:0:
192,112,106388,5,0,0:0:0:0:
240,204,106666,2,0,P|272:212|320:200,1,82.5
332,192,106944,1,0,0:0:0:0:
296,128,107221,2,0,P|376:133|402:215,1,165.000006294251
348,244,107777,1,0,0:0:0:0:
391,274,107916,1,0,0:0:0:0:
343,297,108055,1,0,0:0:0:0:
252,328,108333,1,0,0:0:0:0:
172,296,108610,1,0,0:0:0:0:
256,192,121944,12,0,124166,0:0:0:0:
144,84,126388,5,0,0:0:0:0:
226,85,126666,2,0,B|234:145|161:157|146:225|226:293|258:269,1,220
280,264,127221,1,0,0:0:0:0:
117,224,127499,2,0,B|80:288|48:268|68:232|176:296,1,165
394,224,128055,2,0,B|432:288|464:268|444:232|336:296,1,165
320,320,128610,5,0,0:0:0:0:
400,256,128796,5,0,0:0:0:0:
336,208,128888,1,0,0:0:0:0:
176,208,129073,5,0,0:0:0:0:
112,256,129166,1,0,0:0:0:0:
96,160,129351,5,0,0:0:0:0:
160,128,129444,1,0,0:0:0:0:
368,112,129629,5,0,0:0:0:0:
416,160,129722,1,0,0:0:0:0:
224,256,129907,5,0,0:0:0:0:
176,208,129999,1,0,0:0:0:0:
352,208,130184,5,0,0:0:0:0:
304,256,130277,1,0,0:0:0:0:
352,144,130555,6,0,P|264:111|176:144,1,192.500007343293
400,204,131110,1,0,0:0:0:0:
456,280,131388,2,0,B|340:336|320:216|264:216,1,220
160,304,131944,1,0,0:0:0:0:
144,176,132083,1,0,0:0:0:0:
144,176,132222,1,0,0:0:0:0:
268,216,132360,1,0,0:0:0:0:
268,216,132499,1,0,0:0:0:0:
311,302,132777,2,2,P|359:239|339:154,1,165
328,136,133055,5,0,0:0:0:0:
256,84,133263,1,0,0:0:0:0:
200,136,133333,1,0,0:0:0:0:
224,240,133541,1,0,0:0:0:0:
280,188,133610,1,0,0:0:0:0:
378,177,133888,2,0,P|314:286|232:276,1,220
196,256,134351,1,0,0:0:0:0:
196,256,134444,1,0,0:0:0:0:
128,180,134721,5,0,0:0:0:0:
192,112,134907,1,0,0:0:0:0:
192,112,135000,1,0,0:0:0:0:
276,76,135184,1,0,0:0:0:0:
276,76,135277,1,0,0:0:0:0:
288,160,135555,6,0,P|337:136|360:88,1,110
192,183,136110,2,0,P|214:231|266:260,1,110
348,264,136573,1,0,0:0:0:0:
348,264,136666,1,0,0:0:0:0:
404,192,136851,1,0,0:0:0:0:
412,168,136944,2,0,P|392:124|324:80,1,110
171,41,137499,5,0,0:0:0:0:
272,142,137684,1,0,0:0:0:0:
272,142,137777,1,0,0:0:0:0:
132,120,137962,1,0,0:0:0:0:
132,120,138055,1,0,0:0:0:0:
258,55,138240,1,0,0:0:0:0:
258,55,138333,1,0,0:0:0:0:
194,182,138518,1,0,0:0:0:0:
194,182,138610,1,0,0:0:0:0:
132,224,138749,5,0,0:0:0:0:
204,249,138888,1,0,0:0:0:0:
179,321,139027,1,0,0:0:0:0:
106,296,139166,1,0,0:0:0:0:
320,144,139721,5,0,0:0:0:0:
416,240,139998,1,0,0:0:0:0:
416,240,140137,1,0,0:0:0:0:
288,272,140276,1,0,0:0:0:0:
176,208,140554,1,0,0:0:0:0:
97,199,140832,2,0,P|110:165|150:132,1,68.75
221,275,141110,2,0,P|244:250|254:218,1,68.75
140,272,141388,2,0,P|192:352|259:345,1,137.5
244,352,141805,5,0,0:0:0:0:
292,224,141944,1,0,0:0:0:0:
244,160,142083,1,0,0:0:0:0:
323,144,142222,2,0,P|292:96|244:80,1,110
212,80,142569,2,0,P|196:80|180:96,2,27.5
164,112,142777,2,0,P|164:128|180:144,2,27.5
132,144,142962,2,0,P|132:160|148:176,2,27.5
68,192,143194,5,0,0:0:0:0:
132,240,143333,1,0,0:0:0:0:
180,304,143472,1,0,0:0:0:0:
260,304,143610,1,0,0:0:0:0:
337,332,143749,2,0,P|336:278|305:234,1,110
68,336,144166,2,0,P|68:288|68:192,1,110
148,336,144444,2,0,P|148:288|148:192,1,110
228,336,144722,2,0,P|228:288|228:192,1,110
228,192,144999,1,0,0:0:0:0:
180,272,145184,5,0,0:0:0:0:
132,224,145277,1,0,0:0:0:0:
276,96,145462,1,0,0:0:0:0:
324,144,145555,1,0,0:0:0:0:
132,144,145740,1,0,0:0:0:0:
180,96,145833,1,0,0:0:0:0:
324,224,146018,1,0,0:0:0:0:
276,272,146110,1,0,0:0:0:0:
132,320,146319,1,0,0:0:0:0:
132,304,146388,6,0,P|148:256|196:224,1,110
276,384,146666,2,0,P|231:354|213:304,1,110
356,224,146944,2,0,P|338:274|293:303,1,110
276,224,147222,1,0,0:0:0:0:
212,272,147500,1,0,0:0:0:0:
132,288,147778,1,0,0:0:0:0:
52,256,148055,1,0,0:0:0:0:
8,176,148333,6,0,P|68:164|124:204,1,110
168,232,148888,1,0,0:0:0:0:
168,232,149027,1,0,0:0:0:0:
249,277,149166,2,0,P|261:217|225:160,1,110
188,120,149583,5,0,0:0:0:0:
248,64,149721,1,0,0:0:0:0:
328,88,149999,1,0,0:0:0:0:
388,144,150277,1,0,0:0:0:0:
480,136,150555,1,0,0:0:0:0:
480,140,150833,6,0,P|448:204|400:236,1,110
400,236,151249,1,0,0:0:0:0:
384,236,151388,2,0,P|334:215|297:174,1,110
288,172,151805,1,0,0:0:0:0:
272,172,151944,2,0,P|222:192|185:233,1,110
112,248,152499,1,0,0:0:0:0:
168,308,152777,1,0,0:0:0:0:
188,232,153055,5,0,0:0:0:0:
252,264,153194,1,0,0:0:0:0:
316,232,153333,1,0,0:0:0:0:
316,232,153472,1,0,0:0:0:0:
268,120,153611,1,0,0:0:0:0:
268,120,153750,1,0,0:0:0:0:
380,120,153888,1,0,0:0:0:0:
380,120,154027,1,0,0:0:0:0:
204,232,154166,1,0,0:0:0:0:
204,232,154305,1,0,0:0:0:0:
177,154,154444,6,0,P|145:179|124:215,1,82.5000031471254
255,136,154722,2,0,P|223:88|150:73,1,82.5000031471254
225,251,155000,2,0,P|316:248|380:152,1,165.000006294251
368,112,155416,1,0,0:0:0:0:
368,112,155555,1,0,0:0:0:0:
284,56,155694,1,0,0:0:0:0:
284,56,155833,1,0,0:0:0:0:
188,52,155971,1,0,0:0:0:0:
188,52,156110,1,0,0:0:0:0:
108,88,156249,5,0,0:0:0:0:
208,192,156388,1,0,0:0:0:0:
56,196,156527,1,0,0:0:0:0:
208,192,156666,1,0,0:0:0:0:
208,192,156805,1,0,0:0:0:0:
108,300,156944,1,0,0:0:0:0:
208,192,157083,1,0,0:0:0:0:
228,320,157221,1,0,0:0:0:0:
336,272,157499,5,0,0:0:0:0:
404,216,157777,1,0,0:0:0:0:
324,184,157916,1,0,0:0:0:0:
392,132,158055,1,0,0:0:0:0:
316,96,158194,1,0,0:0:0:0:
324,184,158333,1,0,0:0:0:0:
240,144,158471,1,0,0:0:0:0:
244,232,158610,1,0,0:0:0:0:
324,184,158749,1,0,0:0:0:0:
416,195,158888,6,0,P|398:243|365:269,1,82.5000031471254
300,284,159166,2,0,P|252:266|226:233,1,82.5000031471254
144,260,159444,1,0,0:0:0:0:
64,176,159583,1,0,0:0:0:0:
176,144,159721,1,0,0:0:0:0:
288,224,159859,1,0,0:0:0:0:
288,224,159929,1,0,0:0:0:0:
288,224,159998,1,0,0:0:0:0:
384,192,160137,5,0,0:0:0:0:
256,48,160276,1,0,0:0:0:0:
176,240,160415,1,0,0:0:0:0:
176,240,160554,1,0,0:0:0:0:
272,160,160693,1,0,0:0:0:0:
288,256,160832,1,0,0:0:0:0:
256,192,160971,12,0,161943,0:0:0:0:
400,272,162082,5,0,0:0:0:0:
400,272,162152,1,0,0:0:0:0:
400,272,162221,1,0,0:0:0:0:
368,224,162359,1,0,0:0:0:0:
272,304,162498,1,0,0:0:0:0:
336,176,162637,1,0,0:0:0:0:
192,256,162776,1,0,0:0:0:0:
304,128,162915,1,0,0:0:0:0:
112,208,163054,1,0,0:0:0:0:
32,240,163193,5,0,0:0:0:0:
32,240,163262,1,0,0:0:0:0:
36,217,163332,2,0,P|41:185|52:160,1,55
64,144,163609,1,0,0:0:0:0:
176,288,164165,5,0,0:0:0:0:
336,336,164304,1,0,0:0:0:0:
336,336,164374,1,0,0:0:0:0:
336,336,164443,1,0,0:0:0:0:
432,208,164582,1,0,0:0:0:0:
224,96,164721,1,0,0:0:0:0:
256,288,164859,1,0,0:0:0:0:
304,112,164998,1,0,0:0:0:0:
176,272,165137,1,0,0:0:0:0:
368,160,165276,5,0,0:0:0:0:
304,288,165415,1,0,0:0:0:0:
304,288,165484,1,0,0:0:0:0:
304,288,165554,1,0,0:0:0:0:
192,336,165693,1,0,0:0:0:0:
64,256,165832,1,0,0:0:0:0:
11,195,166248,6,0,P|44:178|59:179,2,27.5
107,132,166526,2,0,P|124:165|123:180,2,27.5
320,272,166804,1,0,0:0:0:0:
126,130,166943,1,0,0:0:0:0:
366,130,167082,1,0,0:0:0:0:
172,272,167221,1,0,0:0:0:0:
246,43,167359,1,0,0:0:0:0:
325,48,167498,6,0,P|320:75|304:97,1,55
250,148,167776,2,0,P|272:164|298:170,1,55
389,176,168054,2,0,P|357:240|325:256,1,110
256,288,168609,5,0,0:0:0:0:
160,192,168748,1,0,0:0:0:0:
160,192,168818,1,0,0:0:0:0:
160,192,168887,1,0,0:0:0:0:
256,80,169026,1,0,0:0:0:0:
352,192,169165,1,0,0:0:0:0:
256,288,169304,1,0,0:0:0:0:
160,192,169443,1,0,0:0:0:0:
256,80,169582,1,0,0:0:0:0:
175,88,169721,6,0,P|181:114|197:136,1,55
251,187,169999,2,0,P|230:203|203:208,1,55
111,215,170277,2,0,P|143:279|175:295,1,110
256,192,170832,5,0,0:0:0:0:
256,192,170971,1,0,0:0:0:0:
176,128,171109,2,0,P|160:96|176:48,1,82.5
256,192,171387,1,0,0:0:0:0:
256,192,171526,1,0,0:0:0:0:
192,272,171664,2,0,P|160:288|112:272,1,82.5
256,192,171943,1,0,0:0:0:0:
256,192,172082,1,0,0:0:0:0:
336,256,172220,2,0,P|352:288|336:336,1,82.5
256,192,172498,5,0,0:0:0:0:
384,304,173054,5,0,0:0:0:0:
128,192,173193,1,0,0:0:0:0:
384,80,173332,1,0,0:0:0:0:
128,304,173471,1,0,0:0:0:0:
384,192,173609,1,0,0:0:0:0:
128,80,173748,2,0,L|160:112,2,41.2500015735627
256,80,174026,1,0,0:0:0:0:
256,304,174165,1,0,0:0:0:0:
256,192,174304,1,0,0:0:0:0:
256,192,174373,1,0,0:0:0:0:
256,192,174443,1,0,0:0:0:0:
160,288,174582,5,0,0:0:0:0:
128,160,174721,1,0,0:0:0:0:
176,64,175092,5,0,0:0:0:0:
176,64,175184,1,0,0:0:0:0:
176,64,175277,1,0,0:0:0:0:
272,60,175416,5,0,0:0:0:0:
192,208,175555,1,0,0:0:0:0:
104,234,175694,2,0,P|134:281|212:294,1,82.5000031471254
336,288,175971,1,0,0:0:0:0:
188,208,176110,1,0,0:0:0:0:
162,120,176249,2,0,P|115:150|102:228,1,82.5000031471254
240,352,176527,1,0,0:0:0:0:
320,204,176666,1,0,0:0:0:0:
408,178,176805,2,0,P|378:131|300:118,1,82.5000031471254
240,64,177083,5,0,0:0:0:0:
322,56,177221,1,0,0:0:0:0:
287,131,177360,1,0,0:0:0:0:
432,64,177499,5,0,0:0:0:0:
272,192,177638,1,0,0:0:0:0:
272,192,177777,1,0,0:0:0:0:
432,320,177916,5,0,0:0:0:0:
272,192,178055,1,0,0:0:0:0:
272,192,178194,1,0,0:0:0:0:
80,320,178333,5,0,0:0:0:0:
272,192,178471,1,0,0:0:0:0:
272,192,178610,1,0,0:0:0:0:
80,64,178749,5,0,0:0:0:0:
272,192,178888,1,0,0:0:0:0:
272,192,179027,1,0,0:0:0:0:
272,176,179166,2,0,L|272:224,8,41.2500015735627
