osu file format v14

[General]
AudioFilename: audio.mp3
AudioLeadIn: 0
PreviewTime: 17045
Countdown: 0
SampleSet: Soft
StackLeniency: 0.5
Mode: 0
LetterboxInBreaks: 0
WidescreenStoryboard: 1

[Editor]
DistanceSpacing: 0.91
BeatDivisor: 4
GridSize: 4
TimelineZoom: 1.3

[Metadata]
Title:Bittersweet
TitleUnicode:Bittersweet
Artist:Foxblood
ArtistUnicode:Foxblood
Creator:Osatia
Version:Insaner
Source:
Tags:Dreambound Post-Rock Metal Hailie Rokkea sorciere
BeatmapID:1777714
BeatmapSetID:710922

[Difficulty]
HPDrainRate:7
CircleSize:6
OverallDifficulty:7
ApproachRate:8.5
SliderMultiplier:1.4
SliderTickRate:1

[Events]
//Background and Video events
0,0,"maxresdefault (2).jpg",0,0
Video,0,"Foxblood+-+Bittersweet-2lHtl5brwiE_x264.avi"
//Break Periods
2,151935,164301
2,206356,209666
//Storyboard Layer 0 (Background)
//Storyboard Layer 1 (Fail)
//Storyboard Layer 2 (Pass)
//Storyboard Layer 3 (Foreground)
//Storyboard Sound Samples

[TimingPoints]
4425,413.793103448276,4,2,0,40,1,0
17666,-100,4,2,0,75,0,0
22631,-66.6666666666667,4,2,0,75,0,0
24287,-100,4,2,0,75,0,0
29252,-66.6666666666667,4,2,0,75,0,0
30907,-100,4,2,0,60,0,0
31007,-100,4,2,0,60,0,0
57390,-100,4,2,0,70,0,0
57804,-200,4,2,0,70,0,0
58218,-100,4,2,0,70,0,0
59045,-100,4,2,0,70,0,0
59459,-200,4,2,0,70,0,0
59873,-100,4,2,0,70,0,0
60287,-200,4,2,0,70,0,0
60700,-100,4,2,0,70,0,0
62356,-166.666666666667,4,2,0,70,0,0
62769,-100,4,2,0,70,0,0
63597,-200,4,2,0,70,0,0
64011,-100,4,2,0,70,0,0
64425,-200,4,2,0,70,0,0
64838,-100,4,2,0,70,0,0
68149,-200,4,2,0,70,0,0
68562,-100,4,2,0,70,0,0
71873,-200,4,2,0,70,0,0
72287,-100,4,2,0,70,0,0
82218,-66.6666666666667,4,2,0,70,0,0
83873,-50,4,2,0,70,0,0
85528,-100,4,2,0,80,0,0
90493,-66.6666666666667,4,2,0,80,0,0
92149,-100,4,2,0,80,0,0
97114,-66.6666666666667,4,2,0,80,0,0
98769,-100,4,2,0,70,0,0
99183,-200,4,2,0,70,0,0
99597,-100,4,2,0,70,0,0
100838,-200,4,2,0,70,0,0
101252,-100,4,2,0,70,0,0
101666,-200,4,2,0,70,0,0
102080,-100,4,2,0,70,0,0
102493,-200,4,2,0,70,0,0
102907,-100,4,2,0,70,0,0
104149,-200,4,2,0,70,0,0
104562,-100,4,2,0,70,0,0
104976,-133.333333333333,4,2,0,70,0,0
105183,-200,4,2,0,70,0,0
105390,-100,4,2,0,70,0,0
105804,-200,4,2,0,70,0,0
106218,-100,4,2,0,70,0,0
107459,-200,4,2,0,70,0,0
107873,-100,4,2,0,70,0,0
108287,-200,4,2,0,70,0,0
109114,-200,4,2,0,70,0,0
109528,-50,4,2,0,70,0,0
109942,-200,4,2,0,70,0,0
110356,-100,4,2,0,70,0,0
110769,-200,4,2,0,70,0,0
111183,-100,4,2,0,70,0,0
112011,-100,4,2,0,70,0,0
121942,-66.6666666666667,4,2,0,70,0,0
123597,-100,4,2,0,70,0,0
125252,-100,4,2,0,80,0,0
130011,-66.6666666666667,4,2,0,80,0,0
131873,-100,4,2,0,80,0,0
136838,-66.6666666666667,4,2,0,80,0,0
138493,-100,4,2,0,60,0,0
143459,-66.6666666666667,4,2,0,70,0,0
145114,-100,4,2,0,60,0,0
150080,-66.6666666666667,4,2,0,70,0,0
151735,-66.6666666666667,4,2,0,60,0,0
164976,-100,4,2,0,60,0,0
178218,-100,4,2,0,65,0,0
191459,-100,4,2,0,70,0,0
202218,-100,4,2,0,75,0,0
211321,-100,4,2,0,80,0,0
216287,-66.6666666666667,4,2,0,80,0,0
224562,-100,4,2,0,70,0,0
229528,-66.6666666666667,4,2,0,70,0,0
231183,-100,4,2,0,70,0,0
236149,-66.6666666666667,4,2,0,70,0,0
237804,-100,4,2,0,70,0,0
238218,-200,4,2,0,70,0,0
238631,-100,4,2,0,70,0,0
239045,-100,4,2,0,70,0,0
239459,-100,4,2,0,70,0,0
239873,-200,4,2,0,70,0,0
240287,-100,4,2,0,70,0,0
240700,-200,4,2,0,70,0,0
241114,-100,4,2,0,70,0,0
241528,-200,4,2,0,70,0,0
241942,-100,4,2,0,70,0,0
242356,-100,4,2,0,70,0,0
242769,-100,4,2,0,70,0,0
243183,-200,4,2,0,70,0,0
243597,-100,4,2,0,70,0,0
244011,-133.333333333333,4,2,0,70,0,0
244218,-200,4,2,0,70,0,0
244425,-100,4,2,0,70,0,0
244838,-200,4,2,0,70,0,0
245252,-100,4,2,0,70,0,0
246493,-200,4,2,0,70,0,0
246907,-100,4,2,0,70,0,0
248149,-200,4,2,0,70,0,0
248562,-50,4,2,0,70,0,0
248976,-100,4,2,0,70,0,0
249804,-200,4,2,0,70,0,0
250218,-100,4,2,0,70,0,0

[Colours]
Combo1 : 164,151,102
Combo2 : 88,117,85
Combo3 : 114,141,158

[HitObjects]
332,136,4425,6,0,L|348:288,1,140,2|0,0:0|0:0,0:0:0:0:
356,348,5252,2,0,L|345:253,1,70,8|0,0:0|0:0,0:0:0:0:
428,288,5666,1,4,0:3:0:0:
424,304,5873,1,4,0:3:0:0:
484,256,6080,5,0,0:0:0:0:
488,240,6287,1,2,0:0:0:0:
488,224,6494,1,2,0:0:0:0:
484,208,6700,1,0,0:0:0:0:
424,272,6907,1,8,0:0:0:0:
472,192,7114,1,0,0:0:0:0:
412,264,7321,2,0,L|432:364,1,70,2|0,0:0|0:0,0:0:0:0:
348,192,7735,6,0,L|340:344,1,140,2|0,0:0|0:0,0:0:0:0:
344,352,8562,1,8,0:0:0:0:
340,336,8769,1,0,0:0:0:0:
280,288,8976,1,4,0:3:0:0:
284,272,9183,1,4,0:3:0:0:
248,364,9390,5,2,0:0:0:0:
233,355,9597,1,2,0:0:0:0:
222,344,9804,1,2,0:0:0:0:
214,330,10010,1,0,0:0:0:0:
288,256,10218,1,8,0:0:0:0:
264,368,10425,1,0,0:0:0:0:
236,200,10631,1,4,0:3:0:0:
212,312,10838,1,4,0:3:0:0:
304,312,11045,6,0,L|288:160,1,140,2|0,0:0|0:3,0:0:0:0:
280,100,11873,2,0,L|291:195,1,70,8|0,0:0|0:0,0:0:0:0:
208,160,12286,1,4,0:3:0:0:
212,144,12493,1,4,0:3:0:0:
152,192,12700,5,2,0:0:0:0:
148,208,12907,1,0,0:3:0:0:
148,224,13114,1,2,0:0:0:0:
152,240,13320,1,2,0:0:0:0:
212,176,13527,1,8,0:0:0:0:
164,256,13734,1,0,0:0:0:0:
224,184,13942,2,0,L|204:84,1,70,0|0,0:0|0:0,0:0:0:0:
288,256,14355,6,0,L|296:104,1,140,2|0,0:0|0:0,0:0:0:0:
299,100,15183,1,8,0:0:0:0:
295,116,15390,1,0,0:3:0:0:
235,164,15597,1,4,0:3:0:0:
239,180,15804,1,4,0:3:0:0:
203,88,16011,5,2,0:0:0:0:
188,97,16218,1,2,0:0:0:0:
180,112,16425,2,0,P|148:88|16:88,1,175,2|0,0:0|0:0,0:0:0:0:
8,100,17045,5,0,1:0:0:0:
120,100,17252,1,0,1:0:0:0:
120,100,17666,5,0,1:3:0:0:
124,116,17873,1,4,0:3:0:0:
120,148,18080,5,0,1:3:0:0:
124,132,18286,1,4,0:3:0:0:
60,124,18493,5,4,1:3:0:0:
84,236,18700,1,4,1:3:0:0:
96,216,18906,5,2,1:2:0:0:
72,328,19113,1,4,1:3:0:0:
144,276,19321,5,2,1:2:0:0:
140,292,19528,1,4,1:3:0:0:
160,196,19735,5,4,0:3:0:0:
136,308,19942,1,4,0:3:0:0:
132,324,20149,1,0,0:0:0:0:
192,140,20356,5,0,1:0:0:0:
216,252,20563,1,4,0:3:0:0:
220,268,20770,1,0,0:0:0:0:
252,116,20976,5,2,1:2:0:0:
256,132,21183,1,0,0:0:0:0:
252,164,21390,5,4,0:3:0:0:
256,148,21596,1,0,0:0:0:0:
192,140,21803,5,4,0:3:0:0:
216,252,22010,1,4,0:3:0:0:
228,232,22218,5,4,0:3:0:0:
204,344,22425,1,0,0:0:0:0:
296,304,22631,6,0,P|356:292|456:304,1,157.500006008148,6|0,0:1|0:0,0:0:0:0:
464,316,23045,1,8,0:0:0:0:
500,156,23252,1,8,0:0:0:0:
504,140,23459,6,0,P|444:128|344:140,1,157.500006008148,6|0,0:1|0:0,0:0:0:0:
340,148,23873,1,8,0:0:0:0:
288,48,24080,1,4,0:3:0:0:
288,48,24183,1,4,0:3:0:0:
288,48,24287,5,4,1:3:0:0:
292,64,24494,1,0,0:0:0:0:
288,96,24701,5,4,1:3:0:0:
292,80,24907,1,0,0:0:0:0:
228,72,25114,5,4,0:3:0:0:
252,184,25321,1,4,0:3:0:0:
264,164,25527,5,2,1:2:0:0:
240,276,25734,1,0,0:0:0:0:
312,224,25942,5,2,1:2:0:0:
308,240,26149,1,0,0:0:0:0:
328,144,26356,5,0,1:0:0:0:
304,256,26563,1,4,0:3:0:0:
300,272,26770,1,0,0:0:0:0:
360,88,26977,5,0,1:0:0:0:
384,200,27184,1,4,0:3:0:0:
388,216,27391,1,0,0:0:0:0:
420,64,27597,5,2,1:2:0:0:
424,80,27804,1,0,0:0:0:0:
420,112,28011,5,0,1:0:0:0:
424,96,28217,1,0,0:0:0:0:
360,88,28424,5,0,1:0:0:0:
384,200,28631,1,4,0:3:0:0:
396,180,28837,5,4,0:0:0:0:
372,292,29044,1,0,0:0:0:0:
280,208,29252,6,0,P|308:220|336:248,5,52.5000020027161,6|0|4|4|4|4,0:0|0:0|0:3|0:3|0:3|0:3,0:0:0:0:
272,272,29873,2,0,P|283:300|283:339,1,52.5000020027161,0|0,0:0|0:0,0:0:0:0:
224,320,30080,6,0,P|211:347|184:375,5,52.5000020027161,6|4|4|4|8|0,0:0|0:3|0:3|0:3|0:3|0:0,0:0:0:0:
272,272,30700,2,0,P|283:300|283:339,1,52.5000020027161,8|0,0:3|0:0,0:0:0:0:
160,316,30907,6,0,L|148:168,1,140,2|0,0:0|0:0,0:0:0:0:
144,112,31528,1,2,0:0:0:0:
148,176,31735,2,0,P|184:196|224:192,1,70,0|0,1:3|0:0,0:0:0:0:
260,120,32149,2,0,P|225:121|195:139,1,70,2|0,0:0|0:0,0:0:0:0:
300,180,32562,2,0,P|328:136|280:52,1,140,2|0,0:0|0:0,0:0:0:0:
260,120,33183,1,2,0:0:0:0:
300,180,33390,2,0,L|448:164,1,140,0|0,1:3|0:0,0:0:0:0:
432,92,34011,1,0,0:0:0:0:
439,164,34218,5,4,0:3:0:0:
439,164,34631,2,0,P|440:198|458:228,1,70,0|2,0:0|0:0,0:0:0:0:
504,272,35045,2,0,P|460:244|376:292,1,140,0|2,1:1|0:0,0:0:0:0:
444,312,35666,1,0,0:0:0:0:
384,275,35873,2,0,L|236:259,1,140,2|0,0:0|0:0,0:0:0:0:
232,196,36493,1,0,0:0:0:0:
244,259,36700,2,0,P|209:257|179:239,1,70,0|0,1:0|0:0,0:0:0:0:
172,228,37011,1,0,1:0:0:0:
168,212,37114,2,0,P|166:246|148:276,1,70,2|0,0:0|1:0,0:0:0:0:
108,228,37528,5,4,1:0:0:0:
108,228,37942,2,0,P|109:193|127:163,1,70,2|2,3:0|0:0,0:0:0:0:
68,128,38356,2,0,P|112:100|196:148,1,140,0|2,1:0|0:0,0:0:0:0:
127,163,38976,1,0,0:0:0:0:
68,128,39183,1,2,0:0:0:0:
68,128,39597,1,0,0:0:0:0:
64,56,39804,1,4,0:3:0:0:
128,100,40011,2,0,P|162:98|192:80,1,70,0|0,1:0|0:0,0:0:0:0:
211,16,40425,5,0,0:0:0:0:
211,16,40838,2,0,P|192:45|191:80,1,70,4|0,0:3|0:0,0:0:0:0:
272,128,41252,1,0,0:0:0:0:
252,63,41459,1,0,0:0:0:0:
212,168,41666,2,0,P|271:200|331:171,2,140,0|2|2,1:0|0:0|0:0,0:0:0:0:
272,128,42700,1,0,0:0:0:0:
212,168,42907,2,0,P|177:166|147:148,1,70,0|0,0:0|0:0,0:0:0:0:
176,0,43321,2,0,P|174:34|156:64,1,70,0|0,1:3|0:0,0:0:0:0:
144,76,43631,1,0,1:0:0:0:
128,84,43735,2,0,P|146:113|147:148,1,70,2|0,0:0|1:0,0:0:0:0:
88,136,44149,5,4,1:0:0:0:
88,136,44562,2,0,P|83:170|96:202,1,70,0|2,0:0|0:0,0:0:0:0:
36,244,44976,2,0,P|96:273|155:240,1,140,4|2,1:2|0:0,0:0:0:0:
96,202,45597,1,0,0:0:0:0:
155,240,45804,2,0,L|303:224,1,140,0|0,0:0|0:0,0:0:0:0:
320,160,46425,1,4,0:3:0:0:
294,224,46631,1,4,1:2:0:0:
294,224,47045,2,0,P|328:228|360:215,1,70,0|0,0:0|0:0,0:0:0:0:
311,93,47459,6,0,P|306:127|319:159,1,70,4|0,0:3|0:0,0:0:0:0:
368,120,47873,1,0,0:0:0:0:
420,161,48080,1,0,0:0:0:0:
428,100,48287,2,0,P|462:104|494:91,1,70,4|0,1:2|0:0,0:0:0:0:
452,36,48700,2,0,P|417:31|385:44,1,70,0|0,0:0|0:0,0:0:0:0:
311,93,49114,2,0,L|163:77,1,140,0|0,0:0|0:0,0:0:0:0:
148,20,49735,1,0,0:0:0:0:
171,77,49942,2,0,P|136:81|104:68,1,70,0|0,1:0|0:0,0:0:0:0:
96,60,50252,1,0,1:0:0:0:
88,48,50356,2,0,P|92:82|79:114,1,70,0|0,0:0|1:0,0:0:0:0:
28,152,50769,5,4,1:2:0:0:
28,152,51183,2,0,P|40:184|36:218,1,70,2|0,3:3|0:0,0:0:0:0:
0,264,51597,2,0,P|59:231|119:260,1,140,4|2,1:2|0:0,0:0:0:0:
60,300,52218,1,0,0:0:0:0:
119,260,52425,2,0,L|267:244,1,140,0|0,0:0|0:0,0:0:0:0:
286,183,53045,1,4,0:3:0:0:
258,244,53252,1,4,1:2:0:0:
258,244,53666,2,0,P|292:248|324:235,1,70,0|0,0:0|0:0,0:0:0:0:
312,124,54080,6,0,P|277:119|245:132,1,70,4|0,0:3|0:0,0:0:0:0:
258,244,54493,1,0,0:0:0:0:
286,183,54700,1,0,0:0:0:0:
324,235,54907,2,0,P|358:239|390:226,1,70,4|0,1:2|0:0,0:0:0:0:
448,252,55321,2,0,P|452:217|439:185,1,70,2|0,0:0|0:0,0:0:0:0:
451,108,55735,2,0,L|311:123,1,140,2|0,3:3|0:0,0:0:0:0:
320,200,56356,1,0,0:0:0:0:
311,123,56562,5,4,1:2:0:0:
220,204,56769,1,0,0:0:0:0:
224,68,56976,1,4,1:0:0:0:
228,80,57080,1,0,1:1:0:0:
232,92,57183,5,4,0:3:0:0:
184,144,57390,2,0,L|148:132,3,35,4|4|4|4,1:3|0:3|0:3|0:3,0:0:0:0:
220,204,57804,6,0,L|204:268,1,52.5,12|0,1:3|0:0,0:0:0:0:
243,314,58218,2,0,L|279:326,3,35,4|4|4|4,1:3|0:3|0:3|0:3,0:0:0:0:
207,254,58631,2,0,L|171:266,3,35,4|4|4|4,1:3|0:3|0:0|0:0,0:0:0:0:
243,194,59045,2,0,L|279:206,3,35,4|4|4|4,1:3|0:3|0:3|0:3,0:0:0:0:
207,134,59459,6,0,L|223:70,1,52.5,12|0,1:3|0:0,0:0:0:0:
183,23,59873,6,0,L|147:11,3,35,4|4|4|4,1:3|0:3|0:3|0:3,0:0:0:0:
219,83,60287,6,0,L|203:147,1,52.5,12|0,1:3|0:0,0:0:0:0:
243,194,60700,5,4,1:3:0:0:
316,128,60907,1,4,1:3:0:0:
291,263,61114,5,4,1:3:0:0:
316,128,61321,2,0,L|332:180,1,35,4|0,1:3|0:0,0:0:0:0:
291,263,61528,6,0,L|303:299,3,35,4|4|4|4,1:3|0:3|0:3|0:3,0:0:0:0:
231,227,61942,2,0,L|243:191,3,35,4|4|4|4,1:3|0:3|0:3|0:3,0:0:0:0:
171,263,62356,6,0,L|108:244,1,62.9999980773926,12|0,1:3|0:0,0:0:0:0:
71,181,62769,6,0,L|59:145,3,35,4|4|4|4,1:3|0:3|0:3|0:3,0:0:0:0:
131,217,63183,2,0,L|119:253,3,35,4|4|4|4,1:3|0:3|0:3|0:3,0:0:0:0:
191,181,63597,6,0,L|255:197,1,52.5,12|0,1:3|0:0,0:0:0:0:
301,157,64011,6,0,L|313:121,3,35,4|4|4|4,1:3|0:3|0:3|0:3,0:0:0:0:
241,193,64425,6,0,L|177:177,1,52.5,12|0,1:3|0:0,0:0:0:0:
131,217,64838,5,4,1:3:0:0:
58,151,65045,1,4,1:3:0:0:
83,286,65252,5,4,1:3:0:0:
58,151,65459,2,0,L|42:203,1,35,4|0,1:3|0:0,0:0:0:0:
140,136,65666,6,0,L|129:102,4,35,4|4|4|4|4,1:3|0:3|0:3|0:3|0:2,0:0:0:0:
200,120,66493,5,0,1:0:0:0:
200,120,66907,1,4,0:3:0:0:
260,104,67321,6,0,L|270:137,4,35,4|4|4|4|8,1:3|0:3|0:3|0:3|0:3,0:0:0:0:
320,88,68149,6,0,L|336:148,1,52.5,2|0,0:0|0:0,0:0:0:0:
352,196,68562,1,0,1:0:0:0:
296,32,68769,1,0,1:0:0:0:
448,88,68976,6,0,L|458:121,4,35,4|4|4|4|4,1:3|3:0|3:0|3:0|0:0,0:0:0:0:
388,104,69803,5,0,1:0:0:0:
388,104,70217,1,4,0:3:0:0:
328,120,70631,6,0,L|317:86,4,35,4|4|4|4|8,1:3|0:3|0:3|0:3|1:3,0:0:0:0:
388,104,71459,5,4,0:3:0:0:
392,120,71666,1,4,0:3:0:0:
396,136,71873,2,0,L|412:192,1,52.5,4|0,0:3|0:0,0:0:0:0:
444,232,72287,6,0,P|392:200|320:224,1,140,4|0,1:3|0:0,0:0:0:0:
380,268,72907,1,4,0:3:0:0:
304,123,73115,1,4,0:3:0:0:
304,123,73218,2,0,B|295:153|295:153|323:229,1,105,0|4,0:0|0:3,0:0:0:0:
352,369,73735,5,4,0:3:0:0:
352,369,73839,1,4,0:3:0:0:
352,369,73942,2,0,L|384:249,2,105,4|4|4,1:3|0:3|0:3,0:0:0:0:
284,236,74769,1,4,1:3:0:0:
284,236,74873,2,0,L|304:312,1,70
240,344,75183,2,0,L|256:408,1,35,4|0,0:3|0:0,0:0:0:0:
168,360,75390,1,4,0:3:0:0:
168,360,75494,1,4,0:3:0:0:
168,360,75597,6,0,L|188:272,1,70,4|0,1:3|0:0,0:0:0:0:
252,183,75907,1,0,0:0:0:0:
252,183,76011,2,0,L|267:251,1,70,0|0,0:0|0:0,0:0:0:0:
120,304,76425,2,0,L|128:270,1,35,4|0,1:3|0:0,0:0:0:0:
199,223,76631,2,0,L|183:291,1,70,0|4,0:0|0:3,0:0:0:0:
52,324,77045,1,4,0:3:0:0:
52,324,77149,1,4,0:3:0:0:
52,324,77252,6,0,L|72:216,2,105,4|4|4,1:3|0:3|0:3,0:0:0:0:
191,323,78080,5,4,0:3:0:0:
183,291,78183,1,4,1:3:0:0:
215,283,78287,1,4,1:3:0:0:
223,315,78390,1,4,1:3:0:0:
159,371,78493,5,4,1:3:0:0:
151,367,78597,1,4,0:3:0:0:
143,359,78700,1,4,0:3:0:0:
139,351,78804,1,4,0:3:0:0:
183,291,78907,6,0,P|215:239|191:167,1,140,4|0,1:0|0:0,0:0:0:0:
147,227,79527,1,2,0:3:0:0:
289,153,79734,1,4,1:3:0:0:
289,153,79838,2,0,B|252:141|252:141|180:173,1,105,0|4,0:0|0:3,0:0:0:0:
46,199,80355,5,4,0:3:0:0:
46,199,80459,1,4,0:3:0:0:
46,199,80562,2,0,L|166:230,2,105,4|0|0,1:3|0:0|0:0,0:0:0:0:
0,100,81390,1,4,1:3:0:0:
0,100,81493,2,0,L|76:76,1,70
96,143,81804,2,0,L|160:127,1,35,4|0,0:3|0:0,0:0:0:0:
112,216,82011,1,4,0:3:0:0:
112,216,82115,1,4,0:3:0:0:
112,216,82218,6,0,B|72:200|72:200|80:340,1,157.500006008148,4|0,1:3|0:0,0:0:0:0:
88,320,82631,2,0,L|88:260,1,52.5000020027161,4|0,1:3|0:0,0:0:0:0:
100,332,82838,2,0,L|100:279,1,52.5000020027161,4|0,0:3|0:0,0:0:0:0:
200,352,83045,6,0,B|160:368|160:368|168:228,1,157.500006008148,4|0,1:3|0:0,0:0:0:0:
176,248,83458,2,0,L|176:308,1,52.5000020027161,4|0,1:3|0:0,0:0:0:0:
188,236,83665,2,0,L|188:288,1,52.5000020027161,4|0,0:3|0:0,0:0:0:0:
256,233,83873,6,0,P|249:199|224:176,1,70,4|0,1:0|0:0,0:0:0:0:
272,128,84080,2,0,P|242:109|208:110,1,70,4|0,0:3|0:0,0:0:0:0:
208,42,84287,2,0,P|174:49|150:74,1,70,4|0,0:3|0:0,0:0:0:0:
101,26,84493,2,0,P|82:55|83:89,1,70,4|0,0:3|0:0,0:0:0:0:
14,90,84700,2,0,P|21:123|46:147,1,70,4|0,0:3|0:0,0:0:0:0:
0,196,84907,2,0,P|29:214|63:213,1,70,4|0,0:3|0:0,0:0:0:0:
128,152,85114,5,4,1:0:0:0:
120,156,85218,1,0,1:0:0:0:
112,164,85321,1,4,0:3:0:0:
108,172,85425,1,4,0:3:0:0:
120,236,85529,5,4,1:0:0:0:
128,300,85735,1,0,0:3:0:0:
192,328,85942,5,0,1:3:0:0:
184,260,86149,1,4,0:3:0:0:
60,260,86355,5,0,1:3:0:0:
84,148,86562,1,4,0:3:0:0:
96,168,86768,5,0,1:3:0:0:
72,56,86975,1,4,0:3:0:0:
144,108,87183,5,0,1:3:0:0:
140,92,87390,1,4,0:3:0:0:
160,188,87597,5,0,1:3:0:0:
136,76,87804,1,4,0:3:0:0:
200,80,88011,1,4,0:3:0:0:
284,144,88218,5,0,1:3:0:0:
308,32,88425,1,4,0:3:0:0:
244,36,88632,1,4,0:3:0:0:
232,184,88839,5,4,1:0:0:0:
240,248,89045,1,0,0:3:0:0:
304,276,89252,5,0,1:3:0:0:
296,208,89458,1,4,0:3:0:0:
192,288,89665,5,0,1:3:0:0:
232,184,89872,1,0,1:3:0:0:
216,196,90080,5,0,1:3:0:0:
184,84,90287,1,0,1:3:0:0:
296,80,90493,6,0,P|356:92|456:80,1,157.500006008148,4|0,0:0|0:0,0:0:0:0:
464,68,90907,1,0,1:0:0:0:
500,228,91114,1,0,1:0:0:0:
504,244,91321,6,0,P|444:256|344:244,1,157.500006008148,4|0,2:0|0:0,0:0:0:0:
340,236,91735,1,4,1:0:0:0:
288,336,91942,1,4,0:3:0:0:
288,336,92045,1,4,0:3:0:0:
288,336,92149,5,4,1:0:0:0:
224,328,92355,1,0,0:3:0:0:
196,264,92562,5,0,1:3:0:0:
264,272,92768,1,4,0:3:0:0:
152,316,92976,5,0,1:3:0:0:
224,196,93183,1,4,0:3:0:0:
236,216,93389,5,0,1:3:0:0:
212,104,93596,1,4,0:3:0:0:
312,160,93804,5,0,1:3:0:0:
308,144,94011,1,4,0:3:0:0:
304,128,94218,5,0,1:3:0:0:
280,16,94425,1,4,0:3:0:0:
344,20,94632,1,4,0:3:0:0:
424,184,94838,5,0,1:3:0:0:
448,72,95045,1,4,0:3:0:0:
384,76,95252,1,4,0:3:0:0:
400,248,95459,5,4,1:0:0:0:
464,240,95665,1,0,0:3:0:0:
492,176,95872,5,0,1:3:0:0:
424,184,96080,1,4,0:3:0:0:
344,284,96286,5,0,1:3:0:0:
324,150,96493,1,4,0:3:0:0:
336,170,96699,5,4,0:0:0:0:
388,58,96906,1,4,0:3:0:0:
280,176,97114,6,0,P|308:164|336:136,5,52.5000020027161,6|0|4|4|4|4,0:0|0:0|0:3|0:3|0:3|0:3,0:0:0:0:
272,112,97735,2,0,P|283:84|283:45,1,52.5000020027161,4|0,0:3|0:0,0:0:0:0:
224,64,97942,2,0,P|211:37|184:9,5,52.5000020027161,6|4|4|4|8|0,0:0|0:3|0:3|0:3|0:3|0:0,0:0:0:0:
272,112,98562,2,0,P|283:84|283:45,1,52.5000020027161,8|0,0:3|0:0,0:0:0:0:
156,76,98769,6,0,L|120:64,3,35,4|4|4|4,1:0|0:3|0:3|0:3,0:0:0:0:
192,136,99183,6,0,L|176:200,1,52.5,8|0,0:3|0:0,0:0:0:0:
224,244,99597,6,0,L|212:280,3,35,4|4|4|4,1:3|0:3|0:3|0:3,0:0:0:0:
284,208,100011,2,0,L|272:172,3,35,4|0|4|0,0:3|0:0|0:3|0:0,0:0:0:0:
344,244,100425,2,0,L|332:280,3,35,4|0|0|0,0:3|0:0|0:0|0:0,0:0:0:0:
412,200,100838,6,0,L|396:136,1,52.5,8|0,0:3|0:0,0:0:0:0:
336,124,101252,6,0,L|300:136,3,35,4|4|4|4,1:3|0:3|0:3|0:3,0:0:0:0:
372,64,101666,6,0,L|356:0,1,52.5,12|0,0:3|0:0,0:0:0:0:
435,89,102080,6,0,L|471:77,3,35,0|4|4|4,1:2|0:3|0:3|0:3,0:0:0:0:
399,149,102494,6,0,L|415:213,1,52.5,12|0,1:3|0:0,0:0:0:0:
367,257,102907,2,0,L|379:293,3,35,4|4|4|4,1:3|0:3|0:3|0:3,0:0:0:0:
307,221,103321,2,0,L|319:185,3,35,12|4|4|4,0:3|0:3|0:3|0:3,0:0:0:0:
247,257,103735,2,0,L|259:293,3,35,12|4|4|4,0:3|0:3|0:3|0:3,0:0:0:0:
179,213,104149,6,0,L|195:149,1,52.5,8|0,3:0|0:0,0:0:0:0:
156,102,104562,6,0,L|120:90,3,35,4|4|4|4,1:3|0:3|0:3|0:3,0:0:0:0:
192,162,104977,6,0,L|152:168,1,26.2500010013581,4|0,1:0|0:0,0:0:0:0:
120,220,105183,6,0,L|92:214,1,17.5,4|0,1:0|0:0,0:0:0:0:
168,272,105390,6,0,L|132:284,3,35,4|4|4|4,1:0|0:3|0:3|0:3,0:0:0:0:
204,212,105804,6,0,L|188:148,1,52.5,8|0,0:3|0:0,0:0:0:0:
236,104,106218,2,0,L|224:68,3,35,4|4|4|4,1:3|0:3|0:3|0:3,0:0:0:0:
296,140,106631,2,0,L|284:176,3,35,12|4|4|4,0:3|0:3|0:3|0:3,0:0:0:0:
356,104,107045,2,0,L|344:68,3,35,12|4|4|4,0:3|0:3|0:3|0:3,0:0:0:0:
424,148,107459,6,0,L|408:212,1,52.5,12|0,0:3|0:0,0:0:0:0:
348,224,107873,6,0,L|312:212,3,35,4|4|4|4,1:3|0:3|0:3|0:3,0:0:0:0:
384,284,108287,1,12,0:3:0:0:
292,364,108493,5,4,0:3:0:0:
296,356,108597,1,4,1:3:0:0:
312,288,108700,1,4,1:3:0:0:
316,296,108804,1,4,1:3:0:0:
356,348,108907,1,4,1:3:0:0:
424,336,109011,1,4,1:3:0:0:
484,320,109114,6,0,P|476:288|480:256,1,52.5,10|0,0:3|0:0,0:0:0:0:
488,332,109528,6,0,P|476:272|496:172,1,140,4|0,1:0|0:0,0:0:0:0:
456,124,109942,5,4,0:3:0:0:
486,194,110149,1,4,0:3:0:0:
420,184,110356,2,0,L|384:196,3,35,4|4|4|4,0:3|0:3|0:3|0:3,0:0:0:0:
456,124,110770,6,0,L|440:60,1,52.5,4|0,3:0|0:0,0:0:0:0:
388,32,111183,6,0,L|376:68,3,35,4|4|4|4,1:3|0:3|0:3|0:3,0:0:0:0:
312,24,111597,5,4,1:0:0:0:
344,160,111700,2,0,L|355:126,1,35,0|0,1:3|0:0,0:0:0:0:
268,72,111907,1,4,1:3:0:0:
195,175,112011,6,0,P|131:200|72:168,1,140,4|0,1:3|0:0,0:0:0:0:
136,132,112631,1,4,0:3:0:0:
206,274,112838,1,4,1:3:0:0:
206,274,112942,2,0,B|215:208|215:208|191:168,1,105,0|4,0:0|0:3,0:0:0:0:
164,31,113459,5,4,0:3:0:0:
164,31,113563,1,4,0:3:0:0:
164,31,113666,2,0,L|132:151,2,105,4|4|4,1:3|0:3|0:3,0:0:0:0:
244,168,114493,1,4,1:3:0:0:
244,168,114597,2,0,L|220:96,1,70
276,56,114907,2,0,L|260:-8,1,35,4|0,0:3|0:0,0:0:0:0:
348,40,115114,1,4,0:3:0:0:
348,40,115218,1,4,0:3:0:0:
348,40,115321,6,0,L|328:128,1,70,4|0,1:3|0:0,0:0:0:0:
264,217,115631,1,0,0:0:0:0:
264,217,115735,2,0,L|248:148,1,70,4|4,3:0|0:3,0:0:0:0:
396,96,116149,2,0,L|387:129,1,35,4|0,1:3|0:0,0:0:0:0:
317,177,116355,2,0,L|332:108,1,70,0|4,0:0|0:3,0:0:0:0:
464,76,116769,1,4,0:3:0:0:
464,76,116873,1,4,0:3:0:0:
464,76,116976,6,0,L|444:184,2,105,4|4|4,1:3|0:3|0:3,0:0:0:0:
325,77,117804,5,4,0:3:0:0:
333,109,117907,1,4,1:3:0:0:
301,117,118011,1,4,1:3:0:0:
293,85,118114,1,4,1:3:0:0:
357,29,118217,5,4,1:3:0:0:
365,33,118321,1,4,0:3:0:0:
373,41,118424,1,4,0:3:0:0:
377,49,118528,1,4,0:3:0:0:
333,109,118631,6,0,P|301:161|325:233,1,140,4|0,1:3|0:0,0:0:0:0:
369,173,119251,1,2,0:3:0:0:
231,261,119458,1,4,1:3:0:0:
231,261,119562,2,0,B|301:258|301:258|328:225,1,105,0|4,0:0|0:3,0:0:0:0:
470,201,120079,5,4,0:3:0:0:
470,201,120183,1,4,0:3:0:0:
470,201,120286,2,0,L|350:169,2,105,4|0|4,1:3|0:0|0:3,0:0:0:0:
512,332,121114,1,4,1:3:0:0:
512,332,121218,2,0,L|428:320,1,70
420,257,121528,2,0,L|356:273,1,35,4|0,0:3|0:0,0:0:0:0:
404,184,121735,1,4,0:3:0:0:
404,184,121839,1,4,0:3:0:0:
404,184,121942,6,0,B|444:200|444:200|436:60,1,157.500006008148,4|0,1:3|0:0,0:0:0:0:
428,80,122355,2,0,L|428:140,1,52.5000020027161,4|0,1:3|0:0,0:0:0:0:
416,68,122562,2,0,L|416:120,1,52.5000020027161,4|0,0:3|0:0,0:0:0:0:
312,52,122769,6,0,B|352:36|352:36|344:176,1,157.500006008148,4|0,1:3|0:0,0:0:0:0:
336,156,123183,2,0,L|336:96,1,52.5000020027161,4|0,1:3|0:0,0:0:0:0:
324,168,123389,2,0,L|324:115,1,52.5000020027161,4|0,0:3|0:0,0:0:0:0:
244,188,123597,5,4,1:0:0:0:
264,215,123700,1,4,1:3:0:0:
272,249,123803,1,4,1:3:0:0:
266,283,123907,1,4,1:3:0:0:
247,312,124010,1,4,1:3:0:0:
218,331,124114,1,4,1:3:0:0:
184,337,124217,1,4,1:3:0:0:
150,329,124321,1,4,1:3:0:0:
122,308,124424,1,4,1:3:0:0:
105,277,124528,1,4,1:3:0:0:
102,243,124631,1,4,1:3:0:0:
112,210,124734,1,4,1:3:0:0:
135,184,124838,5,4,1:0:0:0:
136,172,124942,1,0,1:0:0:0:
136,164,125045,1,4,0:3:0:0:
136,156,125149,1,4,0:3:0:0:
136,80,125252,5,4,1:0:0:0:
192,96,125459,1,0,0:3:0:0:
224,156,125666,5,4,1:0:0:0:
280,140,125873,1,0,0:3:0:0:
388,24,126079,5,0,1:3:0:0:
276,44,126286,1,4,0:3:0:0:
296,56,126492,5,0,1:3:0:0:
184,32,126699,1,4,0:3:0:0:
360,124,126907,5,0,1:3:0:0:
376,120,127114,1,4,0:3:0:0:
280,140,127321,5,0,1:3:0:0:
392,116,127528,1,4,0:3:0:0:
448,152,127735,1,4,0:3:0:0:
336,204,127942,5,0,1:3:0:0:
448,228,128149,1,4,0:3:0:0:
504,192,128356,1,4,0:3:0:0:
356,272,128562,5,4,1:0:0:0:
412,288,128769,1,0,0:3:0:0:
444,348,128976,5,4,1:0:0:0:
500,332,129183,1,0,0:3:0:0:
448,228,129389,5,0,1:3:0:0:
350,190,129596,1,0,1:3:0:0:
370,178,129804,5,0,1:3:0:0:
258,202,130011,1,0,1:3:0:0:
368,328,130218,6,0,P|348:264|384:160,1,157.500006008148,4|0,0:0|0:0,0:0:0:0:
380,164,130631,1,0,1:0:0:0:
272,304,130838,1,0,1:0:0:0:
325,105,131045,6,0,P|293:164|194:212,1,157.500006008148,4|0,2:0|0:0,0:0:0:0:
200,212,131458,1,4,1:0:0:0:
84,248,131666,1,4,0:3:0:0:
84,248,131769,1,4,0:3:0:0:
84,248,131873,5,4,1:0:0:0:
100,192,132080,1,0,0:3:0:0:
160,160,132287,5,4,1:0:0:0:
144,104,132494,1,0,0:3:0:0:
200,212,132700,5,0,1:3:0:0:
312,236,132907,1,4,0:3:0:0:
292,248,133113,5,0,1:3:0:0:
404,224,133320,1,4,0:3:0:0:
312,112,133528,5,0,1:3:0:0:
328,116,133735,1,4,0:3:0:0:
232,96,133942,5,0,1:3:0:0:
344,120,134149,1,4,0:3:0:0:
400,88,134356,1,4,0:3:0:0:
292,180,134562,5,0,1:3:0:0:
404,156,134769,1,4,0:3:0:0:
460,188,134976,1,4,0:3:0:0:
252,240,135183,5,4,1:0:0:0:
268,296,135390,1,0,0:3:0:0:
328,328,135597,5,4,1:0:0:0:
312,384,135804,1,0,0:3:0:0:
124,316,136010,5,0,1:3:0:0:
236,340,136217,1,4,0:3:0:0:
216,352,136425,5,0,1:3:0:0:
328,328,136631,1,4,0:3:0:0:
244,240,136838,6,0,P|256:268|284:296,5,52.5000020027161,6|0|4|4|4|4,0:0|0:0|0:3|0:3|0:3|0:3,0:0:0:0:
308,232,137459,2,0,P|336:243|375:243,1,52.5000020027161,4|0,0:3|0:0,0:0:0:0:
356,184,137666,2,0,P|383:171|411:144,5,52.5000020027161,6|4|4|4|8|0,0:0|0:3|0:3|0:3|0:3|0:0,0:0:0:0:
308,232,138287,2,0,P|336:243|375:243,1,52.5000020027161,8|0,0:3|0:0,0:0:0:0:
360,84,138493,6,0,P|388:124|496:128,1,140,4|0,0:0|0:0,0:0:0:0:
473,139,139321,2,0,P|489:127|506:105,1,35,0|0,1:0|0:0,0:0:0:0:
440,68,139528,1,4,0:3:0:0:
472,236,139941,1,0,0:0:0:0:
472,236,140044,1,4,3:0:0:0:
472,236,140148,6,0,P|444:196|336:192,1,140,4|0,1:0|0:0,0:0:0:0:
358,180,140976,2,0,P|341:168|324:146,1,35,0|0,1:0|0:0,0:0:0:0:
391,109,141182,1,4,0:3:0:0:
292,224,141596,1,0,0:0:0:0:
391,109,141804,6,0,L|376:260,1,140,4|0,1:3|0:0,0:0:0:0:
464,356,142424,1,4,0:3:0:0:
464,356,142527,1,4,0:3:0:0:
464,356,142631,6,0,P|449:324|407:299,1,70,0|0,1:0|0:0,0:0:0:0:
412,304,142942,1,4,0:3:0:0:
400,304,143045,2,0,P|383:315|366:337,1,35,0|0,0:0|0:0,0:0:0:0:
272,304,143252,2,0,P|283:320|305:337,1,35,4|0,1:3|0:0,0:0:0:0:
296,232,143459,6,0,B|226:200|226:284|146:236,1,157.500006008148,4|0,0:0|0:0,0:0:0:0:
140,228,143873,1,0,1:0:0:0:
272,304,144080,1,0,1:0:0:0:
280,316,144287,6,0,B|210:347|210:263|130:311,1,157.500006008148,4|0,2:0|0:0,0:0:0:0:
120,324,144700,1,4,1:0:0:0:
192,192,144907,1,4,0:3:0:0:
152,84,145114,6,0,P|124:124|16:128,1,140,4|0,1:0|0:0,0:0:0:0:
39,139,145942,2,0,P|22:127|5:105,1,35,0|0,1:0|0:0,0:0:0:0:
72,68,146149,1,4,0:3:0:0:
40,236,146563,1,0,0:0:0:0:
40,236,146666,1,0,0:0:0:0:
40,236,146770,6,0,P|68:196|176:192,1,140,4|0,0:3|0:0,0:0:0:0:
154,180,147597,2,0,P|170:168|187:146,1,35,0|0,1:0|0:0,0:0:0:0:
121,109,147804,1,4,0:3:0:0:
220,224,148218,1,0,0:0:0:0:
121,109,148425,6,0,L|136:260,1,140,4|0,0:3|0:0,0:0:0:0:
100,364,149046,1,0,0:0:0:0:
100,364,149149,1,0,0:0:0:0:
100,364,149253,6,0,P|114:332|156:307,1,70,0|0,1:0|0:0,0:0:0:0:
156,308,149562,2,0,P|220:296|276:348,1,140,4|0,0:3|0:0,0:0:0:0:
200,368,150081,6,0,B|269:399|269:315|349:363,1,157.500006008148,4|0,0:0|0:0,0:0:0:0:
356,372,150493,1,0,1:0:0:0:
224,296,150700,1,0,1:0:0:0:
368,368,150907,5,6,1:0:0:0:
324,236,151114,1,4,0:3:0:0:
380,360,151321,5,0,1:0:0:0:
308,316,151528,1,0,1:0:0:0:
372,296,151735,5,4,0:0:0:0:
352,68,164976,6,0,L|364:216,1,140,4|0,1:0|0:0,0:0:0:0:
368,272,165597,1,2,0:0:0:0:
364,208,165804,2,0,P|328:188|288:192,1,70,4|0,1:2|0:0,0:0:0:0:
252,264,166218,2,0,P|287:263|317:245,1,70,2|0,0:0|0:0,0:0:0:0:
212,204,166631,2,0,P|184:248|232:332,1,140,0|0,0:0|0:0,0:0:0:0:
252,264,167252,1,4,0:3:0:0:
212,204,167459,2,0,L|64:220,1,140,4|0,1:2|0:0,0:0:0:0:
80,292,168080,1,0,0:0:0:0:
73,220,168287,5,4,0:3:0:0:
73,220,168700,2,0,P|72:186|54:156,1,70,0|0,0:0|0:0,0:0:0:0:
8,112,169114,2,0,P|52:140|136:92,1,140,4|0,1:2|0:0,0:0:0:0:
68,72,169735,1,0,0:0:0:0:
128,109,169942,2,0,L|276:125,1,140,0|0,0:0|0:0,0:0:0:0:
280,188,170562,1,0,0:0:0:0:
268,125,170769,2,0,P|303:127|333:145,1,70,4|0,1:2|0:0,0:0:0:0:
340,156,171080,1,0,1:0:0:0:
344,172,171183,2,0,P|346:138|364:108,1,70,0|0,0:0|1:0,0:0:0:0:
404,156,171597,5,4,1:2:0:0:
404,156,172011,2,0,P|403:191|385:221,1,70,2|0,3:3|0:0,0:0:0:0:
444,256,172425,2,0,P|400:284|316:236,1,140,4|2,1:2|0:0,0:0:0:0:
385,221,173045,1,0,0:0:0:0:
444,256,173252,1,0,0:0:0:0:
444,256,173666,1,0,0:0:0:0:
448,328,173873,1,4,0:3:0:0:
384,284,174080,2,0,P|350:286|320:304,1,70,4|0,1:2|0:0,0:0:0:0:
301,368,174494,5,0,0:0:0:0:
301,368,174907,2,0,P|320:339|321:304,1,70,4|0,0:3|0:0,0:0:0:0:
240,256,175321,1,0,0:0:0:0:
260,321,175528,1,0,0:0:0:0:
300,216,175735,2,0,P|241:184|181:213,2,140,4|2|2,1:2|0:0|3:3,0:0:0:0:
240,256,176769,1,0,0:0:0:0:
300,216,176976,2,0,P|335:218|365:236,1,70,0|0,0:0|0:0,0:0:0:0:
296,344,177390,1,0,1:0:0:0:
316,279,177597,1,4,0:3:0:0:
392,344,177804,5,0,1:0:0:0:
384,352,177907,2,0,P|368:340|352:316,1,35,0|0,1:0|0:0,0:0:0:0:
396,256,178114,1,4,0:3:0:0:
416,244,178218,6,0,P|368:252|276:180,1,140,4|4,1:0|0:3,0:0:0:0:
312,108,179045,2,0,P|360:100|452:172,1,140,4|4,0:3|0:3,0:0:0:0:
256,144,179873,2,0,P|248:112|256:80,1,35,4|0,0:3|0:0,0:0:0:0:
312,108,180080,2,0,P|360:100|452:172,1,140,4|0,3:0|0:0,0:0:0:0:
416,244,180700,2,0,P|368:252|276:180,1,140,4|0,3:0|0:3,0:0:0:0:
116,324,181528,6,0,L|264:308,1,140,4|0,0:3|0:0,0:0:0:0:
230,201,182356,2,0,L|90:216,1,140,4|0,0:3|0:0,0:0:0:0:
255,308,183183,1,2,0:0:0:0:
288,204,183390,2,0,P|286:186|280:170,1,35,2|0,0:0|0:0,0:0:0:0:
160,209,183597,2,0,L|261:195,1,70,4|0,0:3|0:0,0:0:0:0:
255,308,184011,2,0,L|116:324,1,140,4|0,0:3|0:0,0:0:0:0:
160,209,184631,2,0,P|166:225|167:242,1,35,4|0,3:0|0:0,0:0:0:0:
35,244,184838,6,0,P|91:204|160:209,1,140,4|4,0:0|3:0,0:0:0:0:
312,108,185666,2,0,P|255:147|186:142,1,140,4|0,0:3|0:3,0:0:0:0:
368,72,186493,2,0,P|374:88|375:105,1,35,4|0,0:3|0:0,0:0:0:0:
312,108,186700,2,0,P|255:147|186:142,1,140,4|0,3:0|0:0,0:0:0:0:
34,243,187321,2,0,P|90:203|159:208,1,140,4|0,3:3|0:0,0:0:0:0:
396,324,188149,6,0,L|248:308,1,140,4|0,0:3|0:0,0:0:0:0:
282,201,188977,2,0,L|421:216,1,140,4|0,0:3|0:0,0:0:0:0:
257,308,189804,1,2,0:0:0:0:
224,204,190011,2,0,P|225:186|231:170,1,35,4|0,0:3|0:0,0:0:0:0:
352,209,190218,2,0,L|250:195,1,70,4|0,0:3|0:0,0:0:0:0:
256,308,190632,2,0,L|396:324,1,140,4|4,0:3|0:3,0:0:0:0:
396,324,191459,6,0,L|384:268,7,35,4|0|0|0|0|0|0|0,3:0|3:0|3:0|3:0|3:0|3:0|3:0|3:0,0:0:0:0:
448,288,192287,2,0,L|460:232,3,35,4|0|0|0,3:3|3:0|3:0|3:0,0:0:0:0:
388,224,192700,2,0,L|400:168,3,35,0|0|0|0,3:0|3:0|3:0|3:0,0:0:0:0:
456,152,193114,6,0,L|463:186,7,35,2|0|0|0|0|0|0|0,3:2|3:0|3:0|3:0|3:0|3:0|3:0|3:0,0:0:0:0:
469,83,193942,2,0,L|453:163,1,70,4|0,3:0|3:0,0:0:0:0:
408,68,194252,1,2,0:0:0:0:
408,68,194356,2,0,L|392:120,1,35,0|0,0:0|0:0,0:0:0:0:
352,48,194562,2,0,L|336:100,1,35,2|0,0:0|0:0,0:0:0:0:
282,151,194769,6,0,L|270:95,7,35,4|0|0|0|0|0|0|0,3:0|3:0|3:0|3:0|3:0|3:0|3:0|3:0,0:0:0:0:
334,115,195597,2,0,L|346:59,3,35,4|0|0|0,3:3|3:0|3:0|3:0,0:0:0:0:
274,51,196011,2,0,L|286:-5,3,35,0|0|0|0,3:0|3:0|3:0|3:0,0:0:0:0:
216,56,196425,6,0,L|228:112,7,35,4|0|0|0|0|0|0|0,3:0|3:0|3:0|3:0|3:0|3:0|3:0|3:0,0:0:0:0:
160,128,197252,2,0,L|144:48,1,70,4|0,0:3|0:0,0:0:0:0:
99,143,197562,1,0,1:0:0:0:
99,143,197666,2,0,L|83:63,1,70,0|0,0:0|0:0,0:0:0:0:
172,208,198080,6,0,L|116:196,7,35,4|0|0|0|0|0|0|0,3:0|3:0|3:0|3:0|3:0|3:0|3:0|3:0,0:0:0:0:
136,260,198908,2,0,L|80:272,3,35,4|0|0|0,3:3|0:0|0:0|0:0,0:0:0:0:
72,200,199321,2,0,L|16:212,3,35,0|0|0|0,3:0|3:0|3:0|3:0,0:0:0:0:
104,144,199735,6,0,L|92:88,7,35,4|0|0|0|0|0|0|0,3:0|3:0|3:0|3:0|3:0|3:0|3:0|3:0,0:0:0:0:
157,97,200562,2,0,L|169:153,3,35,4|0|0|0,3:0|3:0|3:0|3:0,0:0:0:0:
220,84,200976,2,0,L|232:140,3,35,0|0|0|0,3:0|3:0|3:0|3:0,0:0:0:0:
304,104,201390,5,4,3:3:0:0:
300,115,201493,1,0,3:3:0:0:
297,127,201597,1,0,3:3:0:0:
294,138,201700,1,0,3:3:0:0:
291,150,201804,6,0,L|280:188,3,35,0|0|0|0,3:3|3:3|3:3|3:3,0:0:0:0:
348,180,202218,2,0,L|358:218,3,35,4|0|0|4,3:3|3:3|1:3|1:3,0:0:0:0:
424,148,202631,2,0,L|413:186,3,35,0|0|0|0,1:3|1:3|1:3|1:3,0:0:0:0:
492,192,203045,5,4,1:3:0:0:
488,203,203148,1,0,1:3:0:0:
485,215,203252,1,0,1:3:0:0:
482,226,203355,1,0,1:3:0:0:
468,244,203459,5,4,1:3:0:0:
472,255,203562,1,0,1:3:0:0:
475,267,203666,1,0,1:3:0:0:
478,278,203769,1,0,1:3:0:0:
512,308,203873,6,0,L|436:292,1,70,4|0,1:3|1:3,0:0:0:0:
380,348,204183,1,0,1:3:0:0:
384,360,204287,2,0,L|432:344,1,35,4|4,1:3|1:3,0:0:0:0:
348,224,204493,5,4,1:3:0:0:
364,288,204597,1,4,1:3:0:0:
376,80,211321,5,4,1:0:0:0:
308,88,211528,1,0,0:3:0:0:
232,100,211735,5,4,1:0:0:0:
164,108,211942,1,0,0:3:0:0:
128,300,212148,5,0,1:3:0:0:
104,168,212355,1,4,0:3:0:0:
92,188,212561,5,0,1:3:0:0:
120,60,212768,1,4,0:3:0:0:
188,212,212976,5,0,1:3:0:0:
172,208,213183,1,4,0:3:0:0:
268,228,213390,5,0,1:3:0:0:
156,204,213597,1,4,0:3:0:0:
92,188,213804,1,4,0:3:0:0:
332,272,214011,5,0,1:3:0:0:
220,296,214218,1,4,0:3:0:0:
156,312,214425,1,4,0:3:0:0:
268,228,214631,5,4,1:0:0:0:
200,220,214838,1,0,0:3:0:0:
124,208,215045,5,4,1:0:0:0:
56,200,215252,1,0,0:3:0:0:
244,116,215458,5,0,1:3:0:0:
268,228,215665,1,0,1:3:0:0:
280,208,215873,5,0,1:3:0:0:
256,320,216080,1,0,1:3:0:0:
144,328,216287,6,0,B|168:256|168:256|128:160,1,157.500006008148,4|0,0:0|0:0,0:0:0:0:
132,164,216700,1,0,1:0:0:0:
256,320,216907,1,0,1:0:0:0:
187,105,217114,6,0,B|220:168|220:168|318:212,1,157.500006008148,4|0,2:0|0:0,0:0:0:0:
312,212,217527,1,4,1:0:0:0:
428,248,217735,1,4,0:3:0:0:
428,248,217838,1,4,0:3:0:0:
428,248,217942,5,4,1:0:0:0:
420,180,218149,1,0,0:3:0:0:
408,104,218356,5,4,1:0:0:0:
400,36,218563,1,0,0:3:0:0:
356,216,218769,5,0,1:3:0:0:
244,192,218976,1,4,0:3:0:0:
264,180,219182,5,0,1:3:0:0:
152,204,219389,1,4,0:3:0:0:
356,216,219597,5,0,1:3:0:0:
352,232,219804,1,4,0:3:0:0:
372,136,220011,5,0,1:3:0:0:
348,248,220218,1,4,0:3:0:0:
332,312,220425,1,4,0:3:0:0:
416,72,220632,5,0,1:3:0:0:
440,184,220839,1,4,0:3:0:0:
456,248,221046,1,4,0:3:0:0:
288,96,221252,5,0,0:3:0:0:
280,164,221459,1,4,1:0:0:0:
268,240,221666,5,0,0:3:0:0:
260,308,221873,1,4,1:0:0:0:
20,204,222079,5,0,1:3:0:0:
132,180,222286,1,4,0:3:0:0:
112,168,222494,5,0,1:3:0:0:
224,192,222700,1,4,0:3:0:0:
268,240,222907,6,0,P|256:268|228:296,5,52.5000020027161,6|0|4|4|4|4,0:0|0:0|0:3|0:3|0:3|0:3,0:0:0:0:
204,232,223528,2,0,P|176:243|137:243,1,52.5000020027161,4|0,0:3|0:0,0:0:0:0:
156,184,223735,2,0,P|129:171|101:144,5,52.5000020027161,6|4|4|4|8|0,0:0|0:3|0:3|0:3|0:3|0:0,0:0:0:0:
204,232,224356,2,0,P|176:243|137:243,1,52.5000020027161,8|0,0:3|0:0,0:0:0:0:
152,84,224562,6,0,P|124:124|16:128,1,140,4|0,0:0|0:0,0:0:0:0:
39,139,225390,2,0,P|23:127|6:105,1,35,4|0,0:0|0:0,0:0:0:0:
72,68,225597,1,4,0:3:0:0:
40,236,226010,1,0,0:0:0:0:
40,236,226113,1,4,3:0:0:0:
40,236,226217,6,0,P|68:196|176:192,1,140,4|0,1:0|0:0,0:0:0:0:
154,180,227045,2,0,P|171:168|188:146,1,35,0|0,1:0|0:0,0:0:0:0:
121,109,227251,1,4,0:3:0:0:
220,224,227665,1,0,0:0:0:0:
121,109,227873,6,0,L|136:260,1,140,4|0,1:3|0:0,0:0:0:0:
48,356,228493,1,4,0:3:0:0:
48,356,228596,1,4,0:3:0:0:
48,356,228700,6,0,P|63:324|105:299,1,70,0|0,1:0|0:0,0:0:0:0:
100,304,229011,1,4,0:3:0:0:
112,304,229114,2,0,P|129:315|146:337,1,35,0|0,0:0|0:0,0:0:0:0:
240,304,229321,2,0,P|229:320|207:337,1,35,0|0,0:0|0:0,0:0:0:0:
216,232,229528,6,0,B|286:200|286:284|366:236,1,157.500006008148,4|0,0:0|0:0,0:0:0:0:
372,228,229942,1,0,1:0:0:0:
240,304,230149,1,0,1:0:0:0:
232,316,230356,6,0,B|302:347|302:263|382:311,1,157.500006008148,4|0,2:0|0:0,0:0:0:0:
392,324,230769,1,4,1:0:0:0:
320,192,230976,1,4,0:3:0:0:
360,84,231183,6,0,P|388:124|496:128,1,140,4|0,1:0|0:0,0:0:0:0:
473,139,232011,2,0,P|490:127|507:105,1,35,4|0,0:0|0:0,0:0:0:0:
440,68,232218,1,4,0:3:0:0:
472,236,232632,1,0,0:0:0:0:
472,236,232735,1,0,0:0:0:0:
472,236,232839,6,0,P|444:196|336:192,1,140,4|0,0:3|0:0,0:0:0:0:
358,180,233666,2,0,P|342:168|325:146,1,35,4|0,0:0|0:0,0:0:0:0:
391,109,233873,1,4,0:3:0:0:
292,224,234287,1,0,0:0:0:0:
391,109,234494,6,0,L|376:260,1,140,4|0,0:3|0:0,0:0:0:0:
412,364,235115,1,0,0:0:0:0:
412,364,235218,1,0,0:0:0:0:
412,364,235322,6,0,P|398:332|356:307,1,70,0|0,1:0|0:0,0:0:0:0:
356,308,235631,2,0,P|292:296|236:348,1,140,4|0,0:3|0:0,0:0:0:0:
312,368,236150,6,0,B|243:399|243:315|163:363,1,157.500006008148,4|0,0:0|0:0,0:0:0:0:
156,372,236562,1,0,1:0:0:0:
288,296,236769,1,0,1:0:0:0:
144,368,236976,5,6,1:0:0:0:
188,236,237183,1,4,0:3:0:0:
132,360,237390,5,0,1:0:0:0:
240,260,237597,1,0,0:0:0:0:
356,308,237804,6,0,L|392:320,3,35,4|4|4|4,1:0|0:3|0:3|0:3,0:0:0:0:
320,248,238218,6,0,L|336:184,1,52.5,8|0,0:3|0:0,0:0:0:0:
288,140,238632,2,0,L|300:104,3,35,4|4|4|4,1:3|0:3|0:3|0:3,0:0:0:0:
228,176,239046,2,0,L|240:212,3,35,4|0|4|0,0:3|0:0|0:3|0:0,0:0:0:0:
168,140,239460,2,0,L|180:104,3,35,4|0|0|0,0:3|0:0|0:0|0:0,0:0:0:0:
100,184,239873,6,0,L|116:248,1,52.5,8|0,0:3|0:0,0:0:0:0:
176,260,240287,6,0,L|212:248,3,35,4|4|4|4,1:3|0:3|0:3|0:3,0:0:0:0:
140,320,240701,6,0,L|156:384,1,52.5,12|0,0:3|0:0,0:0:0:0:
77,295,241115,6,0,L|41:307,3,35,0|4|4|4,1:2|0:3|0:3|0:3,0:0:0:0:
113,235,241529,6,0,L|97:171,1,52.5,12|0,1:3|0:0,0:0:0:0:
145,127,241942,2,0,L|133:91,3,35,4|4|4|4,1:3|0:3|0:3|0:3,0:0:0:0:
205,163,242356,2,0,L|193:199,3,35,12|4|4|4,0:3|0:3|0:3|0:3,0:0:0:0:
265,127,242770,2,0,L|253:91,3,35,12|4|4|4,0:3|0:3|0:3|0:3,0:0:0:0:
333,171,243184,6,0,L|317:235,1,52.5,8|0,3:0|0:0,0:0:0:0:
356,282,243597,6,0,L|392:294,3,35,4|4|4|4,1:3|0:3|0:3|0:3,0:0:0:0:
320,222,244012,6,0,L|360:216,1,26.2500010013581,4|0,1:0|0:0,0:0:0:0:
392,164,244218,6,0,L|415:166,1,17.5,4|0,0:3|0:0,0:0:0:0:
344,112,244425,6,0,L|380:100,3,35,4|4|4|4,1:0|0:3|0:3|0:3,0:0:0:0:
308,172,244839,6,0,L|324:236,1,52.5,8|0,0:3|0:0,0:0:0:0:
276,280,245253,2,0,L|288:316,3,35,4|4|4|4,1:3|0:3|0:3|0:3,0:0:0:0:
216,244,245666,2,0,L|228:208,3,35,12|4|4|4,0:3|0:3|0:3|0:3,0:0:0:0:
156,280,246080,2,0,L|168:316,3,35,12|4|4|4,0:3|0:3|0:3|0:3,0:0:0:0:
88,236,246494,6,0,L|104:172,1,52.5,12|0,0:3|0:0,0:0:0:0:
164,160,246908,6,0,L|200:172,3,35,4|4|4|4,1:3|0:3|0:3|0:3,0:0:0:0:
128,100,247322,1,12,0:3:0:0:
220,20,247527,5,4,0:3:0:0:
216,28,247631,1,4,1:3:0:0:
200,96,247734,1,4,1:3:0:0:
196,88,247838,1,4,1:3:0:0:
156,36,247941,1,4,1:3:0:0:
88,48,248045,1,4,1:3:0:0:
28,64,248149,6,0,P|36:96|32:128,1,52.5,10|0,0:3|0:0,0:0:0:0:
24,52,248563,6,0,P|36:112|16:212,1,140,4|0,1:0|0:0,0:0:0:0:
56,260,248977,5,4,0:3:0:0:
26,190,249184,1,4,0:3:0:0:
92,200,249391,2,0,L|128:188,3,35,4|4|4|4,0:3|0:3|0:3|0:3,0:0:0:0:
56,260,249805,6,0,L|71:325,1,52.5,4|0,3:0|0:0,0:0:0:0:
124,352,250218,6,0,L|136:316,3,35,4|4|4|4,1:3|0:3|0:3|0:3,0:0:0:0:
200,360,250632,5,4,1:0:0:0:
168,224,250735,2,0,L|157:258,1,35,0|0,1:0|0:0,0:0:0:0:
256,316,250942,1,4,1:3:0:0:
