osu file format v14

[General]
AudioFilename: audio.ogg
AudioLeadIn: 0
PreviewTime: 175689
Countdown: 0
SampleSet: Soft
StackLeniency: 0.7
Mode: 0
LetterboxInBreaks: 0
WidescreenStoryboard: 1

[Editor]
Bookmarks: 44032,55003,65974,76946,87917,98889,109860,120832,131803,142774,153746,164717,175689,186660,197632,208603,219574,230546,241517,252489,263460,274432,285403,296374
DistanceSpacing: 0.9
BeatDivisor: 4
GridSize: 32
TimelineZoom: 1.7

[Metadata]
Title:Turn It Up (Higher)
TitleUnicode:Turn It Up (Higher)
Artist:Fox Stevenson
ArtistUnicode:Fox Stevenson
Creator:AJT
Version:Exquisite
Source:
Tags:english electronic dnb drum and bass stan sb asphyxia delusional harepascals unappreciative koda
BeatmapID:4452659
BeatmapSetID:2061147

[Difficulty]
HPDrainRate:5
CircleSize:4
OverallDifficulty:8.5
ApproachRate:8.8
SliderMultiplier:1.6
SliderTickRate:1

[Events]
//Background and Video events
0,0,"Scenery_Sunrises_and_sunsets_Fields_Grass_Nature_1366x768.jpg",0,0
//Break Periods
2,66164,68421
2,110050,118821
2,153936,159964
2,161822,162707
2,219764,224421
//Storyboard Layer 0 (Background)
//Storyboard Layer 1 (Fail)
//Storyboard Layer 2 (Pass)
//Storyboard Layer 3 (Foreground)
//Storyboard Layer 4 (Overlay)
//Storyboard Sound Samples

[TimingPoints]
44022,342.857142857143,4,2,1,40,1,0
44022,-200,4,2,1,40,0,0
45050,-133.333333333333,4,2,1,40,0,0
46422,-303.030303030303,4,2,1,40,0,0
48479,-133.333333333333,4,2,1,40,0,0
49507,-200,4,2,1,40,0,0
53964,-133.333333333333,4,2,1,40,0,0
65964,-133.333333333333,4,2,1,50,0,0
69050,-133.333333333333,4,2,1,50,0,0
75564,-100,4,2,1,50,0,0
76936,-100,4,2,1,60,0,0
86536,-100,4,2,1,65,0,0
87564,-74.0740740740741,4,2,2,80,0,0
87736,-74.0740740740741,4,2,2,5,0,0
87907,-83.3333333333333,4,2,2,75,0,1
98536,-83.3333333333333,4,2,2,75,0,0
98707,-83.3333333333333,4,2,2,75,0,0
98879,-83.3333333333333,4,2,2,75,0,1
109850,-100,4,2,1,50,0,0
119450,-100,4,2,2,75,0,0
120821,-100,4,2,2,60,0,0
129393,-133.333333333333,4,2,2,20,0,0
130079,-133.333333333333,4,2,2,40,0,0
130764,-133.333333333333,4,2,2,60,0,0
131450,-100,4,2,2,80,0,0
131622,-100,4,2,2,5,0,0
131793,-83.3333333333333,4,2,2,85,0,1
142422,-83.3333333333333,4,2,2,85,0,0
142593,-83.3333333333333,4,2,2,85,0,0
142764,-83.3333333333333,4,2,2,85,0,1
153736,-100,4,2,2,50,0,0
163507,-100,4,2,2,50,0,0
164707,-100,4,2,2,50,0,0
169829,-86.9565217391297,4,2,2,50,0,0
170193,-100,4,2,2,50,0,0
173278,-133.333333333333,4,2,2,20,0,0
173965,-133.333333333333,4,2,2,40,0,0
174650,-133.333333333333,4,2,2,60,0,0
175336,-133.333333333333,4,2,2,80,0,0
175679,-83.3333333333333,4,2,2,85,0,1
186307,-83.3333333333333,4,2,2,85,0,0
186478,-83.3333333333333,4,2,2,85,0,0
186650,-83.3333333333333,4,2,2,85,0,1
196250,-83.3333333333333,4,2,2,70,0,1
197622,-100,4,2,2,65,0,0
219222,-80,4,2,2,75,0,0
219564,-80,4,2,2,50,0,0
230536,-333.333333333333,4,2,1,40,0,0
231907,-166.666666666667,4,2,1,40,0,0
236022,-333.333333333334,4,2,1,40,0,0
237393,-166.666666666667,4,2,1,40,0,0
241507,-166.666666666667,4,2,1,50,0,0
246993,-161.290322580645,4,2,1,50,0,0
252479,-161.290322580645,4,2,2,50,0,0
259336,-100,4,2,2,50,0,0
260193,-100,4,2,2,60,0,0
261050,-100,4,2,2,40,0,0
261736,-100,4,2,2,50,0,0
262079,-100,4,2,2,60,0,0
262422,-100,4,2,2,70,0,0
263107,-66.6666666666667,4,2,2,80,0,0
263450,-80,4,2,2,85,0,1
274079,-80,4,2,2,85,0,0
274422,-80,4,2,2,85,0,1
282650,-80,4,2,2,75,0,0
282993,-222.222222222222,4,2,2,40,0,0
285050,-66.6666666666667,4,2,2,80,0,0
285393,-80,4,2,2,90,0,1
296022,-80,4,2,2,90,0,0
296364,-80,4,2,2,90,0,1
304593,-80,4,2,2,60,0,0
306136,-105.263157894737,4,2,2,70,0,0
307336,-200,4,2,2,50,0,0
309050,-200,4,2,2,5,0,0

[Colours]
Combo1 : 244,198,55
Combo2 : 19,234,67
Combo3 : 49,164,249
Combo4 : 238,53,100

[HitObjects]
46,87,44022,6,0,B|100:95|152:133|78:138|148:188|206:190,1,200,2|0,0:2|0:0,0:0:0:0:
205,190,45050,6,0,P|213:155|219:122,1,60.0000022888184,2|0,0:2|0:0,0:0:0:0:
102,196,45393,2,0,P|106:233|129:315,1,120.000004577637,2|0,0:2|0:0,0:0:0:0:
58,371,45907,1,0,0:0:0:0:
58,371,46079,2,1,P|23:379|-10:385,1,60.0000022888184,0|0,0:0|0:0,0:0:0:0:
224,288,46422,6,0,B|371:327|295:290|433:324,1,211.199999355469,2|0,0:2|0:0,0:0:0:0:
512,384,47964,1,0,0:0:0:0:
442,304,48136,1,2,0:0:0:0:
512,241,48307,1,0,0:0:0:0:
438,189,48479,6,0,P|400:194|319:217,2,120.000004577637,0|0|0,0:2|0:0|0:0,0:0:0:0:
512,0,49507,6,0,B|471:167|511:80|476:236,1,240,2|2,0:2|0:2,0:0:0:0:
418,384,50707,1,0,0:0:0:0:
512,330,50879,1,2,0:0:0:0:
512,330,51050,1,0,0:0:0:0:
426,234,51222,2,0,P|390:230|345:219,1,80,2|0,0:2|0:0,0:0:0:0:
0,320,51907,2,0,B|168:279|81:319|237:284,1,240,2|0,0:0|0:0,0:0:0:0:
236,284,53279,1,0,0:0:0:0:
319,384,53622,1,0,0:0:0:0:
512,192,53964,6,0,B|344:151|431:191|275:156,1,240,2|0,0:2|0:0,0:0:0:0:
253,341,54993,5,2,0:2:0:0:
253,341,55336,1,0,0:0:0:0:
188,384,55507,2,0,P|177:340|215:275,1,120.000004577637,2|0,0:0|0:0,0:0:0:0:
288,256,56022,1,2,0:2:0:0:
278,178,56193,1,0,0:0:0:0:
200,184,56364,6,0,P|162:189|81:212,1,120.000004577637,2|0,0:2|0:0,0:0:0:0:
83,211,56879,1,0,0:0:0:0:
0,122,57050,1,2,0:2:0:0:
70,230,57222,1,0,0:0:0:0:
0,268,57393,6,0,P|5:305|28:387,3,120.000004577637,2|0|0|0,0:2|0:0|0:0|0:0,0:0:0:0:
338,346,58764,1,2,0:2:0:0:
338,346,58936,1,0,0:0:0:0:
442,384,59107,1,2,0:2:0:0:
512,297,59279,1,0,0:0:0:0:
501,187,59450,2,0,P|455:173|382:165,1,120.000004577637,2|2,0:0|0:2,0:0:0:0:
0,242,60136,6,0,B|166:202|80:242|236:206,1,240.000009155274,2|0,0:2|0:0,0:0:0:0:
284,384,61164,1,0,0:0:0:0:
284,384,61507,5,2,0:2:0:0:
228,208,61679,1,0,0:0:0:0:
169,349,61850,1,2,0:2:0:0:
310,289,62022,1,0,0:0:0:0:
282,178,62193,2,0,B|204:166|261:165|165:154,1,120.000004577637,2|2,0:0|0:2,0:0:0:0:
52,257,62879,1,2,0:2:0:0:
256,192,63050,12,12,65964,0:1:0:0:
160,384,69050,6,0,P|167:354|169:312,1,60.0000022888184,2|0,0:2|0:0,0:0:0:0:
119,256,69393,1,2,0:2:0:0:
352,320,69736,2,0,P|345:290|343:248,1,60.0000022888184,2|0,0:2|0:0,0:0:0:0:
393,192,70079,1,2,0:2:0:0:
160,256,70422,2,0,P|167:226|169:184,1,60.0000022888184,2|0,0:2|0:0,0:0:0:0:
119,128,70765,1,2,0:2:0:0:
119,128,70936,2,0,P|104:73|107:9,1,120.000004577637,2|0,0:2|0:0,0:0:0:0:
0,192,71450,6,0,B|77:132|143:201|228:132,2,240.000009155274,2|0|2,0:1|0:0|0:1,0:0:0:0:
256,384,73164,1,0,0:0:0:0:
256,384,73336,2,0,L|256:256,1,120.000004577637,2|0,0:1|0:0,0:0:0:0:
256,192,73850,2,0,L|256:0,2,180.000006866455,2|0|0,0:1|0:0|0:0,0:0:0:0:
160,384,75564,5,2,0:1:0:0:
256,256,75736,1,8,0:2:0:0:
352,384,75907,1,8,0:1:0:0:
352,384,75993,1,0,0:0:0:0:
352,384,76078,2,0,P|363:345|346:302,1,80,8|2,0:1|3:1,0:0:0:0:
160,384,76422,1,8,0:1:0:0:
160,384,76508,1,0,0:0:0:0:
160,384,76593,2,0,P|149:345|166:302,1,80,8|8,0:1|0:2,0:0:0:0:
205,192,76936,6,0,P|256:141|306:192,2,160,14|8|10,0:1|0:1|0:1,0:0:0:0:
166,286,77793,2,0,P|128:283|86:263,1,80,0|8,0:0|0:1,0:0:0:0:
239,115,78136,2,0,P|254:152|256:192,1,80,2|10,0:0|0:1,0:0:0:0:
282,308,78478,6,0,B|393:291|338:321|452:290,1,160,2|2,0:0|0:2,0:0:0:0:
440,293,78993,1,10,0:1:0:0:
512,384,79164,1,8,0:1:0:0:
512,179,79336,2,0,B|401:162|456:192|342:161,1,160,10|8,0:1|0:1,0:0:0:0:
353,164,79850,2,0,P|365:130|370:84,1,80,0|8,0:0|0:1,0:0:0:0:
208,0,80193,1,2,0:0:0:0:
208,0,80364,2,0,P|209:36|222:80,1,80,10|2,0:1|0:0,0:0:0:0:
255,193,80707,2,0,P|252:236|243:274,1,80,10|0,0:1|0:0,0:0:0:0:
224,298,80964,1,0,0:0:0:0:
224,298,81050,6,0,P|167:312|92:246,1,160,10|10,0:1|0:1,0:0:0:0:
0,330,81564,1,2,0:2:0:0:
0,330,81650,1,0,0:0:0:0:
0,330,81736,2,0,P|42:327|85:319,3,80,10|0|10|0,0:1|0:0|0:1|0:0,0:0:0:0:
128,384,82421,5,10,0:1:0:0:
198,345,82593,1,8,0:1:0:0:
231,272,82764,1,8,0:1:0:0:
221,192,82936,1,10,0:1:0:0:
231,272,83107,5,10,0:1:0:0:
301,233,83279,1,10,0:1:0:0:
334,160,83450,1,8,0:1:0:0:
324,80,83622,1,10,0:1:0:0:
240,42,83793,6,0,P|241:81|250:121,1,80,10|10,0:1|0:1,0:0:0:0:
64,224,84136,2,0,P|108:216|147:214,1,80,8|10,0:1|0:1,0:0:0:0:
198,345,84478,1,8,0:1:0:0:
358,256,84650,1,10,0:1:0:0:
198,345,84822,2,0,P|237:343|277:335,1,80,10|10,0:1|0:1,0:0:0:0:
358,256,85164,6,0,L|355:215,3,40,8|8|8|8,0:1|0:1|0:1|0:1,0:0:0:0:
426,141,85507,2,0,L|429:182,3,40,8|8|8|8,0:1|0:1|0:1|0:1,0:0:0:0:
512,242,85850,2,0,L|508:203,3,40,8|8|8|8,0:1|0:1|0:1|0:1,0:0:0:0:
437,277,86193,2,0,L|441:316,3,40,8|8|8|8,0:1|0:1|0:1|0:1,0:0:0:0:
365,352,86535,5,8,0:1:0:0:
332,375,86621,1,8,0:1:0:0:
293,383,86707,1,8,0:1:0:0:
254,375,86792,1,8,0:1:0:0:
222,352,86878,1,8,0:1:0:0:
201,319,86964,1,8,0:1:0:0:
180,284,87050,1,8,0:1:0:0:
173,244,87135,1,8,0:1:0:0:
187,206,87221,2,0,P|160:199|140:204,1,40,8|8,0:1|0:1,0:0:0:0:
229,150,87393,2,0,P|209:130|190:125,1,40,8|8,0:1|0:1,0:0:0:0:
121,105,87564,6,0,P|110:81|107:52,1,54.0000002059937,8|0,0:2|0:0,0:0:0:0:
0,365,87907,6,0,P|76:376|178:314,1,191.999994140625,14|8,0:1|0:2,0:0:0:0:
229,150,88421,1,2,0:2:0:0:
229,150,88507,1,0,0:0:0:0:
229,150,88593,2,0,L|236:256,1,95.9999970703126,0|8,0:0|0:1,0:0:0:0:
324,384,88936,2,0,L|317:278,1,95.9999970703126,10|2,0:2|0:2,0:0:0:0:
512,82,89278,6,0,B|463:169|530:172|452:282,1,191.999994140625,10|8,0:1|0:2,0:0:0:0:
464,384,89793,1,2,0:2:0:0:
464,384,89879,1,0,0:0:0:0:
464,384,89964,2,0,P|491:381|521:374,2,47.9999985351563,2|0|8,0:0|0:0|0:1,0:0:0:0:
317,288,90307,1,10,0:2:0:0:
317,288,90478,1,0,0:0:0:0:
442,141,90650,5,10,0:1:0:0:
273,321,90822,2,0,P|327:316|373:302,1,95.9999970703126,2|8,0:0|0:2,0:0:0:0:
451,215,91164,1,0,0:0:0:0:
485,182,91249,1,0,0:0:0:0:
490,135,91335,1,2,0:0:0:0:
464,96,91421,1,0,0:0:0:0:
419,83,91506,1,8,0:1:0:0:
348,221,91679,2,0,P|301:218|254:206,1,95.9999970703126,8|2,0:2|0:0,0:0:0:0:
199,328,92022,1,10,0:1:0:0:
199,328,92364,5,8,0:2:0:0:
37,164,92535,1,2,0:2:0:0:
5,333,92707,1,0,0:0:0:0:
143,192,92878,1,10,0:1:0:0:
176,383,93049,1,10,0:2:0:0:
17,243,93221,1,2,0:0:0:0:
255,183,93393,6,0,B|394:199|305:215|448:233,1,191.999994140625,10|10,0:1|0:2,0:0:0:0:
491,154,93907,1,2,0:2:0:0:
491,154,93993,1,0,0:0:0:0:
491,154,94078,2,0,P|506:105|513:52,1,95.9999970703126,2|8,0:0|0:1,0:0:0:0:
352,260,94421,1,10,0:2:0:0:
352,260,94592,1,0,0:0:0:0:
463,384,94764,5,10,0:1:0:0:
352,260,94936,1,0,0:0:0:0:
502,226,95107,1,8,0:2:0:0:
355,361,95279,1,2,0:2:0:0:
329,376,95364,1,0,0:0:0:0:
301,382,95450,1,0,0:0:0:0:
272,381,95536,1,0,0:0:0:0:
245,373,95621,1,10,0:1:0:0:
0,288,95793,2,0,P|46:268|95:266,1,95.9999970703126,10|0,0:2|0:0,0:0:0:0:
134,384,96136,1,10,0:1:0:0:
134,384,96307,1,2,0:0:0:0:
235,318,96479,5,10,0:2:0:0:
178,214,96650,1,2,0:0:0:0:
156,193,96735,1,0,0:0:0:0:
130,181,96821,1,2,0:2:0:0:
101,175,96907,1,0,0:0:0:0:
73,177,96992,1,8,0:1:0:0:
320,256,97164,5,10,0:2:0:0:
395,243,97335,1,2,0:0:0:0:
437,178,97508,1,10,0:1:0:0:
420,103,97679,1,0,0:0:0:0:
229,1,97850,6,0,P|234:48|245:95,1,95.9999970703126,10|2,0:2|0:2,0:0:0:0:
266,288,98193,1,2,0:2:0:0:
277,335,98279,1,8,0:2:0:0:
283,383,98364,1,8,0:1:0:0:
447,219,98536,2,0,P|399:213|352:202,1,95.9999970703126,10|0,0:2|0:0,0:0:0:0:
159,143,98878,6,0,P|145:73|234:0,1,191.999994140625,14|8,0:1|0:2,0:0:0:0:
266,288,99393,1,2,0:2:0:0:
266,288,99478,1,0,0:0:0:0:
266,288,99564,2,0,P|256:340|241:382,1,95.9999970703126,2|8,0:0|0:1,0:0:0:0:
40,289,99907,2,0,P|85:273|132:265,1,95.9999970703126,10|2,0:2|0:2,0:0:0:0:
367,351,100250,6,0,P|412:335|459:327,1,95.9999970703126,8|2,0:1|0:2,0:0:0:0:
391,163,100593,2,0,P|345:147|298:139,1,95.9999970703126,8|2,0:2|0:2,0:0:0:0:
259,157,100850,1,0,0:0:0:0:
239,195,100936,1,2,0:0:0:0:
338,276,101107,1,8,0:1:0:0:
301,50,101279,2,0,P|253:58|208:73,1,95.9999970703126,10|2,0:2|0:2,0:0:0:0:
58,177,101622,5,8,0:1:0:0:
0,384,101793,1,0,0:0:0:0:
58,177,101964,1,8,0:2:0:0:
168,353,102136,1,2,0:0:0:0:
168,353,102222,1,0,0:0:0:0:
168,353,102307,2,0,P|217:377|260:384,1,95.9999970703126,2|8,0:0|0:1,0:0:0:0:
332,182,102650,1,8,0:0:0:0:
477,302,102821,1,2,0:0:0:0:
477,302,102993,2,0,P|422:305|381:321,1,95.9999970703126,10|0,0:1|0:0,0:0:0:0:
154,232,103336,5,8,0:2:0:0:
154,232,103507,1,2,0:2:0:0:
216,90,103679,1,2,0:0:0:0:
358,152,103850,1,8,0:1:0:0:
295,294,104021,2,0,P|342:297|398:320,1,95.9999970703126,10|0,0:2|0:0,0:0:0:0:
193,384,104364,6,0,P|246:323|230:216,1,191.999994140625,10|10,0:1|0:2,0:0:0:0:
50,278,104878,1,2,0:2:0:0:
50,278,104964,1,0,0:0:0:0:
50,278,105050,2,0,P|98:292|154:299,1,95.9999970703126,2|10,0:0|0:1,0:0:0:0:
384,160,105393,2,0,P|335:145|280:139,1,95.9999970703126,10|2,0:2|0:0,0:0:0:0:
160,99,105736,5,10,0:1:0:0:
318,230,105907,1,0,0:0:0:0:
318,230,106078,1,8,0:2:0:0:
143,298,106250,1,2,0:2:0:0:
167,338,106335,1,0,0:0:0:0:
206,366,106421,1,2,0:0:0:0:
253,375,106507,1,0,0:0:0:0:
299,364,106593,1,10,0:1:0:0:
400,285,106764,2,0,P|442:289|494:311,1,95.9999970703126,10|0,0:2|0:0,0:0:0:0:
491,74,107107,2,0,P|447:92|400:98,1,95.9999970703126,10|0,0:1|0:0,0:0:0:0:
219,112,107450,5,10,0:2:0:0:
343,199,107622,1,2,0:0:0:0:
343,199,107707,1,0,0:0:0:0:
343,199,107793,2,0,P|334:257|320:308,1,95.9999970703126,2|10,0:2|0:1,0:0:0:0:
134,358,108136,5,10,0:2:0:0:
282,320,108307,1,2,0:0:0:0:
181,223,108478,5,10,0:1:0:0:
235,384,108650,1,0,0:0:0:0:
362,108,108822,5,10,0:2:0:0:
324,293,108994,1,2,0:2:0:0:
512,240,109164,1,2,0:2:0:0:
512,240,109250,1,8,0:2:0:0:
512,240,109336,1,8,0:1:0:0:
250,210,109507,2,0,P|226:287|235:353,1,143.999995605469,10|0,0:2|0:0,0:0:0:0:
301,384,109850,1,12,0:1:0:0:
433,119,119450,6,0,P|479:124|512:131,2,80,10|8|0,0:1|0:1|3:0,0:0:0:0:
346,258,119964,1,0,0:0:0:0:
346,289,120049,1,0,0:0:0:0:
349,321,120135,1,2,0:1:0:0:
355,353,120221,1,0,0:0:0:0:
363,384,120306,1,0,3:0:0:0:
477,225,120479,1,0,0:0:0:0:
477,225,120564,1,0,0:0:0:0:
477,225,120650,2,0,P|452:218|424:217,1,40,2|0,0:1|0:0,0:0:0:0:
346,258,120821,6,0,P|281:250|181:283,1,160,10|8,0:1|0:2,0:0:0:0:
64,192,121336,1,2,0:0:0:0:
64,192,121421,1,0,0:0:0:0:
64,192,121507,1,2,0:0:0:0:
0,325,121679,1,8,0:1:0:0:
157,384,121850,2,0,P|171:346|176:307,1,80,8|0,0:2|0:0,0:0:0:0:
82,143,122193,6,0,P|96:180|101:219,1,80,10|0,0:1|0:0,0:0:0:0:
0,325,122536,2,0,P|34:354|76:361,1,80,8|2,0:2|0:0,0:0:0:0:
106,359,122792,1,0,0:0:0:0:
140,339,122878,1,2,0:0:0:0:
161,305,122964,1,0,0:0:0:0:
165,266,123050,1,8,0:1:0:0:
0,169,123222,2,0,P|5:113|43:57,1,120,10|0,0:2|0:0,0:0:0:0:
39,60,123564,6,0,B|150:94|109:54|221:92,1,160,10|8,0:1|0:2,0:0:0:0:
305,76,124078,1,2,0:0:0:0:
305,76,124164,1,0,0:0:0:0:
305,76,124250,2,0,P|319:37|327:-4,1,80,2|8,0:0|0:1,0:0:0:0:
261,162,124593,2,0,P|264:203|274:244,1,80,8|0,0:2|0:0,0:0:0:0:
421,375,124936,5,8,0:1:0:0:
491,336,125107,1,2,0:0:0:0:
304,284,125279,1,8,0:2:0:0:
344,354,125450,1,2,0:0:0:0:
512,258,125622,1,2,0:2:0:0:
472,189,125793,1,8,0:1:0:0:
395,167,125964,1,8,0:0:0:0:
326,207,126136,1,0,0:0:0:0:
262,384,126307,6,0,P|198:376|80:338,1,160,10|8,0:1|0:2,0:0:0:0:
0,153,126821,1,2,0:0:0:0:
0,153,126907,1,0,0:0:0:0:
0,153,126993,1,2,0:0:0:0:
162,221,127164,1,8,0:1:0:0:
0,297,127336,2,0,P|44:283|90:280,1,80,8|0,0:2|0:0,0:0:0:0:
262,384,127679,2,0,P|301:379|339:366,1,80,10|0,0:1|0:0,0:0:0:0:
512,192,128022,6,0,P|478:163|436:156,1,80,8|2,0:2|0:0,0:0:0:0:
406,158,128278,1,0,0:0:0:0:
372,178,128364,1,2,0:0:0:0:
351,212,128450,1,0,0:0:0:0:
347,251,128536,1,8,0:1:0:0:
510,275,128708,2,0,P|505:331|467:387,1,120,10|0,0:2|0:0,0:0:0:0:
352,384,129050,1,8,0:1:0:0:
352,384,129393,6,0,P|345:354|343:312,1,60.0000022888184,2|0,0:2|0:0,0:0:0:0:
393,256,129736,1,2,0:2:0:0:
160,320,130079,2,0,P|167:290|169:248,1,60.0000022888184,2|0,0:2|0:0,0:0:0:0:
119,192,130422,1,2,0:2:0:0:
352,256,130765,2,0,P|345:226|343:184,1,60.0000022888184,2|0,0:2|0:0,0:0:0:0:
393,128,131108,1,2,0:2:0:0:
190,292,131279,1,0,0:0:0:0:
408,384,131450,2,0,P|417:340|420:301,1,80,10|0,0:2|0:0,0:0:0:0:
273,189,131793,6,0,P|197:178|95:240,1,191.999994140625,14|8,0:1|0:2,0:0:0:0:
335,261,132307,1,2,0:2:0:0:
335,261,132392,1,0,0:0:0:0:
335,261,132478,2,0,P|356:223|365:164,1,95.9999970703126,0|8,0:0|0:1,0:0:0:0:
252,0,132821,1,10,0:2:0:0:
252,0,132993,2,0,P|253:47|271:92,1,95.9999970703126,2|8,0:2|0:1,0:0:0:0:
201,304,133336,2,0,B|303:305|259:279|402:268,1,191.999994140625,2|2,0:0|0:2,0:0:0:0:
512,247,133850,1,2,0:0:0:0:
415,384,134021,1,8,0:1:0:0:
262,198,134193,6,0,B|364:199|320:173|463:162,1,191.999994140625,10|8,0:2|0:1,0:0:0:0:
502,93,134707,1,0,0:0:0:0:
502,93,134793,1,0,0:0:0:0:
502,93,134878,2,0,P|516:47|512:0,1,95.9999970703126,8|2,0:2|0:0,0:0:0:0:
267,158,135221,5,2,0:0:0:0:
427,208,135393,1,10,0:1:0:0:
361,362,135564,2,0,P|283:386|208:381,1,143.999995605469,8|0,0:2|0:0,0:0:0:0:
222,384,135907,6,0,B|219:302|245:349|240:217,1,143.999995605469,10|0,0:1|0:0,0:0:0:0:
320,224,136250,2,0,P|334:182|339:125,1,95.9999970703126,8|2,0:2|0:2,0:0:0:0:
339,130,136507,1,0,0:0:0:0:
339,130,136593,1,2,0:0:0:0:
358,0,136764,5,10,0:1:0:0:
118,104,136936,1,8,0:2:0:0:
306,173,137107,1,2,0:0:0:0:
73,71,137279,6,0,P|76:120|94:169,1,95.9999970703126,8|0,0:1|0:0,0:0:0:0:
224,338,137622,2,0,P|237:290|242:234,1,95.9999970703126,8|2,0:2|0:2,0:0:0:0:
241,244,137879,1,0,0:0:0:0:
241,244,137964,1,2,0:0:0:0:
0,237,138136,1,8,0:1:0:0:
72,384,138307,5,10,0:2:0:0:
72,384,138479,2,0,P|88:339|88:287,1,95.9999970703126,2|8,0:0|0:1,0:0:0:0:
116,97,138822,2,0,P|142:136|153:187,1,95.9999970703126,0|8,0:0|0:2,0:0:0:0:
164,380,139164,1,2,0:2:0:0:
201,383,139249,1,0,0:0:0:0:
238,376,139335,1,2,0:0:0:0:
272,360,139421,1,0,0:0:0:0:
300,336,139506,1,10,0:1:0:0:
352,191,139679,6,0,P|365:145|362:97,1,95.9999970703126,10|0,0:2|0:0,0:0:0:0:
160,192,140022,1,10,0:1:0:0:
196,278,140193,1,0,0:0:0:0:
137,384,140364,5,10,0:2:0:0:
196,278,140535,1,2,0:0:0:0:
78,278,140707,2,0,P|66:233|67:162,1,95.9999970703126,2|8,0:2|0:1,0:0:0:0:
196,278,141050,5,10,0:2:0:0:
312,244,141221,1,2,0:0:0:0:
229,161,141393,2,0,P|252:120|303:71,1,95.9999970703126,10|0,0:1|0:0,0:0:0:0:
312,244,141736,5,10,0:2:0:0:
418,301,141907,1,2,0:2:0:0:
418,184,142079,1,2,0:2:0:0:
464,171,142164,1,8,0:2:0:0:
512,170,142250,1,8,0:1:0:0:
285,84,142421,2,0,P|291:34|302:-12,1,95.9999970703126,10|0,0:2|0:0,0:0:0:0:
278,263,142764,6,0,P|194:277|115:208,1,191.999994140625,14|8,0:1|0:2,0:0:0:0:
219,192,143278,1,2,0:2:0:0:
142,55,143450,1,2,0:0:0:0:
219,192,143622,2,0,P|263:175|311:173,1,95.9999970703126,10|10,0:1|0:2,0:0:0:0:
512,282,143964,1,2,0:2:0:0:
449,384,144135,1,8,0:1:0:0:
340,330,144307,2,0,B|255:321|250:372|147:358,1,191.999994140625,2|2,0:0|0:2,0:0:0:0:
0,235,144821,1,2,0:0:0:0:
0,282,144906,1,0,0:0:0:0:
27,319,144992,1,8,0:1:0:0:
152,358,145164,2,0,P|169:287|182:168,1,191.999994140625,10|8,0:2|0:1,0:0:0:0:
0,13,145678,5,0,0:0:0:0:
0,13,145764,1,0,0:0:0:0:
0,13,145850,1,8,0:2:0:0:
10,107,146021,1,2,0:0:0:0:
66,184,146193,1,2,0:0:0:0:
160,208,146364,1,8,0:1:0:0:
256,210,146536,2,0,P|334:189|385:142,1,143.999995605469,8|0,0:2|0:0,0:0:0:0:
380,148,146878,6,0,B|242:113|343:108|186:77,1,191.999994140625,10|8,0:1|0:2,0:0:0:0:
68,0,147393,1,2,0:2:0:0:
57,46,147478,1,0,0:0:0:0:
66,93,147564,1,2,0:0:0:0:
92,133,147650,1,0,0:0:0:0:
132,159,147735,1,10,0:1:0:0:
346,107,147907,1,10,0:2:0:0:
132,159,148079,1,2,0:0:0:0:
267,0,148250,6,0,P|259:86|229:198,1,191.999994140625,8|8,0:1|0:2,0:0:0:0:
141,384,148764,1,2,0:2:0:0:
141,384,148850,1,0,0:0:0:0:
141,384,148936,2,0,P|134:329|108:287,1,95.9999970703126,2|8,0:0|0:1,0:0:0:0:
0,192,149278,1,10,0:2:0:0:
0,192,149450,2,0,P|86:184|198:154,1,191.999994140625,2|0,0:0|0:0,0:0:0:0:
341,0,149964,6,0,P|373:37|380:84,1,95.9999970703126,8|2,0:2|0:2,0:0:0:0:
377,118,150222,1,0,0:0:0:0:
354,157,150307,1,2,0:0:0:0:
317,179,150393,1,0,0:0:0:0:
273,183,150479,1,8,0:1:0:0:
174,0,150650,2,0,P|111:5|31:50,1,143.999995605469,10|0,0:2|0:0,0:0:0:0:
40,41,150992,2,0,P|26:87|49:126,1,95.9999970703126,10|0,0:1|0:0,0:0:0:0:
273,183,151336,5,8,0:2:0:0:
331,360,151507,1,0,0:0:0:0:
300,370,151592,1,2,0:0:0:0:
269,378,151678,1,2,0:2:0:0:
237,382,151764,1,0,0:0:0:0:
205,383,151849,1,8,0:1:0:0:
29,384,152022,5,10,0:2:0:0:
67,236,152193,1,2,0:0:0:0:
164,337,152364,1,10,0:1:0:0:
3,283,152536,1,0,0:0:0:0:
279,156,152708,5,10,0:2:0:0:
94,194,152880,1,2,0:2:0:0:
147,6,153050,1,2,0:2:0:0:
147,6,153136,1,8,0:2:0:0:
147,6,153222,1,8,0:1:0:0:
177,268,153393,2,0,P|100:292|34:283,1,143.999995605469,10|0,0:2|0:0,0:0:0:0:
3,217,153736,1,12,0:1:0:0:
256,192,160593,5,2,0:2:0:0:
256,192,161622,1,2,0:2:0:0:
166,170,163336,5,2,0:2:0:0:
346,172,163507,1,8,0:2:0:0:
216,108,163679,1,8,0:1:0:0:
296,109,163850,1,8,0:1:0:0:
327,250,164022,1,10,0:2:0:0:
183,248,164193,1,8,0:1:0:0:
255,284,164364,1,8,0:2:0:0:
255,284,164707,6,0,P|327:275|423:248,1,160,10|8,0:1|0:2,0:0:0:0:
480,192,165221,1,2,0:0:0:0:
480,192,165307,1,0,0:0:0:0:
480,192,165393,2,0,P|490:135|473:101,1,80,2|8,0:0|0:1,0:0:0:0:
287,62,165736,2,0,P|289:104|304:140,1,80,8|2,0:2|0:0,0:0:0:0:
283,327,166079,1,10,0:1:0:0:
283,327,166422,6,0,P|240:324|204:309,1,80,8|2,0:2|0:0,0:0:0:0:
174,290,166679,1,0,0:0:0:0:
153,257,166764,1,2,0:0:0:0:
150,217,166850,1,0,0:0:0:0:
167,181,166936,1,8,0:1:0:0:
362,251,167107,2,0,P|354:303|327:376,1,120,10|0,0:2|0:0,0:0:0:0:
331,366,167450,6,0,P|294:369|171:383,1,160,10|8,0:1|0:2,0:0:0:0:
67,336,167964,1,2,0:0:0:0:
50,299,168049,1,0,0:0:0:0:
42,260,168135,1,2,0:0:0:0:
40,220,168221,1,0,0:0:0:0:
47,181,168306,1,10,0:1:0:0:
248,209,168479,1,8,0:2:0:0:
138,131,168650,1,2,0:0:0:0:
248,209,168822,5,8,0:1:0:0:
189,17,168993,1,0,0:0:0:0:
332,157,169165,1,8,0:2:0:0:
138,131,169336,1,2,0:0:0:0:
294,0,169507,1,2,0:0:0:0:
229,194,169679,1,8,0:1:0:0:
134,15,169850,1,8,0:2:0:0:
337,76,170022,1,2,0:0:0:0:
152,207,170193,6,1,P|136:167|140:121,1,80,10|0,0:1|0:0,0:0:0:0:
362,181,170536,2,1,P|362:225|345:262,1,80,8|0,0:2|0:0,0:0:0:0:
348,257,170793,1,0,0:0:0:0:
348,257,170879,1,2,0:0:0:0:
151,335,171050,1,8,0:1:0:0:
228,375,171221,1,8,0:2:0:0:
310,344,171393,1,0,0:0:0:0:
228,375,171564,1,10,0:1:0:0:
151,335,171736,6,0,P|131:296|131:259,1,80,0|8,0:0|0:2,0:0:0:0:
305,146,172078,1,2,0:0:0:0:
340,137,172163,1,0,0:0:0:0:
376,143,172249,1,2,0:0:0:0:
405,164,172335,1,0,0:0:0:0:
424,195,172422,1,8,0:1:0:0:
315,368,172593,2,0,P|397:354|448:350,1,120,10|0,0:2|0:0,0:0:0:0:
512,384,172936,1,8,0:1:0:0:
512,384,173279,5,2,0:2:0:0:
512,324,173450,1,0,0:0:0:0:
474,256,173622,1,2,0:2:0:0:
352,64,173965,1,2,0:2:0:0:
342,123,174136,1,0,0:0:0:0:
393,192,174308,1,2,0:2:0:0:
160,128,174651,1,2,0:2:0:0:
169,187,174822,1,0,0:0:0:0:
119,256,174994,1,2,0:2:0:0:
322,92,175165,1,0,0:0:0:0:
104,0,175336,2,0,P|98:21|96:47,1,30.0000011444092,10|0,0:2|0:0,0:0:0:0:
96,29,175679,6,0,B|108:162|137:75|151:224,1,191.999994140625,14|8,0:1|0:2,0:0:0:0:
92,284,176193,1,2,0:2:0:0:
92,284,176278,1,0,0:0:0:0:
92,284,176364,2,0,P|48:281|-6:258,1,95.9999970703126,2|8,0:0|0:1,0:0:0:0:
160,384,176707,1,10,0:2:0:0:
160,384,176879,2,0,P|207:383|252:365,1,95.9999970703126,2|8,0:2|0:1,0:0:0:0:
288,224,177222,2,0,B|390:223|346:249|489:260,1,191.999994140625,2|2,0:0|0:2,0:0:0:0:
475,258,177650,1,0,0:0:0:0:
475,258,177736,2,0,P|492:217|497:152,1,95.9999970703126,2|8,0:0|0:1,0:0:0:0:
160,0,178079,6,0,B|159:102|185:58|196:201,1,191.999994140625,10|8,0:2|0:1,0:0:0:0:
255,276,178593,1,2,0:0:0:0:
255,276,178679,1,0,0:0:0:0:
255,276,178764,2,0,P|301:263|339:235,1,95.9999970703126,8|0,0:2|0:0,0:0:0:0:
438,122,179107,5,2,0:0:0:0:
283,217,179279,1,8,0:1:0:0:
332,384,179450,2,0,P|379:375|514:361,1,143.999995605469,8|0,0:2|0:0,0:0:0:0:
474,363,179793,2,0,B|471:281|497:328|492:196,1,143.999995605469,10|0,0:1|0:0,0:0:0:0:
411,185,180136,2,0,P|399:139|397:81,1,95.9999970703126,8|0,0:0|0:0,0:0:0:0:
512,0,180479,5,2,0:0:0:0:
270,125,180650,1,8,0:1:0:0:
444,140,180822,1,8,0:2:0:0:
336,275,180993,1,2,0:0:0:0:
455,384,181164,6,0,P|515:316|502:213,1,191.999994140625,8|8,0:1|0:0,0:0:0:0:
288,238,181679,1,2,0:0:0:0:
288,238,181765,1,0,0:0:0:0:
288,238,181850,2,0,P|291:286|308:336,1,95.9999970703126,2|8,0:0|0:1,0:0:0:0:
468,199,182193,2,0,P|484:154|490:102,1,95.9999970703126,10|2,0:0|0:0,0:0:0:0:
242,81,182537,2,0,P|149:62|81:124,1,191.999994140625,8|8,0:1|0:0,0:0:0:0:
72,274,183050,1,2,0:2:0:0:
72,274,183135,1,0,0:0:0:0:
72,274,183222,2,0,P|96:281|126:280,1,47.9999985351563
184,215,183393,1,10,0:1:0:0:
227,384,183564,6,0,P|269:382|318:354,1,95.9999970703126,10|0,0:2|0:0,0:0:0:0:
352,192,183908,1,10,0:1:0:0:
317,269,184079,1,0,0:0:0:0:
431,384,184250,5,10,0:2:0:0:
362,262,184421,1,2,0:0:0:0:
496,262,184593,2,0,P|509:210|508:130,1,95.9999970703126,2|8,0:2|0:1,0:0:0:0:
362,262,184936,5,10,0:2:0:0:
231,223,185107,1,2,0:0:0:0:
325,129,185279,2,0,P|298:82|241:26,1,95.9999970703126,10|0,0:1|0:0,0:0:0:0:
231,223,185622,5,10,0:2:0:0:
111,289,185793,1,2,0:2:0:0:
111,155,185965,1,2,0:2:0:0:
58,141,186050,1,8,0:2:0:0:
4,140,186136,1,8,0:1:0:0:
227,84,186307,2,0,P|221:34|210:-12,1,95.9999970703126,10|0,0:2|0:0,0:0:0:0:
234,263,186650,6,0,P|318:277|397:208,1,191.999994140625,14|8,0:1|0:2,0:0:0:0:
294,179,187164,1,2,0:2:0:0:
150,238,187336,1,2,0:0:0:0:
150,238,187508,2,0,P|153:285|171:329,1,95.9999970703126,8|10,0:1|0:2,0:0:0:0:
419,263,187850,2,0,P|437:218|440:171,1,95.9999970703126,2|8,0:2|0:1,0:0:0:0:
512,0,188193,1,2,0:0:0:0:
368,59,188365,1,8,0:2:0:0:
512,235,188536,1,2,0:2:0:0:
512,282,188621,1,0,0:0:0:0:
485,319,188707,1,2,0:0:0:0:
354,197,188879,1,8,0:1:0:0:
256,384,189050,6,0,B|133:368|179:351|70:337,1,191.999994140625,10|8,0:2|0:1,0:0:0:0:
0,198,189564,1,0,0:0:0:0:
0,198,189650,1,0,0:0:0:0:
0,198,189736,1,8,0:2:0:0:
161,161,189907,1,2,0:0:0:0:
66,27,190079,1,2,0:0:0:0:
181,166,190250,1,8,0:1:0:0:
256,1,190422,2,0,P|334:22|385:69,1,143.999995605469,8|0,0:2|0:0,0:0:0:0:
380,63,190764,6,0,B|242:98|343:103|186:134,1,191.999994140625,10|8,0:1|0:2,0:0:0:0:
90,223,191279,1,2,0:2:0:0:
79,269,191364,1,0,0:0:0:0:
88,316,191450,1,2,0:0:0:0:
114,356,191536,1,0,0:0:0:0:
154,382,191621,1,10,0:1:0:0:
357,317,191793,1,10,0:2:0:0:
269,212,191964,1,2,0:0:0:0:
357,317,192136,6,0,P|271:309|159:279,1,191.999994140625,8|8,0:1|0:2,0:0:0:0:
32,96,192650,1,2,0:2:0:0:
32,96,192736,1,0,0:0:0:0:
32,96,192822,2,0,P|8:146|8:195,1,95.9999970703126,2|8,0:0|0:1,0:0:0:0:
76,384,193164,1,10,0:2:0:0:
76,384,193336,2,0,P|171:374|264:349,1,191.999994140625,2|0,0:0|0:0,0:0:0:0:
469,201,193850,6,0,P|501:238|508:285,1,95.9999970703126,8|2,0:2|0:2,0:0:0:0:
505,319,194106,1,0,0:0:0:0:
482,358,194192,1,2,0:0:0:0:
445,380,194278,1,0,0:0:0:0:
401,384,194364,1,8,0:1:0:0:
302,201,194536,2,0,P|239:206|159:251,1,143.999995605469,10|0,0:2|0:0,0:0:0:0:
168,242,194878,2,0,P|154:288|177:327,1,95.9999970703126,10|0,0:1|0:0,0:0:0:0:
304,384,195221,5,8,0:2:0:0:
403,274,195393,1,2,0:0:0:0:
403,274,195479,1,0,0:0:0:0:
403,274,195564,2,0,P|406:222|414:168,1,95.9999970703126,8|8,0:1|0:1,0:0:0:0:
208,384,195906,1,10,0:2:0:0:
109,274,196078,1,2,0:0:0:0:
109,274,196164,1,0,0:0:0:0:
109,274,196249,2,0,P|106:222|98:168,1,95.9999970703126,10|0,0:1|0:0,0:0:0:0:
192,0,196593,6,0,P|192:45|208:95,1,95.9999970703126,8|0,0:1|0:0,0:0:0:0:
304,93,196936,2,0,P|319:47|320:0,1,95.9999970703126,8|0,0:1|0:0,0:0:0:0:
256,192,197279,1,2,0:0:0:0:
256,192,197622,6,0,B|310:203|310:203|332:242|332:242|401:258,1,160,10|8,0:1|0:2,0:0:0:0:
390,255,198307,6,0,B|405:291|405:291|385:328,1,80,2|8,0:2|0:1,0:0:0:0:
248,384,198650,1,8,0:2:0:0:
248,384,198822,2,0,B|229:347|229:347|247:301,1,80,2|8,0:2|0:1,0:0:0:0:
242,311,199336,6,0,L|151:328,1,80,10|0,0:2|0:0,0:0:0:0:
96,256,199850,2,0,L|18:271,1,80,10|8,0:1|0:2,0:0:0:0:
108,54,200364,6,0,B|163:64|163:64|184:104|184:104|254:120,1,160,10|8,0:1|0:2,0:0:0:0:
289,65,200879,2,0,B|344:76|344:76|365:116|365:116|423:129,1,160,2|8,0:2|0:1,0:0:0:0:
180,240,201393,2,0,B|238:226|238:226|259:186|259:186|314:176,1,160,10|8,0:2|0:1,0:0:0:0:
481,205,201907,1,2,0:2:0:0:
481,205,201993,1,0,0:0:0:0:
481,205,202079,2,1,B|516:160|516:160|503:96,2,120,8|8|8,0:2|0:2|0:1,0:0:0:0:
371,280,202765,1,8,0:2:0:0:
484,339,202936,1,2,0:2:0:0:
371,280,203107,6,0,B|375:322|375:322|349:351,1,80,8|2,0:1|0:2,0:0:0:0:
349,349,203450,1,8,0:2:0:0:
349,349,203793,6,0,L|266:359,1,80,2|8,0:2|0:1,0:0:0:0:
192,288,204136,1,8,0:2:0:0:
192,288,204307,2,0,L|111:302,1,80,2|8,0:2|0:1,0:0:0:0:
256,96,204822,6,0,B|314:109|314:109|336:148|336:148|390:160,1,160,10|0,0:2|0:0,0:0:0:0:
390,161,205336,2,0,B|409:198|409:198|394:233,1,80,10|8,0:1|0:2,0:0:0:0:
315,376,205850,6,0,B|260:366|260:366|239:326|239:326|169:310,1,160,10|8,0:1|0:2,0:0:0:0:
134,365,206365,2,0,B|79:354|79:354|58:314|58:314|0:301,1,160,2|8,0:2|0:1,0:0:0:0:
243,190,206879,2,0,B|185:204|185:204|164:244|164:244|109:254,1,160,10|8,0:2|0:1,0:0:0:0:
32,224,207393,5,2,0:2:0:0:
258,279,207564,1,8,0:2:0:0:
258,279,207907,5,2,0:2:0:0:
258,279,207993,1,8,0:2:0:0:
258,279,208079,1,8,0:1:0:0:
134,365,208250,2,0,B|117:329|117:329|123:275,1,80,8|2,0:2|0:2,0:0:0:0:
256,192,208593,6,0,B|318:203|318:203|341:226|341:226|406:238,1,160,10|8,0:1|0:2,0:0:0:0:
404,237,209279,5,2,0:2:0:0:
448,96,209450,2,0,B|451:128|451:128|461:140|461:140|464:173,1,80,10|8,0:1|0:2,0:0:0:0:
389,193,209793,5,2,0:2:0:0:
506,283,209964,2,0,B|474:274|474:274|459:280|459:280|427:271,1,80,10|0,0:1|0:0,0:0:0:0:
300,363,210307,2,1,B|345:365|345:365|384:347,2,80,10|2|0,0:2|0:0|0:0,0:0:0:0:
228,309,210822,2,1,B|224:267|224:267|244:225,1,80,10|10,0:1|0:2,0:0:0:0:
240,232,211336,5,10,0:1:0:0:
160,192,211507,2,0,B|128:198|128:198|117:209|117:209|84:215,1,80,2|8,0:0|0:2,0:0:0:0:
272,152,211850,1,2,0:2:0:0:
352,192,212021,2,0,B|384:186|384:186|395:175|395:175|428:169,1,80,2|8,0:0|0:1,0:0:0:0:
161,173,212364,6,1,B|131:161|131:161|122:148|122:148|91:136,1,80,10|0,0:2|0:0,0:0:0:0:
350,210,212707,2,1,B|380:222|380:222|389:235|389:235|420:247,1,80,10|0,0:1|0:0,0:0:0:0:
320,384,213050,5,8,0:2:0:0:
256,256,213222,1,0,0:0:0:0:
192,384,213393,1,2,0:2:0:0:
192,384,213564,2,0,P|176:346|173:301,1,80,8|8,0:1|0:2,0:0:0:0:
320,384,213907,2,0,P|336:346|339:301,1,80,2|8,0:2|0:1,0:0:0:0:
256,256,214250,1,2,0:2:0:0:
352,192,214422,5,10,0:2:0:0:
256,96,214593,1,0,0:0:0:0:
160,192,214764,1,2,0:2:0:0:
256,256,214936,1,8,0:1:0:0:
160,192,215107,2,0,B|154:160|154:160|142:149|142:149|134:117,1,80,8|2,0:2|0:2,0:0:0:0:
352,192,215450,2,1,B|358:160|358:160|370:149|370:149|378:117,1,80,8|0,0:1|0:0,0:0:0:0:
459,0,215793,5,10,0:2:0:0:
348,127,215964,1,2,0:0:0:0:
510,88,216136,1,0,0:0:0:0:
356,23,216307,1,10,0:1:0:0:
443,166,216479,2,0,B|436:192|436:192|440:218|440:218|429:245,1,80,8|0,0:2|0:0,0:0:0:0:
256,288,216822,5,10,0:1:0:0:
256,288,216993,1,0,0:0:0:0:
180,379,217164,5,8,0:2:0:0:
55,355,217336,1,2,0:2:0:0:
138,273,217507,2,0,P|157:225|172:173,1,80,2|8,0:0|0:1,0:0:0:0:
332,379,217850,5,10,0:2:0:0:
457,355,218022,1,2,0:0:0:0:
374,273,218193,2,0,P|355:225|340:173,1,80,8|2,0:1|0:2,0:0:0:0:
290,21,218536,6,0,P|287:73|279:127,1,80,8|2,0:2|0:0,0:0:0:0:
202,265,218879,1,2,0:2:0:0:
197,305,218965,1,8,0:2:0:0:
196,345,219050,1,8,0:1:0:0:
0,192,219222,6,0,P|83:174|205:162,1,200,8|12,0:2|0:1,0:0:0:0:
256,192,225050,12,0,230193,0:0:0:0:
211,150,230536,6,0,P|186:168|141:172,2,71.9999978027344,2|0|0,0:1|0:0|0:0,0:0:0:0:
211,150,231907,6,0,P|241:178|340:198,1,143.999995605469,2|0,0:1|0:0,0:0:0:0:
339,198,232936,6,0,P|400:179|456:120,2,143.999995605469,2|0|0,0:1|0:0|0:0,0:0:0:0:
334,86,236022,6,0,P|333:122|357:149,2,71.9999978027344,2|0|0,0:1|0:0|0:0,0:0:0:0:
334,86,237393,6,0,P|276:67|220:125,1,143.999995605469,2|0,0:1|0:0,0:0:0:0:
221,119,238422,6,0,P|158:125|92:78,2,143.999995605469,2|0|0,0:1|0:0|0:0,0:0:0:0:
320,256,240136,5,2,0:2:0:0:
320,128,240479,1,0,0:0:0:0:
192,128,240822,1,2,0:2:0:0:
192,256,241164,1,0,0:0:0:0:
256,192,241507,5,12,0:1:0:0:
256,192,242193,6,0,B|199:185|194:248|126:243,2,143.999995605469,2|0|0,0:2|0:0|0:0,0:0:0:0:
256,192,243736,1,0,0:0:0:0:
325,313,244250,2,0,B|421:286|356:317|473:289,2,143.999995605469,2|0|0,0:2|0:0|0:0,0:0:0:0:
325,313,245793,1,0,0:0:0:0:
325,313,246307,1,2,0:2:0:0:
256,384,246822,5,0,0:0:0:0:
256,384,247164,2,0,B|279:345|318:345|318:345|284:327|277:287,2,148.79999409668,0|2|0,0:0|0:2|0:0,0:0:0:0:
256,384,248364,1,2,0:0:0:0:
256,384,248707,2,1,P|226:376|110:354,1,148.79999409668,0|0,0:0|0:0,0:0:0:0:
0,384,249393,1,2,0:2:0:0:
96,224,249736,6,0,P|153:218|209:209,1,99.1999960644533,2|0,0:2|0:0,0:0:0:0:
194,211,250250,2,1,P|251:201|304:185,1,99.1999960644533,2|0,0:0|0:0,0:0:0:0:
352,128,250764,1,2,0:2:0:0:
512,256,251279,1,2,0:2:0:0:
512,256,251793,2,0,B|462:286|422:240|367:284,1,148.79999409668,2|0,0:2|0:0,0:0:0:0:
287,384,252479,6,0,P|299:354|302:323,1,49.5999980322266,10|0,0:1|0:0,0:0:0:0:
369,282,252736,1,0,0:0:0:0:
369,282,252822,2,0,P|364:249|352:221,1,49.5999980322266,0|0,1:0|0:0,0:0:0:0:
359,233,253079,1,0,0:0:0:0:
359,233,253164,1,2,0:2:0:0:
288,192,253336,2,0,P|274:196|258:206,2,24.7999990161133,8|0|0,0:1|0:0|1:0,0:0:0:0:
416,160,253679,5,2,0:2:0:0:
416,160,253764,1,0,0:0:0:0:
416,160,253850,2,1,P|429:164|445:174,7,24.7999990161133,8|0|0|0|2|0|0|0,0:1|0:0|0:0|0:0|1:2|0:0|0:0|0:0,0:0:0:0:
446,93,254536,2,1,P|459:97|475:107,7,24.7999990161133,0|0|10|0|0|0|0|0,0:0|0:0|0:1|0:0|1:0|0:0|0:0|0:0,0:0:0:0:
259,123,255222,6,0,P|245:127|229:137,3,24.7999990161133,10|0|0|0,0:1|0:0|0:0|0:0,0:0:0:0:
288,192,255564,2,1,P|274:196|258:206,3,24.7999990161133,0|0|2|0,1:0|0:0|0:2|0:0,0:0:0:0:
318,268,255907,5,0,0:0:0:0:
305,295,255993,1,0,0:0:0:0:
304,326,256079,1,8,0:1:0:0:
317,352,256164,1,0,0:0:0:0:
339,373,256250,1,2,1:2:0:0:
326,367,256336,1,0,0:0:0:0:
312,367,256422,1,0,0:0:0:0:
298,370,256507,1,0,0:0:0:0:
287,379,256593,6,0,L|257:385,7,24.7999990161133,10|0|0|0|0|0|0|0,0:1|0:0|0:0|0:0|1:0|0:0|0:0|0:0,0:0:0:0:
203,338,257279,2,1,L|173:344,3,24.7999990161133,2|0|8|0,0:2|0:0|0:1|0:0,0:0:0:0:
74,320,257622,2,1,L|98:315,1,24.7999990161133,0|0,1:0|0:0,0:0:0:0:
164,263,257793,2,1,L|194:257,1,24.7999990161133,0|0,0:0|0:0,0:0:0:0:
258,211,257964,6,0,L|288:205,3,24.7999990161133,10|0|0|0,0:1|0:0|0:0|0:0,0:0:0:0:
297,286,258307,2,1,L|272:290,3,24.7999990161133,0|0|0|0,1:0|0:0|0:0|0:0,0:0:0:0:
188,258,258650,5,2,0:2:0:0:
163,233,258736,1,0,0:0:0:0:
149,198,258822,1,8,0:1:0:0:
155,165,258907,1,0,0:0:0:0:
170,134,258993,1,0,1:0:0:0:
158,146,259079,1,0,0:0:0:0:
143,151,259165,1,2,0:2:0:0:
126,152,259250,1,0,0:0:0:0:
111,147,259336,6,0,L|63:154,7,40,8|0|0|0|2|0|0|0,0:1|0:0|0:0|0:0|1:2|0:0|0:0|0:0,0:0:0:0:
62,77,260022,1,0,0:0:0:0:
62,77,260107,1,0,0:0:0:0:
62,77,260193,2,0,L|101:70,1,40,10|0,0:1|0:0,0:0:0:0:
224,0,260364,2,0,P|235:40|238:89,1,80,8|0,0:2|0:0,0:0:0:0:
258,188,260707,1,8,0:1:0:0:
258,188,261050,6,0,L|319:198,3,40,8|8|8|8,0:1|0:1|0:1|0:1,0:0:0:0:
192,256,261393,2,0,L|131:246,3,40,8|8|8|8,0:1|0:1|0:1|0:1,0:0:0:0:
288,320,261736,2,0,L|349:330,3,40,8|8|8|8,0:1|0:1|0:1|0:1,0:0:0:0:
252,294,262079,5,8,0:1:0:0:
239,309,262164,1,8,0:1:0:0:
235,331,262250,1,8,0:1:0:0:
238,359,262336,1,8,0:1:0:0:
255,383,262422,5,8,0:1:0:0:
264,352,262507,1,8,0:1:0:0:
254,318,262593,1,8,0:1:0:0:
227,289,262679,1,8,0:1:0:0:
186,277,262764,1,8,0:1:0:0:
160,244,262850,1,8,0:1:0:0:
154,202,262936,1,8,0:1:0:0:
171,163,263022,1,8,0:1:0:0:
201,132,263107,6,0,P|263:141|317:161,1,120.000004577637,10|0,0:2|0:0,0:0:0:0:
512,0,263450,6,0,B|458:64|516:106|443:189,1,200,14|8,0:1|0:2,0:0:0:0:
253,333,263964,1,2,0:2:0:0:
267,361,264050,1,0,0:0:0:0:
293,380,264136,1,2,0:0:0:0:
325,384,264222,1,0,0:0:0:0:
356,370,264307,1,8,0:1:0:0:
512,293,264479,2,0,P|467:274|404:267,1,100,10|2,0:2|0:2,0:0:0:0:
253,333,264822,6,0,B|148:305|202:331|100:306,1,150,10|0,0:1|0:0,0:0:0:0:
105,307,265164,1,8,0:2:0:0:
6,119,265336,1,2,0:2:0:0:
6,154,265422,1,0,0:0:0:0:
21,185,265507,1,2,0:0:0:0:
47,207,265593,1,0,0:0:0:0:
81,210,265679,2,1,P|131:201|176:180,2,100,8|10|0,0:1|0:2|0:0,0:0:0:0:
0,350,266193,2,0,P|53:352|101:365,1,100,10|0,0:1|0:0,0:0:0:0:
296,211,266536,6,1,P|293:157|281:110,1,100,8|2,0:2|0:0,0:0:0:0:
256,84,266793,1,0,0:0:0:0:
223,62,266879,1,2,0:0:0:0:
183,57,266964,1,0,0:0:0:0:
145,73,267050,1,8,0:1:0:0:
47,207,267222,2,1,P|49:260|62:308,1,100,8|2,0:2|0:0,0:0:0:0:
178,384,267564,6,0,P|227:375|338:350,1,150,10|0,0:1|0:0,0:0:0:0:
336,318,267907,1,8,0:2:0:0:
448,256,268079,1,2,0:2:0:0:
450,296,268164,1,0,0:0:0:0:
431,332,268250,1,2,0:0:0:0:
336,318,268422,1,8,0:1:0:0:
450,144,268593,1,10,0:2:0:0:
256,192,268764,1,2,0:0:0:0:
352,64,268936,6,0,B|242:51|322:46|198:33,1,150,8|0,0:1|0:0,0:0:0:0:
205,33,269279,1,8,0:2:0:0:
0,192,269450,1,2,0:2:0:0:
0,192,269536,1,0,0:0:0:0:
0,192,269622,2,0,P|50:187|99:175,1,100,2|8,0:0|0:1,0:0:0:0:
362,370,269964,2,0,P|292:383|209:384,1,150,10|0,0:2|0:0,0:0:0:0:
213,384,270307,6,0,B|200:274|195:354|182:229,1,150,10|0,0:1|0:0,0:0:0:0:
182,237,270650,1,8,0:2:0:0:
352,64,270822,1,2,0:2:0:0:
367,97,270907,1,0,0:0:0:0:
368,132,270993,1,0,0:0:0:0:
353,164,271079,1,0,0:0:0:0:
326,187,271164,1,10,0:1:0:0:
182,237,271336,2,0,P|132:233|86:214,1,100,10|0,0:2|0:0,0:0:0:0:
310,20,271679,5,8,0:1:0:0:
310,20,271850,2,1,P|359:23|405:42,1,100,2|10,0:0|0:2,0:0:0:0:
281,281,272193,1,2,0:0:0:0:
281,281,272279,1,0,0:0:0:0:
281,281,272364,2,0,P|308:276|338:264,2,50,2|0|8,0:2|0:0|0:1,0:0:0:0:
150,197,272707,5,10,0:2:0:0:
330,120,272879,1,2,0:0:0:0:
208,0,273050,2,0,P|154:2|104:12,1,100,10|0,0:1|0:0,0:0:0:0:
150,197,273393,1,10,0:2:0:0:
330,120,273564,2,0,L|272:111,1,50,2|0,0:2|0:0,0:0:0:0:
136,113,273736,5,2,0:2:0:0:
135,157,273822,1,8,0:2:0:0:
150,197,273907,1,8,0:1:0:0:
362,171,274079,2,0,P|369:117|348:67,1,100,10|0,0:2|0:0,0:0:0:0:
25,0,274422,6,0,B|6:48|41:83|41:83|13:94|0:124,1,150,14|0,0:1|0:0,0:0:0:0:
0,124,274764,2,0,P|45:133|135:122,1,100,8|2,0:2|0:2,0:0:0:0:
150,197,275022,1,0,0:0:0:0:
150,197,275107,2,1,P|198:192|246:176,1,100,2|8,0:0|0:1,0:0:0:0:
323,0,275450,5,10,0:2:0:0:
246,175,275622,1,2,0:2:0:0:
377,295,275793,2,0,P|440:294|515:246,1,150,10|0,0:1|0:0,0:0:0:0:
512,249,276136,2,0,P|512:224|508:199,1,50,8|0,0:2|0:0,0:0:0:0:
475,90,276307,1,2,0:2:0:0:
429,90,276393,1,0,0:0:0:0:
388,110,276479,2,0,P|392:167|412:205,1,100,2|8,0:0|0:1,0:0:0:0:
352,384,276822,2,0,B|251:366|308:388|201:368,1,150,10|0,0:2|0:0,0:0:0:0:
202,368,277164,6,0,P|179:325|187:262,1,100,8|0,0:1|0:0,0:0:0:0:
361,236,277507,1,8,0:2:0:0:
165,179,277679,1,2,0:0:0:0:
165,179,277764,1,0,0:0:0:0:
165,179,277850,1,2,0:0:0:0:
231,312,278022,1,8,0:1:0:0:
205,89,278193,2,0,P|131:100|70:151,1,150,8|0,0:2|0:0,0:0:0:0:
74,147,278536,6,0,P|74:196|100:238,1,100,10|0,0:1|0:0,0:0:0:0:
192,369,278879,2,0,P|241:368|283:342,1,100,8|2,0:2|0:2,0:0:0:0:
341,286,279137,1,0,0:0:0:0:
341,286,279222,2,0,P|351:257|351:223,1,50,2|0,0:0|0:0,0:0:0:0:
310,176,279393,1,8,0:1:0:0:
512,140,279564,2,0,P|473:109|424:102,1,100,10|2,0:2|0:2,0:0:0:0:
222,294,279907,5,10,0:1:0:0:
310,176,280079,1,2,0:0:0:0:
413,384,280250,2,0,B|441:280|415:334|438:236,1,150,8|0,0:2|0:0,0:0:0:0:
437,236,280593,2,0,P|467:221|484:221,1,50
512,235,280764,1,8,0:1:0:0:
413,384,280936,6,0,P|363:384|314:373,1,100,10|0,0:2|0:0,0:0:0:0:
157,227,281279,2,1,P|204:211|254:207,1,100,10|0,0:1|0:0,0:0:0:0:
499,1,281622,5,8,0:2:0:0:
343,123,281793,1,2,0:2:0:0:
343,123,281879,1,0,0:0:0:0:
343,123,281964,1,0,0:0:0:0:
512,128,282136,1,10,0:1:0:0:
283,59,282307,2,0,B|293:158|306:100|318:221,1,150,10|0,0:2|0:0,0:0:0:0:
289,276,282650,1,10,0:1:0:0:
320,384,282993,5,2,0:2:0:0:
313,348,283164,1,0,0:0:0:0:
346,299,283336,1,2,0:2:0:0:
192,320,283679,1,2,0:2:0:0:
198,284,283850,1,0,0:0:0:0:
165,235,284022,1,2,0:2:0:0:
165,235,284364,6,0,P|157:219|155:210,3,17.9999994506836,2|0|0|0,0:2|0:0|0:0|0:0,0:0:0:0:
136,207,284707,1,2,0:2:0:0:
99,210,284793,1,2,0:2:0:0:
72,229,284879,1,2,0:2:0:0:
55,274,284964,1,2,0:2:0:0:
65,343,285050,6,0,P|98:343|138:327,1,60.0000022888184,10|0,0:2|0:0,0:0:0:0:
325,384,285393,6,0,B|370:258|307:324|357:184,1,200,14|8,0:1|0:2,0:0:0:0:
512,0,285908,1,2,0:2:0:0:
512,0,285993,1,0,0:0:0:0:
512,0,286079,2,0,P|513:44|496:100,1,100,2|8,0:0|0:1,0:0:0:0:
317,243,286422,1,10,0:2:0:0:
317,243,286594,2,0,P|299:193|303:145,1,100,2|8,0:2|0:1,0:0:0:0:
222,0,286937,2,0,B|85:-2|169:18|21:29,1,200,2|2,0:0|0:2,0:0:0:0:
0,110,287365,1,0,0:0:0:0:
0,110,287451,2,0,P|5:155|33:216,1,100,2|8,0:0|0:1,0:0:0:0:
257,384,287794,6,0,P|296:306|320:187,1,200,10|8,0:2|0:1,0:0:0:0:
212,265,288308,1,0,0:0:0:0:
212,265,288394,1,0,0:0:0:0:
212,265,288479,1,8,0:2:0:0:
25,205,288650,1,2,0:0:0:0:
89,268,288822,5,2,0:0:0:0:
269,173,288994,1,8,0:1:0:0:
207,3,289165,1,10,0:2:0:0:
65,24,289336,1,0,0:0:0:0:
0,172,289508,2,0,B|14:269|25:199|39:318,1,150,10|0,0:1|0:0,0:0:0:0:
38,315,289850,1,8,0:2:0:0:
100,384,290022,5,2,0:2:0:0:
154,204,290194,1,2,0:0:0:0:
225,351,290365,1,10,0:1:0:0:
332,98,290537,1,10,0:2:0:0:
402,384,290708,1,2,0:0:0:0:
313,270,290879,6,0,B|177:231|261:288|102:250,1,200,8|8,0:1|0:2,0:0:0:0:
0,384,291393,1,2,0:2:0:0:
52,184,291564,1,2,0:0:0:0:
52,184,291736,2,0,P|98:163|150:165,1,100,8|10,0:1|0:2,0:0:0:0:
377,334,292079,2,0,P|398:288|396:236,1,100,2|10,0:0|0:1,0:0:0:0:
191,290,292422,2,0,P|190:339|210:384,1,100,0|8,0:0|0:2,0:0:0:0:
450,257,292764,1,2,0:2:0:0:
440,208,292849,1,0,0:0:0:0:
397,181,292935,1,2,0:0:0:0:
238,329,293107,1,8,0:1:0:0:
146,164,293280,6,0,P|81:166|3:214,1,150,10|0,0:2|0:0,0:0:0:0:
9,302,293623,1,8,0:1:0:0:
108,384,293794,1,0,0:0:0:0:
0,216,293965,6,0,P|3:168|18:117,1,100,10|2,0:2|0:0,0:0:0:0:
150,122,294307,1,2,0:2:0:0:
81,0,294479,1,8,0:1:0:0:
150,122,294651,5,10,0:2:0:0:
286,162,294822,1,2,0:0:0:0:
188,260,294994,2,0,P|216:309|252:346,1,100,10|0,0:1|0:0,0:0:0:0:
286,162,295337,5,10,0:2:0:0:
401,95,295508,1,2,0:2:0:0:
512,224,295680,1,2,0:2:0:0:
458,225,295764,1,8,0:2:0:0:
405,239,295851,1,8,0:1:0:0:
355,262,295936,1,2,0:0:0:0:
307,290,296022,2,0,P|314:344|325:389,1,100,10|0,0:2|0:0,0:0:0:0:
278,121,296365,6,0,P|192:104|115:176,1,200,14|8,0:1|0:2,0:0:0:0:
354,189,296879,1,2,0:2:0:0:
380,147,296964,1,0,0:0:0:0:
372,98,297050,1,2,0:0:0:0:
214,197,297222,1,8,0:1:0:0:
308,331,297393,1,10,0:2:0:0:
308,331,297564,2,0,P|356:330|406:311,1,100,2|8,0:2|0:1,0:0:0:0:
160,384,297907,2,0,P|112:383|64:363,1,100,2|8,0:0|0:2,0:0:0:0:
0,265,298251,1,2,0:2:0:0:
0,218,298336,1,0,0:0:0:0:
27,181,298422,1,2,0:0:0:0:
207,201,298594,1,8,0:1:0:0:
220,17,298765,6,0,B|347:34|299:52|412:66,1,200,10|8,0:2|0:1,0:0:0:0:
512,186,299279,1,0,0:0:0:0:
512,186,299365,1,0,0:0:0:0:
512,186,299451,1,10,0:2:0:0:
401,222,299622,1,2,0:0:0:0:
477,351,299794,1,2,0:0:0:0:
315,288,299965,1,8,0:1:0:0:
256,383,300137,2,0,P|181:365|124:306,1,150,8|0,0:2|0:0,0:0:0:0:
129,315,300479,6,0,B|267:280|166:275|323:244,1,200,10|8,0:1|0:2,0:0:0:0:
422,161,300994,1,2,0:2:0:0:
433,115,301079,1,0,0:0:0:0:
424,68,301165,1,2,0:0:0:0:
398,28,301251,1,0,0:0:0:0:
358,2,301336,1,10,0:1:0:0:
155,67,301508,1,10,0:2:0:0:
243,172,301679,1,2,0:0:0:0:
155,67,301851,6,0,B|241:117|256:62|353:105,1,200,8|8,0:1|0:2,0:0:0:0:
480,288,302365,1,2,0:2:0:0:
480,288,302451,1,0,0:0:0:0:
480,288,302537,2,0,P|504:238|505:183,1,100,2|8,0:0|0:1,0:0:0:0:
436,0,302879,1,10,0:2:0:0:
436,0,303051,2,0,P|341:10|241:36,1,200,2|0,0:0|0:0,0:0:0:0:
93,234,303565,5,8,0:0:0:0:
1,110,303736,1,2,0:0:0:0:
6,65,303821,1,0,0:0:0:0:
29,26,303907,1,2,0:0:0:0:
67,3,303993,1,0,0:0:0:0:
112,1,304079,1,8,0:1:0:0:
210,183,304251,2,0,P|276:181|351:137,1,150,10|0,0:2|0:0,0:0:0:0:
374,73,304593,5,10,0:1:0:0:
256,192,304764,12,12,307336,0:1:0:0:
