osu file format v14

[General]
AudioFilename: Fox Stevenson - Throwdown (Rob Gasser Remix).mp3
AudioLeadIn: 0
PreviewTime: 153965
Countdown: 1
SampleSet: Normal
StackLeniency: 0.5
Mode: 0
LetterboxInBreaks: 0
WidescreenStoryboard: 0

[Editor]
DistanceSpacing: 1
BeatDivisor: 4
GridSize: 4
TimelineZoom: 1.3

[Metadata]
Title:Throwdown (Rob Gasser Remix)
TitleUnicode:Throwdown (Rob Gasser Remix)
Artist:Fox Stevenson
ArtistUnicode:Fox Stevenson
Creator:Masala
Version:Insane
Source:
Tags:dnb drum and bass stan sb dubstep datsik
BeatmapID:878060
BeatmapSetID:403826

[Difficulty]
HPDrainRate:4.5
CircleSize:4
OverallDifficulty:7
ApproachRate:9
SliderMultiplier:1.9
SliderTickRate:2

[Events]
//Background and Video events
0,0,"bg.jpg",0,0
//Break Periods
2,110544,120779
//Storyboard Layer 0 (Background)
//Storyboard Layer 1 (Fail)
//Storyboard Layer 2 (Pass)
//Storyboard Layer 3 (Foreground)
//Storyboard Sound Samples

[TimingPoints]
0,344.827586206897,4,1,0,100,1,0
0,-133.333333333333,4,1,0,100,0,0
31724,-117.647058823529,4,1,0,100,0,0
32068,-105.263157894737,4,1,0,100,0,0
32413,-95.2380952380951,4,1,0,100,0,0
32758,-86.9565217391303,4,1,0,100,0,0
33103,-133.333333333333,4,1,0,100,0,0
44137,-100,4,1,0,100,0,1
46896,-133.333333333333,4,1,0,100,0,1
47241,-100,4,1,0,100,0,1
49137,-83.3333333333333,4,1,0,100,0,1
49655,-133.333333333333,4,1,0,100,0,1
50000,-100,4,1,0,100,0,1
52413,-133.333333333333,4,1,0,100,0,1
52758,-100,4,1,0,100,0,1
55172,-100,4,1,0,100,0,1
55517,-83.3333333333333,4,1,0,100,0,1
57241,-83.3333333333333,4,1,0,100,0,1
57931,-100,4,1,0,100,0,1
58275,-83.3333333333333,4,1,0,100,0,1
60172,-66.6666666666667,4,1,0,100,0,1
60689,-100,4,1,0,100,0,1
61034,-83.3333333333333,4,1,0,100,0,1
63448,-100,4,1,0,100,0,1
63793,-83.3333333333333,4,1,0,100,0,1
66206,-100,4,1,0,100,0,1
66551,-83.3333333333333,4,1,0,100,0,1
68965,-100,4,1,0,100,0,1
69310,-83.3333333333333,4,1,0,100,0,1
71724,-100,4,1,0,100,0,1
72068,-83.3333333333333,4,1,0,100,0,1
74482,-100,4,1,0,100,0,1
74827,-83.3333333333333,4,1,0,100,0,1
77241,-100,4,1,0,100,0,1
77586,-83.3333333333333,4,1,0,100,0,1
80000,-100,4,1,0,100,0,1
80344,-83.3333333333333,4,1,0,100,0,1
82758,-100,4,1,0,100,0,1
83103,-83.3333333333333,4,1,0,100,0,1
86896,-200,4,1,0,100,0,1
88275,-133.333333333333,4,1,0,100,0,0
96551,-200,4,1,0,100,0,0
97068,-133.333333333333,4,1,0,100,0,0
99310,-100,4,1,0,100,0,0
126896,-133.333333333333,4,1,0,100,0,0
130344,-100,4,1,0,100,0,0
134827,-133.333333333333,4,1,0,100,0,0
135172,-100,4,1,0,100,0,0
140344,-133.333333333333,4,1,0,100,0,0
140689,-100,4,1,0,100,0,0
142068,-90.9090909090909,4,1,0,100,0,0
142413,-83.3333333333333,4,1,0,100,0,0
142758,-76.9230769230769,4,1,0,100,0,0
143103,-71.4285714285714,4,1,0,100,0,0
143448,-100,4,1,0,100,0,0
154482,-100,4,1,0,100,0,1
157241,-133.333333333333,4,1,0,100,0,1
157586,-100,4,1,0,100,0,1
159482,-83.3333333333333,4,1,0,100,0,1
160000,-133.333333333333,4,1,0,100,0,1
160344,-100,4,1,0,100,0,1
162757,-133.333333333333,4,1,0,100,0,1
163102,-100,4,1,0,100,0,1
165516,-100,4,1,0,100,0,1
165861,-83.3333333333333,4,1,0,100,0,1
167585,-83.3333333333333,4,1,0,100,0,1
168275,-100,4,1,0,100,0,1
168619,-83.3333333333333,4,1,0,100,0,1
170516,-66.6666666666667,4,1,0,100,0,1
171033,-100,4,1,0,100,0,1
171378,-83.3333333333333,4,1,0,100,0,1
173792,-100,4,1,0,100,0,1
174137,-83.3333333333333,4,1,0,100,0,1
176550,-100,4,1,0,100,0,1
176895,-83.3333333333333,4,1,0,100,0,1
179309,-100,4,1,0,100,0,1
179654,-83.3333333333333,4,1,0,100,0,1
182068,-100,4,1,0,100,0,1
182412,-83.3333333333333,4,1,0,100,0,1
184826,-100,4,1,0,100,0,1
185171,-83.3333333333333,4,1,0,100,0,1
187585,-100,4,1,0,100,0,1
187930,-83.3333333333333,4,1,0,100,0,1
190344,-100,4,1,0,100,0,1
190688,-83.3333333333333,4,1,0,100,0,1
193102,-100,4,1,0,100,0,1
193447,-83.3333333333333,4,1,0,100,0,1
197240,-200,4,1,0,100,0,1
198620,-100,4,1,0,100,0,0

[HitObjects]
296,104,0,5,0,0:0:0:0:
276,272,172,1,0,0:0:0:0:
368,136,344,2,0,P|320:180|246:165,1,142.500005435944,0|0,0:0|0:0,0:0:0:0:
360,58,862,1,0,0:0:0:0:
227,85,1034,2,0,L|315:109,1,71.2500027179719,0|0,0:0|0:0,0:0:0:0:
194,157,1379,6,0,P|150:109|165:35,1,142.500005435944,0|0,0:0|0:0,0:0:0:0:
368,136,1896,1,0,0:0:0:0:
227,85,2068,1,0,0:0:0:0:
254,233,2241,1,0,0:0:0:0:
254,233,2327,1,0,0:0:0:0:
254,233,2413,1,0,0:0:0:0:
402,206,2586,1,0,0:0:0:0:
296,168,2758,6,0,P|260:160|223:161,1,71.2500027179719,0|0,0:0|0:0,0:0:0:0:
288,332,3103,2,0,L|348:268,1,71.2500027179719,0|0,0:0|0:0,0:0:0:0:
152,204,3448,2,0,L|203:252,1,71.2500027179719,0|0,0:0|0:0,0:0:0:0:
292,150,3793,1,0,0:0:0:0:
177,366,3965,1,0,0:0:0:0:
312,232,4137,6,0,P|364:192|368:116,1,142.500005435944,0|0,0:0|0:0,0:0:0:0:
404,260,4655,1,0,0:0:0:0:
292,150,4827,2,0,L|240:100,1,71.2500027179719,0|0,0:0|0:0,0:0:0:0:
240,100,5086,1,0,0:0:0:0:
240,100,5172,1,0,0:0:0:0:
404,260,5344,1,0,0:0:0:0:
168,143,5517,6,0,P|159:77|210:21,1,142.500005435944,0|0,0:0|0:0,0:0:0:0:
224,220,6034,1,0,0:0:0:0:
224,220,6206,2,0,L|156:252,1,71.2500027179719,0|0,0:0|0:0,0:0:0:0:
240,100,6551,2,0,L|308:68,1,71.2500027179719,0|0,0:0|0:0,0:0:0:0:
335,173,6896,6,0,L|395:301,1,142.500005435944,0|0,0:0|0:0,0:0:0:0:
268,236,7413,1,0,0:0:0:0:
402,110,7586,2,0,P|464:140|480:208,1,142.500005435944,0|0,0:0|0:0,0:0:0:0:
400,192,8103,1,0,0:0:0:0:
240,162,8275,6,0,L|164:148,1,71.2500027179719,0|0,0:0|0:0,0:0:0:0:
400,192,8620,2,0,L|470:204,1,71.2500027179719,0|0,0:0|0:0,0:0:0:0:
470,204,8879,1,0,0:0:0:0:
470,204,8965,1,0,0:0:0:0:
360,296,9137,1,0,0:0:0:0:
448,128,9310,1,0,0:0:0:0:
288,280,9482,1,0,0:0:0:0:
393,78,9655,6,0,P|428:56|460:56,1,71.2500027179719,0|0,0:0|0:0,0:0:0:0:
470,204,10000,1,0,0:0:0:0:
322,207,10172,1,0,0:0:0:0:
216,112,10344,1,0,0:0:0:0:
204,119,10431,1,0,0:0:0:0:
196,135,10517,1,0,0:0:0:0:
196,156,10603,1,0,0:0:0:0:
205,178,10689,1,0,0:0:0:0:
211,205,10775,1,0,0:0:0:0:
207,237,10862,1,0,0:0:0:0:
185,265,10948,1,0,0:0:0:0:
148,277,11034,1,0,0:0:0:0:
272,96,11724,6,0,L|376:112,1,71.2500027179719,0|0,0:0|0:0,0:0:0:0:
388,204,12068,1,0,0:0:0:0:
332,296,12241,2,0,P|272:328|204:296,1,142.500005435944,0|0,0:0|0:0,0:0:0:0:
268,248,12758,1,0,0:0:0:0:
280,140,12931,2,0,L|290:69,1,71.2500027179719,0|0,0:0|0:0,0:0:0:0:
332,296,13276,1,0,0:0:0:0:
204,200,13448,1,0,0:0:0:0:
351,137,13620,1,0,0:0:0:0:
184,276,13793,5,0,0:0:0:0:
224,124,14051,1,0,0:0:0:0:
332,296,14310,1,0,0:0:0:0:
156,176,14655,5,0,0:0:0:0:
308,84,14827,1,0,0:0:0:0:
156,176,15000,1,0,0:0:0:0:
356,176,15172,5,0,0:0:0:0:
256,349,15431,1,0,0:0:0:0:
156,176,15689,1,0,0:0:0:0:
272,260,15862,5,0,0:0:0:0:
192,100,16034,1,0,0:0:0:0:
272,180,16206,1,0,0:0:0:0:
192,20,16379,1,0,0:0:0:0:
341,220,16551,5,0,0:0:0:0:
359,244,16810,1,0,0:0:0:0:
377,268,17068,1,0,0:0:0:0:
180,132,17413,5,0,0:0:0:0:
84,112,17586,1,0,0:0:0:0:
276,128,17758,1,0,0:0:0:0:
166,286,17931,5,0,0:0:0:0:
144,312,18189,1,0,0:0:0:0:
122,338,18448,1,0,0:0:0:0:
276,128,18793,5,0,0:0:0:0:
344,48,18965,1,0,0:0:0:0:
236,220,19137,1,0,0:0:0:0:
408,124,19310,5,0,0:0:0:0:
436,108,19568,1,0,0:0:0:0:
464,92,19827,1,0,0:0:0:0:
280,312,20172,5,0,0:0:0:0:
228,140,20344,1,0,0:0:0:0:
402,180,20517,1,0,0:0:0:0:
256,192,20689,12,0,22068,0:0:0:0:
256,192,22413,5,0,0:0:0:0:
112,56,22586,2,0,P|144:116|212:124,1,142.500005435944,0|0,0:0|0:0,0:0:0:0:
188,52,23103,1,0,0:0:0:0:
164,204,23275,2,0,L|204:272,1,71.2500027179719,0|0,0:0|0:0,0:0:0:0:
254,357,23620,1,0,0:0:0:0:
76,359,23793,1,0,0:0:0:0:
164,204,23965,2,0,P|232:212|268:288,1,142.500005435944,0|0,0:0|0:0,0:0:0:0:
188,280,24482,1,0,0:0:0:0:
140,128,24655,1,0,0:0:0:0:
188,280,24827,6,0,L|120:304,1,71.2500027179719,0|0,0:0|0:0,0:0:0:0:
355,221,25172,1,0,0:0:0:0:
260,88,25344,2,0,P|313:45|392:73,1,142.500005435944,0|0,0:0|0:0,0:0:0:0:
228,8,25862,1,0,0:0:0:0:
331,123,26034,2,0,L|380:180,1,71.2500027179719,0|0,0:0|0:0,0:0:0:0:
280,208,26379,1,0,0:0:0:0:
436,88,26551,1,0,0:0:0:0:
246,279,26724,2,0,P|203:225|231:146,1,142.500005435944,0|0,0:0|0:0,0:0:0:0:
280,208,27241,1,0,0:0:0:0:
168,320,27413,1,0,0:0:0:0:
127,167,27586,6,0,L|168:88,1,71.2500027179719,0|0,0:0|0:0,0:0:0:0:
240,48,27931,1,0,0:0:0:0:
172,232,28103,2,0,P|104:243|54:196,1,142.500005435944,0|0,0:0|0:0,0:0:0:0:
127,167,28620,1,0,0:0:0:0:
240,48,28793,2,0,L|319:89,1,71.2500027179719,0|0,0:0|0:0,0:0:0:0:
290,276,29137,1,0,0:0:0:0:
127,167,29310,1,0,0:0:0:0:
318,2,29482,2,0,P|373:42|375:111,1,142.500005435944,0|0,0:0|0:0,0:0:0:0:
303,80,30000,1,0,0:0:0:0:
444,12,30172,1,0,0:0:0:0:
436,152,30344,6,0,L|432:232,1,71.2500027179719,0|0,0:0|0:0,0:0:0:0:
303,80,30689,1,0,0:0:0:0:
368,256,30862,1,0,0:0:0:0:
228,80,31034,1,0,0:0:0:0:
368,256,31206,1,0,0:0:0:0:
136,192,31379,6,0,L|64:168,1,71.2500027179719,0|0,0:0|0:0,0:0:0:0:
240,128,31724,2,0,P|256:164|256:208,1,80.750001540184
195,297,32068,2,0,L|164:208,1,90.2499975900651
404,240,32413,2,0,P|360:264|308:256,1,99.7499969558717
204,112,32758,2,0,P|250:86|304:95,1,109.250002083778
144,272,33103,6,0,L|96:284,7,35.625001358986
130,310,33793,1,0,0:0:0:0:
160,327,33879,1,0,0:0:0:0:
194,334,33965,1,0,0:0:0:0:
229,331,34051,1,0,0:0:0:0:
263,323,34137,2,0,L|297:314,3,35.625001358986
336,232,34482,6,0,L|370:223,3,35.625001358986
301,240,34827,1,0,0:0:0:0:
265,238,34913,1,0,0:0:0:0:
234,218,35000,1,0,0:0:0:0:
222,184,35086,1,0,0:0:0:0:
230,149,35172,2,0,L|240:104,3,35.625001358986
128,264,35517,6,0,L|135:229,3,35.625001358986
142,194,35862,1,0,0:0:0:0:
149,159,35948,1,0,0:0:0:0:
156,124,36034,1,0,0:0:0:0:
163,89,36120,1,0,0:0:0:0:
170,54,36206,2,0,L|223:26,3,35.625001358986
344,88,36551,6,0,L|397:60,1,35.625001358986
248,140,36724,2,0,L|195:112,1,35.625001358986
342,198,36896,5,0,0:0:0:0:
362,231,36982,1,0,0:0:0:0:
369,269,37068,1,0,0:0:0:0:
364,308,37155,1,0,0:0:0:0:
342,340,37241,2,0,L|304:372,3,35.625001358986
224,268,37586,2,0,L|174:263,3,35.625001358986
104,156,37931,2,0,L|71:117,7,35.625001358986
280,96,38620,6,0,L|316:72,3,35.625001358986,0|0|0|0,0:0|0:0|0:0|0:0,0:0:0:0:
404,240,38965,2,0,L|428:276,3,35.625001358986,0|0|0|0,0:0|0:0|0:0|0:0,0:0:0:0:
452,48,39310,2,0,L|460:-4,3,35.625001358986,0|0|0|0,0:0|0:0|0:0|0:0,0:0:0:0:
328,216,39655,2,0,L|296:260,3,35.625001358986,0|0|0|0,0:0|0:0|0:0|0:0,0:0:0:0:
286,273,40000,5,0,0:0:0:0:
255,290,40087,1,0,0:0:0:0:
220,294,40173,1,0,0:0:0:0:
186,283,40259,1,0,0:0:0:0:
159,259,40345,1,0,0:0:0:0:
145,227,40431,1,0,0:0:0:0:
145,191,40518,1,0,0:0:0:0:
159,159,40604,1,0,0:0:0:0:
186,135,40690,1,0,0:0:0:0:
197,101,40775,1,0,0:0:0:0:
186,67,40861,1,0,0:0:0:0:
157,46,40947,1,0,0:0:0:0:
122,46,41033,1,0,0:0:0:0:
93,67,41120,1,0,0:0:0:0:
82,101,41206,1,0,0:0:0:0:
93,135,41292,1,0,0:0:0:0:
122,156,41378,5,0,0:0:0:0:
288,216,41551,1,0,0:0:0:0:
248,128,41724,1,0,0:0:0:0:
352,292,41896,1,0,0:0:0:0:
157,300,42068,1,0,0:0:0:0:
352,292,42241,1,0,0:0:0:0:
248,128,42413,1,0,0:0:0:0:
352,292,42586,1,0,0:0:0:0:
156,224,42758,6,0,L|124:212,16,17.812500679493,0|0|0|0|0|0|0|0|0|0|0|0|0|0|0|0|0,0:0|0:0|0:0|0:0|0:0|0:0|0:0|0:0|0:0|0:0|0:0|0:0|0:0|0:0|0:0|0:0|0:0,0:0:0:0:
316,304,43620,1,0,0:0:0:0:
345,283,43706,1,0,0:0:0:0:
367,254,43793,1,0,0:0:0:0:
379,220,43879,1,0,0:0:0:0:
381,184,43965,1,0,0:0:0:0:
252,44,44137,6,0,B|156:52|156:52|108:84,1,142.5,0|0,0:0|0:0,0:0:0:0:
184,124,44482,1,0,0:0:0:0:
52,32,44655,1,0,0:0:0:0:
172,232,44827,1,0,0:0:0:0:
292,32,45000,1,0,0:0:0:0:
96,240,45172,2,0,P|104:196|145:160,1,95,0|0,0:0|0:0,0:0:0:0:
280,288,45517,5,0,0:0:0:0:
172,232,45689,1,0,0:0:0:0:
392,272,45862,1,0,0:0:0:0:
139,162,46034,1,0,0:0:0:0:
392,272,46206,2,0,L|288:304,1,95,0|0,0:0|0:0,0:0:0:0:
44,220,46551,2,0,L|134:247,1,95,0|0,0:0|0:0,0:0:0:0:
360,160,46896,6,0,P|312:176|260:156,1,106.875004076958,0|0,0:0|0:0,0:0:0:0:
312,104,47241,1,0,0:0:0:0:
301,299,47413,1,0,0:0:0:0:
241,85,47586,1,0,0:0:0:0:
456,140,47758,1,0,0:0:0:0:
189,137,47931,1,0,0:0:0:0:
456,140,48103,1,0,0:0:0:0:
208,260,48275,5,0,0:0:0:0:
52,208,48448,1,0,0:0:0:0:
260,320,48620,1,0,0:0:0:0:
416,268,48793,1,0,0:0:0:0:
364,112,48965,1,0,0:0:0:0:
208,164,49137,2,0,L|148:184,1,56.9999982604981,0|0,0:0|0:0,0:0:0:0:
336,240,49310,2,0,L|396:260,1,56.9999982604981,0|0,0:0|0:0,0:0:0:0:
206,312,49482,1,0,0:0:0:0:
396,332,49655,6,0,P|448:304|464:256,1,106.875004076958,0|0,0:0|0:0,0:0:0:0:
463,261,50000,1,0,0:0:0:0:
206,312,50172,1,0,0:0:0:0:
390,258,50344,1,0,0:0:0:0:
80,284,50517,1,0,0:0:0:0:
337,208,50689,1,0,0:0:0:0:
206,312,50862,1,0,0:0:0:0:
390,258,51034,5,0,0:0:0:0:
206,204,51206,1,0,0:0:0:0:
344,71,51379,1,0,0:0:0:0:
477,209,51551,1,0,0:0:0:0:
206,312,51724,2,0,P|156:316|116:288,1,95,0|0,0:0|0:0,0:0:0:0:
324,184,52068,1,0,0:0:0:0:
176,244,52241,1,0,0:0:0:0:
344,108,52413,6,0,B|402:64|402:64|452:64,1,106.875004076958,0|0,0:0|0:0,0:0:0:0:
428,136,52758,1,0,0:0:0:0:
268,32,52931,1,0,0:0:0:0:
376,216,53103,2,0,L|424:300,1,95,0|0,0:0|0:0,0:0:0:0:
184,228,53448,2,0,L|92:203,1,95,0|0,0:0|0:0,0:0:0:0:
304,264,53793,5,0,0:0:0:0:
46,190,53965,1,0,0:0:0:0:
224,128,54137,2,0,L|316:103,1,95,0|0,0:0|0:0,0:0:0:0:
315,103,54396,1,0,0:0:0:0:
315,103,54482,2,0,P|356:148|420:152,1,126.666666666667,0|0,0:0|0:0,0:0:0:0:
224,128,54942,1,0,0:0:0:0:
391,76,55172,6,0,P|448:76|499:148,1,142.5,0|0,0:0|0:0,0:0:0:0:
418,152,55517,1,0,0:0:0:0:
216,44,55689,1,0,0:0:0:0:
470,214,55862,2,0,P|464:280|428:328,1,113.999996520996,0|0,0:0|0:0,0:0:0:0:
247,148,56206,2,0,P|218:99|215:43,1,113.999996520996,0|0,0:0|0:0,0:0:0:0:
320,256,56551,5,0,0:0:0:0:
140,48,56724,1,0,0:0:0:0:
190,266,56896,1,0,0:0:0:0:
247,148,57068,1,0,0:0:0:0:
392,232,57241,6,0,L|324:192,1,56.9999982604981
247,148,57413,2,0,L|315:108,1,56.9999982604981
316,280,57586,2,0,L|254:316,1,56.9999982604981
105,239,57758,1,0,0:0:0:0:
97,70,57931,6,0,P|160:88|180:160,1,142.5,0|0,0:0|0:0,0:0:0:0:
112,140,58275,1,0,0:0:0:0:
232,24,58448,1,0,0:0:0:0:
116,156,58620,1,0,0:0:0:0:
320,44,58793,1,0,0:0:0:0:
120,172,58965,1,0,0:0:0:0:
408,64,59137,1,0,0:0:0:0:
124,188,59310,5,0,0:0:0:0:
336,268,59482,1,0,0:0:0:0:
248,188,59655,1,0,0:0:0:0:
52,288,59827,1,0,0:0:0:0:
336,268,60000,1,0,0:0:0:0:
177,33,60172,1,0,0:0:0:0:
177,33,60258,1,0,0:0:0:0:
177,33,60344,2,0,L|108:8,1,71.2500027179719,0|0,0:0|0:0,0:0:0:0:
172,140,60517,1,0,0:0:0:0:
392,232,60689,6,0,P|324:232|280:288,1,142.5,0|0,0:0|0:0,0:0:0:0:
358,305,61034,1,0,0:0:0:0:
368,112,61206,1,0,0:0:0:0:
364,316,61379,1,0,0:0:0:0:
232,148,61551,1,0,0:0:0:0:
370,327,61724,1,0,0:0:0:0:
448,88,61896,1,0,0:0:0:0:
472,344,62068,6,0,L|444:224,1,113.999996520996,0|0,0:0|0:0,0:0:0:0:
240,132,62413,2,0,L|214:243,1,113.999996520996,0|0,0:0|0:0,0:0:0:0:
396,104,62758,1,0,0:0:0:0:
280,300,62931,1,0,0:0:0:0:
280,300,63017,1,0,0:0:0:0:
280,300,63103,2,0,L|228:328,1,56.9999982604981,0|0,0:0|0:0,0:0:0:0:
132,228,63275,1,0,0:0:0:0:
212,56,63448,6,0,B|260:44|260:44|312:48,1,95,0|0,0:0|0:0,0:0:0:0:
376,56,63706,1,0,0:0:0:0:
376,56,63793,2,0,L|384:180,1,113.999996520996,0|0,0:0|0:0,0:0:0:0:
448,204,64051,1,0,0:0:0:0:
448,204,64138,2,0,L|456:328,1,113.999996520996,0|0,0:0|0:0,0:0:0:0:
384,304,64396,1,0,0:0:0:0:
384,304,64482,2,0,P|352:240|304:228,1,113.999996520996,0|0,0:0|0:0,0:0:0:0:
311,300,64741,1,0,0:0:0:0:
311,300,64827,5,0,0:0:0:0:
212,228,65000,1,0,0:0:0:0:
323,178,65172,1,0,0:0:0:0:
172,308,65344,1,0,0:0:0:0:
134,112,65517,1,0,0:0:0:0:
48,324,65689,1,0,0:0:0:0:
56,297,65775,1,0,0:0:0:0:
73,274,65862,1,0,0:0:0:0:
93,253,65948,1,0,0:0:0:0:
118,239,66034,1,0,0:0:0:0:
145,231,66120,1,0,0:0:0:0:
173,231,66206,6,0,P|204:293|272:312,1,142.5,0|0,0:0|0:0,0:0:0:0:
259,227,66551,2,0,L|365:133,1,113.999996520996,0|0,0:0|0:0,0:0:0:0:
416,168,66810,1,0,0:0:0:0:
416,168,66896,2,0,L|402:266,1,56.9999982604981,0|0,0:0|0:0,0:0:0:0:
288,100,67068,2,0,L|32:136,1,227.999993041992,0|0,0:0|0:0,0:0:0:0:
300,176,67586,6,0,P|352:148|364:96,1,113.999996520996,0|0,0:0|0:0,0:0:0:0:
228,172,67931,2,0,P|246:228|295:248,1,113.999996520996,0|0,0:0|2:0,0:0:0:0:
368,244,68189,1,0,0:0:0:0:
368,244,68275,2,0,L|468:180,1,113.999996520996,0|0,0:0|0:0,0:0:0:0:
300,176,68620,2,0,L|238:79,1,113.999996520996,0|0,0:0|0:0,0:0:0:0:
400,332,68965,6,0,B|332:356|332:356|256:348,1,142.5,0|0,0:0|0:0,0:0:0:0:
132,324,69310,1,0,0:0:0:0:
48,240,69482,1,0,0:0:0:0:
320,284,69655,2,0,L|204:272,1,113.999996520996,0|0,0:0|0:0,0:0:0:0:
48,240,70000,1,0,0:0:0:0:
155,120,70172,1,0,0:0:0:0:
155,120,70258,1,0,0:0:0:0:
155,120,70344,6,0,P|248:64|320:140,1,227.999993041992,0|0,0:0|0:0,0:0:0:0:
236,148,70862,1,0,0:0:0:0:
396,88,71034,2,0,L|432:204,1,113.999996520996,0|0,0:0|0:0,0:0:0:0:
155,120,71379,1,0,0:0:0:0:
456,280,71551,1,0,0:0:0:0:
312,188,71724,6,0,P|276:140|300:64,1,142.5,0|0,0:0|0:0,0:0:0:0:
350,121,72068,2,0,L|236:113,1,113.999996520996,0|0,0:0|0:0,0:0:0:0:
180,160,72327,1,0,0:0:0:0:
180,160,72413,2,0,L|152:88,1,56.9999982604981,0|0,0:0|0:0,0:0:0:0:
268,248,72586,2,0,P|172:288|72:224,1,227.999993041992,0|0,0:0|0:0,0:0:0:0:
92,56,73103,6,0,P|144:24|212:40,1,113.999996520996,0|0,0:0|0:0,0:0:0:0:
236,186,73448,2,0,P|190:154|158:106,1,113.999996520996,0|0,0:0|0:0,0:0:0:0:
158,106,73706,1,0,0:0:0:0:
158,106,73793,1,0,0:0:0:0:
312,32,73965,1,0,0:0:0:0:
236,186,74137,2,0,P|288:154|356:170,1,113.999996520996,0|0,0:0|0:0,0:0:0:0:
204,280,74482,6,0,L|44:296,1,142.5,0|0,0:0|0:0,0:0:0:0:
184,200,74827,2,0,P|240:208|280:252,1,113.999996520996,0|0,0:0|0:0,0:0:0:0:
104,208,75172,1,0,0:0:0:0:
336,184,75344,1,0,0:0:0:0:
204,280,75517,2,0,P|180:220|176:168,1,113.999996520996,0|0,0:0|0:0,0:0:0:0:
256,176,75862,6,0,P|265:112|287:65,1,113.999996520996,0|0,0:0|0:0,0:0:0:0:
424,168,76206,1,0,0:0:0:0:
340,296,76379,2,0,L|228:320,1,113.999996520996,0|0,0:0|0:0,0:0:0:0:
96,268,76724,1,0,0:0:0:0:
113,245,76810,1,0,0:0:0:0:
134,226,76896,1,0,0:0:0:0:
159,213,76982,1,0,0:0:0:0:
186,204,77068,1,0,0:0:0:0:
214,200,77155,1,0,0:0:0:0:
242,198,77241,6,0,P|160:192|128:144,1,142.5,0|0,0:0|0:0,0:0:0:0:
208,125,77586,2,0,L|432:60,1,227.999993041992,0|0,0:0|0:0,0:0:0:0:
242,198,78103,1,0,0:0:0:0:
426,61,78275,1,0,0:0:0:0:
324,180,78448,1,0,0:0:0:0:
200,60,78620,6,0,L|88:24,1,113.999996520996,0|0,0:0|0:0,0:0:0:0:
324,180,78965,2,0,L|432:145,1,113.999996520996,0|0,0:0|0:0,0:0:0:0:
179,64,79310,2,0,L|45:46,1,113.999996520996,0|0,0:0|0:0,0:0:0:0:
344,175,79655,2,0,L|460:114,1,113.999996520996,0|0,0:0|0:0,0:0:0:0:
162,75,80000,6,0,L|13:81,1,142.5,0|0,0:0|0:0,0:0:0:0:
52,120,80344,2,0,P|104:144|128:200,1,113.999996520996,0|0,0:0|0:0,0:0:0:0:
216,20,80689,1,0,0:0:0:0:
47,202,80862,1,0,0:0:0:0:
196,284,81034,2,0,P|234:243|238:187,1,113.999996520996,0|0,0:0|0:0,0:0:0:0:
304,96,81379,6,0,L|342:209,1,113.999996520996,0|0,0:0|0:0,0:0:0:0:
159,209,81724,2,0,P|122:166|120:110,1,113.999996520996,0|0,0:0|0:0,0:0:0:0:
360,36,82068,2,0,L|436:262,1,227.999993041992,0|0,0:0|0:0,0:0:0:0:
199,136,82586,1,0,0:0:0:0:
199,136,82672,1,0,0:0:0:0:
199,136,82758,6,0,L|280:80,1,95,0|0,0:0|0:0,0:0:0:0:
324,96,83017,1,0,0:0:0:0:
324,96,83103,2,0,L|334:225,1,113.999996520996,0|0,0:0|0:0,0:0:0:0:
184,52,83448,1,0,0:0:0:0:
256,192,83620,1,0,0:0:0:0:
348,18,83793,2,0,P|388:46|404:114,1,113.999996520996,0|0,0:0|0:0,0:0:0:0:
477,143,84137,6,0,P|380:184|324:95,1,227.999993041992,0|0,0:0|0:0,0:0:0:0:
405,106,84655,1,0,0:0:0:0:
352,252,84827,1,0,0:0:0:0:
405,106,85000,2,0,L|445:0,1,113.999996520996,0|0,0:0|0:0,0:0:0:0:
352,252,85344,1,0,0:0:0:0:
352,252,85517,6,0,P|276:328|164:312,1,227.999993041992,0|0,0:0|0:0,0:0:0:0:
237,216,86034,1,0,0:0:0:0:
352,252,86206,2,0,P|404:280|432:328,1,113.999996520996,0|0,0:0|0:0,0:0:0:0:
244,292,86551,2,0,L|132:268,1,113.999996520996,0|0,0:0|0:0,0:0:0:0:
168,112,86896,6,0,B|226:111|248:64|248:64|296:92|336:80|336:80|280:160,1,285,0|0,0:0|0:0,0:0:0:0:
258,167,88017,1,0,0:0:0:0:
236,176,88103,1,0,0:0:0:0:
216,189,88189,1,0,0:0:0:0:
198,204,88275,5,0,0:0:0:0:
172,32,88620,1,0,0:0:0:0:
248,80,88793,1,0,0:0:0:0:
248,80,88965,2,0,L|384:176,1,142.500005435944,0|0,0:0|0:0,0:0:0:0:
376,80,89482,2,0,L|488:159,1,106.875004076958,0|0,0:0|0:0,0:0:0:0:
463,141,89827,1,0,0:0:0:0:
236,168,90000,5,0,0:0:0:0:
340,192,90172,1,0,0:0:0:0:
248,80,90344,2,0,L|312:40,1,71.2500027179719,0|0,0:0|0:0,0:0:0:0:
236,168,90689,1,0,0:0:0:0:
417,54,90862,1,0,0:0:0:0:
165,113,91034,6,0,L|101:73,1,71.2500027179719,0|0,0:0|0:0,0:0:0:0:
347,113,91379,2,0,L|411:73,1,71.2500027179719,0|0,0:0|0:0,0:0:0:0:
396,176,91724,1,0,0:0:0:0:
360,260,91896,1,0,0:0:0:0:
284,312,92068,1,0,0:0:0:0:
192,296,92241,6,0,L|76:200,1,142.500005435944,0|0,0:0|0:0,0:0:0:0:
82,205,92672,1,0,0:0:0:0:
82,205,92758,1,0,0:0:0:0:
248,244,92931,2,0,L|178:186,1,71.2500027179719,0|0,0:0|0:0,0:0:0:0:
64,132,93275,2,0,L|144:132,1,71.2500027179719,0|0,0:0|0:0,0:0:0:0:
193,198,93620,1,0,0:0:0:0:
267,143,93793,6,0,P|287:210|251:269,1,142.500005435944,0|0,0:0|0:0,0:0:0:0:
380,164,94310,1,0,0:0:0:0:
193,198,94482,2,0,L|120:188,1,71.2500027179719,0|0,0:0|0:0,0:0:0:0:
267,143,94827,2,0,L|337:133,1,71.2500027179719,0|0,0:0|0:0,0:0:0:0:
122,188,95172,6,0,P|126:118|180:75,1,142.500005435944,0|0,0:0|0:0,0:0:0:0:
210,161,95689,1,0,0:0:0:0:
189,250,95862,1,0,0:0:0:0:
179,75,96034,1,0,0:0:0:0:
304,164,96206,2,0,L|364:208,1,71.2500027179719,0|0,0:0|0:0,0:0:0:0:
240,212,96551,6,0,P|224:164|280:88,1,142.5,0|0,0:0|0:0,0:0:0:0:
270,91,97155,1,0,0:0:0:0:
270,91,97241,2,0,L|344:76,1,71.2500027179719,0|0,0:0|0:0,0:0:0:0:
168,44,97586,2,0,L|98:29,1,71.2500027179719,0|0,0:0|0:0,0:0:0:0:
172,176,97931,2,0,P|204:160|224:128,1,71.2500027179719,0|0,0:0|0:0,0:0:0:0:
108,136,98275,2,0,P|96:169|105:206,1,71.2500027179719,0|0,0:0|0:0,0:0:0:0:
272,80,98620,2,0,L|336:32,1,71.2500027179719,0|0,0:0|0:0,0:0:0:0:
242,186,98965,2,0,L|171:175,1,71.2500027179719,0|0,0:0|0:0,0:0:0:0:
352,112,99310,6,0,L|428:55,1,95,0|0,0:0|0:0,0:0:0:0:
352,200,99655,2,0,P|272:148|280:60,1,190,0|0,0:0|0:0,0:0:0:0:
429,156,100172,1,0,0:0:0:0:
278,62,100344,2,0,P|235:40|187:40,1,95,0|0,0:0|0:0,0:0:0:0:
212,136,100689,6,0,L|144:212,1,95,0|0,0:0|0:0,0:0:0:0:
244,235,101034,1,0,0:0:0:0:
116,107,101206,1,0,0:0:0:0:
290,60,101379,2,0,P|318:146|268:228,1,190,0|0,0:0|0:0,0:0:0:0:
212,136,101896,1,0,0:0:0:0:
388,92,102068,6,0,P|393:140|384:192,1,95,0|0,0:0|0:0,0:0:0:0:
212,136,102413,2,0,P|185:89|183:44,1,95,0|0,0:0|0:0,0:0:0:0:
290,60,102758,1,0,0:0:0:0:
269,226,102931,1,0,0:0:0:0:
290,60,103103,6,0,P|337:33|382:31,1,95,0|0,0:0|0:0,0:0:0:0:
442,215,103448,2,0,P|401:240|355:245,1,95,0|0,0:0|0:0,0:0:0:0:
366,138,103793,1,0,0:0:0:0:
216,192,103965,1,0,0:0:0:0:
216,192,104137,2,0,L|180:92,1,95,0|0,0:0|0:0,0:0:0:0:
152,80,104396,1,0,0:0:0:0:
152,80,104482,2,0,P|146:135|117:164,1,95,0|0,0:0|0:0,0:0:0:0:
228,20,104827,5,0,0:0:0:0:
72,96,105000,1,0,0:0:0:0:
216,192,105172,2,0,L|316:176,1,95,0|0,0:0|0:0,0:0:0:0:
220,112,105517,2,0,P|170:124|142:164,1,95,0|0,0:0|0:0,0:0:0:0:
272,264,105862,2,0,L|372:248,1,95,0|0,0:0|0:0,0:0:0:0:
403,161,106206,5,0,0:0:0:0:
216,192,106379,1,0,0:0:0:0:
361,328,106551,2,0,P|411:316|439:276,1,95,0|0,0:0|0:0,0:0:0:0:
332,192,106896,1,0,0:0:0:0:
241,296,107068,1,0,0:0:0:0:
436,283,107241,2,0,L|456:188,1,95,0|0,0:0|0:0,0:0:0:0:
475,97,107586,5,0,0:0:0:0:
372,232,107758,1,0,0:0:0:0:
306,75,107931,2,0,P|270:40|226:35,1,95,0|0,0:0|0:0,0:0:0:0:
145,146,108275,2,0,L|236:116,1,95,0|0,0:0|0:0,0:0:0:0:
416,55,108620,1,0,0:0:0:0:
378,242,108793,1,0,0:0:0:0:
244,196,108965,6,0,L|153:165,1,95,0|0,0:0|0:0,0:0:0:0:
260,68,109310,1,0,0:0:0:0:
357,175,109482,1,0,0:0:0:0:
232,244,109655,2,0,L|157:184,1,95,0|0,0:0|0:0,0:0:0:0:
356,84,110000,2,0,L|450:94,1,95,0|0,0:0|0:0,0:0:0:0:
280,332,110344,1,0,0:0:0:0:
280,232,121379,5,0,0:0:0:0:
288,248,121724,1,0,0:0:0:0:
296,264,122068,1,0,0:0:0:0:
304,280,122413,1,0,0:0:0:0:
194,194,122758,5,0,0:0:0:0:
186,210,123103,1,0,0:0:0:0:
178,226,123447,1,0,0:0:0:0:
170,242,123792,1,0,0:0:0:0:
280,156,124137,5,0,0:0:0:0:
288,172,124482,1,0,0:0:0:0:
296,188,124826,1,0,0:0:0:0:
304,204,125171,1,0,0:0:0:0:
194,118,125516,5,0,0:0:0:0:
186,134,125861,1,0,0:0:0:0:
178,150,126205,1,0,0:0:0:0:
170,166,126550,1,0,0:0:0:0:
356,64,126896,6,0,P|348:100|304:136,1,71.2500027179719,0|0,0:0|0:0,0:0:0:0:
276,64,127241,1,0,0:0:0:0:
424,104,127413,2,0,P|392:168|328:204,1,142.500005435944,0|0,0:0|0:0,0:0:0:0:
276,64,127931,1,0,0:0:0:0:
252,156,128103,1,0,0:0:0:0:
360,60,128275,6,0,P|384:36|423:26,1,71.2500027179719,0|0,0:0|0:0,0:0:0:0:
424,104,128620,1,0,0:0:0:0:
304,124,128793,2,0,P|276:76|308:-8,1,142.500005435944,0|0,0:0|0:0,0:0:0:0:
360,60,129310,1,0,0:0:0:0:
248,188,129482,1,0,0:0:0:0:
348,204,129655,6,0,P|278:284|179:262,1,213.750008153916,0|0,0:0|0:0,0:0:0:0:
182,264,130258,1,0,0:0:0:0:
182,264,130344,2,0,P|208:224|256:204,1,95,0|0,0:0|0:0,0:0:0:0:
111,307,130689,2,0,P|100:259|120:211,1,95,0|0,0:0|0:0,0:0:0:0:
168,152,131034,2,0,P|207:123|259:123,1,95,0|0,0:0|0:0,0:0:0:0:
324,176,131379,2,0,P|284:204|232:204,1,95,0|0,0:0|0:0,0:0:0:0:
317,88,131724,2,0,P|364:95|401:132,1,95,0|0,0:0|0:0,0:0:0:0:
235,99,132068,2,0,P|242:51|279:14,1,95,0|0,0:0|0:0,0:0:0:0:
405,216,132413,5,0,0:0:0:0:
317,88,132586,1,0,0:0:0:0:
398,126,132758,1,0,0:0:0:0:
324,254,132931,1,0,0:0:0:0:
324,254,133103,2,0,L|236:296,1,95,0|0,0:0|0:0,0:0:0:0:
112,212,133448,2,0,P|152:164|192:156,1,95,0|0,0:0|0:0,0:0:0:0:
275,198,133793,6,0,L|187:240,1,95,0|0,0:0|0:0,0:0:0:0:
260,116,134137,2,0,P|312:124|348:160,1,95,0|0,0:0|0:0,0:0:0:0:
204,320,134482,2,0,P|152:312|116:276,1,95,0|0,0:0|0:0,0:0:0:0:
232,218,134827,2,0,L|352:234,1,106.875004076958,0|0,0:0|0:0,0:0:0:0:
337,232,135172,5,0,0:0:0:0:
392,304,135344,1,0,0:0:0:0:
352,152,135517,1,0,0:0:0:0:
312,304,135689,1,0,0:0:0:0:
451,242,135862,6,0,P|475:290|471:338,1,95,0|0,0:0|0:0,0:0:0:0:
392,304,136206,2,0,P|368:256|372:208,1,95,0|0,0:0|0:0,0:0:0:0:
272,336,136551,2,0,L|290:242,1,95,0|0,0:0|0:0,0:0:0:0:
208,256,136896,2,0,L|226:162,1,95,0|0,0:0|0:0,0:0:0:0:
172,330,137241,2,0,P|136:298|128:242,1,95,0|0,0:0|0:0,0:0:0:0:
262,88,137586,2,0,P|304:136|292:211,1,142.5,0|0,0:0|0:0,0:0:0:0:
293,209,137931,5,0,0:0:0:0:
226,162,138103,1,0,0:0:0:0:
384,120,138275,1,0,0:0:0:0:
341,277,138448,1,0,0:0:0:0:
226,162,138620,6,0,P|186:120|180:80,1,95,0|0,0:0|0:0,0:0:0:0:
310,159,138965,2,0,P|298:204|264:236,1,95,0|0,0:0|0:0,0:0:0:0:
307,74,139310,2,0,P|352:85|383:120,1,95,0|0,0:0|0:0,0:0:0:0:
266,321,139655,2,0,P|220:309|189:274,1,95,0|0,0:0|0:0,0:0:0:0:
263,236,140000,2,0,P|308:247|339:282,1,95,0|0,0:0|0:0,0:0:0:0:
148,348,140344,2,0,P|116:300|112:252,1,106.875004076958,0|0,0:0|0:0,0:0:0:0:
111,252,140689,5,0,0:0:0:0:
212,164,140862,1,0,0:0:0:0:
210,269,141034,1,0,0:0:0:0:
116,140,141206,1,0,0:0:0:0:
245,46,141379,6,0,P|292:36|336:56,1,95,0|0,0:0|0:0,0:0:0:0:
216,128,141724,2,0,P|175:101|158:56,1,95,0|0,0:0|0:0,0:0:0:0:
384,112,142068,2,0,L|451:192,1,104.500003189087,0|0,0:0|0:0,0:0:0:0:
312,156,142413,2,0,P|300:101|323:50,1,113.999996520996,0|0,0:0|0:0,0:0:0:0:
392,240,142758,2,0,P|334:270|272:265,1,123.499994346619,0|0,0:0|0:0,0:0:0:0:
176,120,143103,2,0,L|258:15,1,132.999995941162,0|0,0:0|0:0,0:0:0:0:
304,140,143448,5,0,0:0:0:0:
310,163,143534,1,0,0:0:0:0:
304,186,143620,1,0,0:0:0:0:
287,202,143706,1,0,0:0:0:0:
264,208,143793,1,0,0:0:0:0:
241,213,143879,1,0,0:0:0:0:
221,226,143965,1,0,0:0:0:0:
208,246,144051,1,0,0:0:0:0:
203,269,144137,6,0,L|196:316,3,47.5,0|0|0|0,0:0|0:0|0:0|0:0,0:0:0:0:
152,160,144482,2,0,L|159:113,3,47.5,0|0|0|0,0:0|0:0|0:0|0:0,0:0:0:0:
244,108,144827,5,0,0:0:0:0:
273,92,144913,1,0,0:0:0:0:
305,84,145000,1,0,0:0:0:0:
337,80,145086,1,0,0:0:0:0:
370,82,145172,2,0,L|420:88,3,47.5,0|0|0|0,0:0|0:0|0:0|0:0,0:0:0:0:
380,176,145517,5,0,0:0:0:0:
351,192,145603,1,0,0:0:0:0:
319,200,145690,1,0,0:0:0:0:
287,204,145776,1,0,0:0:0:0:
254,202,145862,2,0,L|204:196,3,47.5,0|0|0|0,0:0|0:0|0:0|0:0,0:0:0:0:
272,120,146206,5,0,0:0:0:0:
296,116,146293,1,0,0:0:0:0:
320,112,146379,1,0,0:0:0:0:
344,108,146465,1,0,0:0:0:0:
368,104,146551,2,0,L|424:96,3,47.5,0|0|0|0,0:0|0:0|0:0|0:0,0:0:0:0:
376,224,146896,2,0,L|338:195,1,47.5,0|0,0:0|0:0,0:0:0:0:
472,196,147068,2,0,L|510:224,1,47.5,0|0,0:0|0:0,0:0:0:0:
384,316,147241,2,0,L|355:354,3,47.5,0|0|0|0,0:0|0:0|0:0|0:0,0:0:0:0:
300,272,147586,5,0,0:0:0:0:
277,247,147672,1,0,0:0:0:0:
248,229,147758,1,0,0:0:0:0:
216,219,147844,1,0,0:0:0:0:
182,214,147931,2,0,L|125:210,3,47.5,0|0|0|0,0:0|0:0|0:0|0:0,0:0:0:0:
52,172,148275,5,0,0:0:0:0:
59,137,148361,1,0,0:0:0:0:
75,107,148447,1,0,0:0:0:0:
98,83,148533,1,0,0:0:0:0:
124,62,148620,2,0,L|171:30,3,47.5,0|0|0|0,0:0|0:0|0:0|0:0,0:0:0:0:
182,214,148965,6,0,L|188:268,3,47.5,0|0|0|0,0:0|0:0|0:0|0:0,0:0:0:0:
236,52,149310,2,0,L|241:4,3,47.5,0|0|0|0,0:0|0:0|0:0|0:0,0:0:0:0:
349,179,149655,2,0,L|378:216,3,47.5,0|0|0|0,0:0|0:0|0:0|0:0,0:0:0:0:
116,180,150000,2,0,L|69:174,3,47.5,0|0|0|0,0:0|0:0|0:0|0:0,0:0:0:0:
143,187,150344,5,0,0:0:0:0:
164,207,150430,1,0,0:0:0:0:
171,235,150517,1,0,0:0:0:0:
164,263,150603,1,0,0:0:0:0:
143,283,150690,1,0,0:0:0:0:
120,299,150775,1,0,0:0:0:0:
111,326,150861,1,0,0:0:0:0:
120,353,150947,1,0,0:0:0:0:
143,370,151033,1,0,0:0:0:0:
171,370,151119,1,0,0:0:0:0:
195,354,151206,1,0,0:0:0:0:
218,330,151293,1,0,0:0:0:0:
232,300,151379,1,0,0:0:0:0:
245,269,151465,1,0,0:0:0:0:
264,242,151551,1,0,0:0:0:0:
291,222,151637,1,0,0:0:0:0:
323,213,151724,5,0,0:0:0:0:
320,312,151896,1,0,0:0:0:0:
388,140,152068,1,0,0:0:0:0:
502,284,152241,1,0,0:0:0:0:
380,120,152413,1,0,0:0:0:0:
312,292,152586,1,0,0:0:0:0:
316,68,152758,1,0,0:0:0:0:
234,274,152931,1,0,0:0:0:0:
152,68,153103,6,0,L|136:28,16,23.75,0|0|0|0|0|0|0|0|0|0|0|0|0|0|0|0|0,0:0|0:0|0:0|0:0|0:0|0:0|0:0|0:0|0:0|0:0|0:0|0:0|0:0|0:0|0:0|0:0|0:0,0:0:0:0:
244,176,153965,1,0,0:0:0:0:
263,149,154051,1,0,0:0:0:0:
287,126,154137,1,0,0:0:0:0:
315,107,154224,1,0,0:0:0:0:
346,97,154310,1,0,0:0:0:0:
268,252,154482,6,0,P|196:240|165:183,1,142.5,0|0,0:0|0:0,0:0:0:0:
244,176,154827,1,0,0:0:0:0:
344,296,155000,1,0,0:0:0:0:
92,224,155172,2,0,P|83:173|100:130,1,95,0|0,0:0|0:0,0:0:0:0:
244,176,155517,2,0,P|253:227|236:270,1,95,0|0,0:0|0:0,0:0:0:0:
168,200,155862,5,0,0:0:0:0:
304,88,156034,1,0,0:0:0:0:
176,212,156206,1,0,0:0:0:0:
328,160,156379,1,0,0:0:0:0:
176,108,156551,2,0,L|248:36,1,95,0|0,0:0|0:0,0:0:0:0:
220,184,156896,2,0,P|172:196|120:176,1,95,0|0,0:0|0:0,0:0:0:0:
360,76,157241,6,0,L|442:158,1,106.875004076958,0|0,0:0|0:0,0:0:0:0:
435,151,157586,2,0,P|389:137|344:149,1,95,0|0,0:0|0:0,0:0:0:0:
236,296,157931,1,0,0:0:0:0:
388,220,158103,1,0,0:0:0:0:
312,68,158275,2,0,P|272:100|256:144,1,95,0|0,0:0|0:0,0:0:0:0:
344,149,158620,5,0,0:0:0:0:
185,72,158793,2,0,L|100:32,1,95,0|0,0:0|0:0,0:0:0:0:
344,149,159137,1,0,0:0:0:0:
344,149,159310,1,0,0:0:0:0:
160,260,159482,2,0,L|200:188,1,56.9999982604981
244,128,159655,2,0,L|310:79,1,56.9999982604981
286,218,159827,1,0,0:0:0:0:
296,12,160000,6,0,P|348:28|376:88,1,106.875004076958
301,86,160344,1,0,0:0:0:0:
224,32,160517,1,0,0:0:0:0:
444,100,160689,1,0,0:0:0:0:
224,168,160862,1,0,0:0:0:0:
301,86,161034,1,0,0:0:0:0:
333,193,161206,1,0,0:0:0:0:
228,56,161379,6,0,P|257:21|312:8,1,95
374,116,161724,2,0,P|345:151|290:164,1,95
301,86,162068,1,0,0:0:0:0:
301,86,162241,1,0,0:0:0:0:
382,240,162413,2,0,L|426:324,1,95
248,192,162758,6,0,P|197:153|154:156,1,106.875004076958
180,228,163103,1,0,0:0:0:0:
180,228,163275,1,0,0:0:0:0:
328,132,163448,2,0,P|368:108|420:112,1,95
464,231,163793,2,0,P|418:219|384:180,1,95
384,16,164137,5,0,0:0:0:0:
458,151,164310,1,0,0:0:0:0:
323,225,164482,1,0,0:0:0:0:
249,90,164655,1,0,0:0:0:0:
332,304,164827,2,0,P|285:295|253:262,1,95
249,90,165172,1,0,0:0:0:0:
323,225,165344,1,0,0:0:0:0:
176,60,165517,6,0,P|227:13|302:31,1,142.5
249,90,165862,1,0,0:0:0:0:
249,90,166034,1,0,0:0:0:0:
164,211,166206,2,0,L|100:308,1,113.999996520996
64,188,166551,1,0,0:0:0:0:
201,329,166724,1,0,0:0:0:0:
255,140,166896,5,0,0:0:0:0:
255,140,167068,1,0,0:0:0:0:
348,211,167241,2,0,L|412:308,1,113.999996520996
311,329,167586,2,0,L|279:281,1,56.9999982604981
348,211,167758,2,0,L|395:179,1,56.9999982604981
253,187,167931,2,0,L|197:175,1,56.9999982604981
410,306,168103,1,0,0:0:0:0:
180,104,168275,6,0,P|128:148|140:220,1,142.5
197,175,168620,2,0,L|304:136,1,113.999996520996
252,56,168965,1,0,0:0:0:0:
201,247,169137,1,0,0:0:0:0:
392,196,169310,1,0,0:0:0:0:
304,135,169482,1,0,0:0:0:0:
296,242,169655,5,0,0:0:0:0:
296,242,169827,1,0,0:0:0:0:
356,72,170000,2,0,P|300:52|251:75,1,113.999996520996
304,135,170344,1,0,0:0:0:0:
464,256,170517,1,0,0:0:0:0:
464,256,170603,1,0,0:0:0:0:
464,256,170689,2,0,L|488:188,1,71.2500027179719
460,56,170862,1,0,0:0:0:0:
392,284,171034,6,0,P|344:344|272:344,1,142.5
308,266,171379,1,0,0:0:0:0:
308,266,171551,1,0,0:0:0:0:
388,176,171724,1,0,0:0:0:0:
224,283,171896,1,0,0:0:0:0:
213,87,172068,1,0,0:0:0:0:
308,266,172241,1,0,0:0:0:0:
403,87,172413,5,0,0:0:0:0:
403,87,172586,1,0,0:0:0:0:
228,288,172758,2,0,P|232:236|275:191,1,113.999996520996
250,368,173103,2,0,P|198:364|153:321,1,113.999996520996
250,112,173448,2,0,P|302:116|347:159,1,113.999996520996
272,192,173793,6,0,L|176:192,1,95
168,120,174051,1,0,0:0:0:0:
168,120,174137,2,0,P|180:69|231:32,1,113.999996520996
250,112,174396,1,0,0:0:0:0:
250,112,174482,2,0,B|304:128|304:128|364:124,1,113.999996520996
336,52,174741,1,0,0:0:0:0:
336,52,174827,2,0,P|396:56|432:96,1,113.999996520996
460,164,175086,1,0,0:0:0:0:
460,164,175172,5,0,0:0:0:0:
361,124,175344,1,0,0:0:0:0:
500,264,175517,1,0,0:0:0:0:
309,314,175689,1,0,0:0:0:0:
259,123,175862,1,0,0:0:0:0:
209,314,176034,1,0,0:0:0:0:
205,285,176120,1,0,0:0:0:0:
195,258,176206,1,0,0:0:0:0:
186,230,176293,1,0,0:0:0:0:
174,204,176379,1,0,0:0:0:0:
159,179,176465,1,0,0:0:0:0:
143,160,176551,6,0,P|185:204|263:204,1,142.5
223,126,176896,2,0,P|279:119|330:151,1,113.999996520996
314,227,177155,1,0,0:0:0:0:
314,227,177241,2,0,L|262:204,1,56.9999982604981
389,197,177413,2,0,P|356:296|248:274,1,227.999993041992
326,147,177931,6,0,P|372:116|428:126,1,113.999996520996
389,197,178275,1,0,0:0:0:0:
200,168,178448,2,0,L|282:85,1,113.999996520996
389,197,178793,1,0,0:0:0:0:
224,244,178965,2,0,P|168:240|128:200,1,113.999996520996
268,172,179224,1,0,0:0:0:0:
268,172,179310,6,0,P|304:228|288:300,1,142.5
224,244,179655,1,0,0:0:0:0:
191,87,179827,1,0,0:0:0:0:
344,136,180000,2,0,P|376:188|384:252,1,113.999996520996
208,178,180344,1,0,0:0:0:0:
396,72,180517,2,0,P|452:168|460:288,1,227.999993041992
360,160,181034,6,0,P|320:112|268:92,1,113.999996520996
228,244,181379,2,0,P|268:292|320:312,1,113.999996520996
288,192,181637,1,0,0:0:0:0:
288,192,181724,2,0,P|232:164|183:179,1,113.999996520996
352,240,182068,6,0,P|364:168|320:118,1,142.5
288,192,182413,2,0,L|240:296,1,113.999996520996
308,348,182672,1,0,0:0:0:0:
308,348,182758,2,0,L|368:312,1,56.9999982604981
228,140,182931,2,0,L|132:348,1,227.999993041992
273,264,183448,6,0,L|372:208,1,113.999996520996
228,56,183793,2,0,P|176:76|146:124,1,113.999996520996
228,140,184137,1,0,0:0:0:0:
228,140,184310,1,0,0:0:0:0:
56,128,184482,2,0,P|76:180|124:210,1,113.999996520996
272,188,184827,6,0,L|146:123,1,142.5
256,268,185172,2,0,P|312:260|349:217,1,113.999996520996
272,188,185517,1,0,0:0:0:0:
200,344,185689,1,0,0:0:0:0:
336,138,185862,1,0,0:0:0:0:
272,188,186034,2,0,P|276:88|392:80,1,227.999993041992
336,138,186465,1,0,0:0:0:0:
336,138,186551,6,0,P|354:195|330:245,1,113.999996520996
199,276,186896,2,0,L|271:188,1,113.999996520996
268,216,187155,1,0,0:0:0:0:
267,244,187241,1,0,0:0:0:0:
272,271,187327,1,0,0:0:0:0:
282,297,187413,1,0,0:0:0:0:
298,320,187500,1,0,0:0:0:0:
323,341,187586,6,0,P|380:292|443:306,1,142.5
396,368,187931,1,0,0:0:0:0:
440,204,188103,1,0,0:0:0:0:
288,264,188275,2,0,P|252:320|244:368,1,113.999996520996
440,204,188620,1,0,0:0:0:0:
312,102,188793,1,0,0:0:0:0:
420,280,188965,6,0,P|480:272|516:224,1,113.999996520996
392,140,189310,2,0,L|284:195,1,113.999996520996
292,344,189655,2,0,L|354:248,1,113.999996520996
228,132,190000,2,0,L|116:156,1,113.999996520996
272,200,190344,6,0,P|308:132|285:75,1,142.5
324,100,190689,2,0,L|412:172,1,113.999996520996
404,64,191034,1,0,0:0:0:0:
356,256,191206,1,0,0:0:0:0:
228,132,191379,2,0,P|184:100|124:104,1,113.999996520996
342,340,191724,6,0,P|395:331|435:286,1,113.999996520996
160,180,192068,2,0,P|128:224|132:284,1,113.999996520996
356,256,192413,2,0,L|212:72,1,227.999993041992
208,248,192931,1,0,0:0:0:0:
208,248,193017,1,0,0:0:0:0:
208,248,193103,6,0,P|244:320|300:340,1,142.5
302,245,193448,1,0,0:0:0:0:
302,245,193620,1,0,0:0:0:0:
152,184,193793,2,0,P|124:240|136:292,1,113.999996520996
302,245,194137,2,0,L|416:216,1,113.999996520996
244,176,194482,6,0,P|222:288|309:335,1,227.999993041992
302,245,195000,1,0,0:0:0:0:
244,176,195172,2,0,L|132:216,1,113.999996520996
302,245,195517,2,0,P|331:197|324:136,1,113.999996520996
232,324,195862,6,0,P|344:304|401:206,1,227.999993041992
244,176,196379,1,0,0:0:0:0:
232,324,196551,2,0,P|288:344|348:348,1,113.999996520996
244,176,196896,2,0,P|188:156|128:152,1,113.999996520996
120,312,197241,6,0,B|68:260|140:188|212:192|232:312|312:264,1,285
328,252,198362,1,0,0:0:0:0:
343,234,198448,1,0,0:0:0:0:
354,213,198534,1,0,0:0:0:0:
363,191,198620,1,0,0:0:0:0:
