osu file format v14

[General]
AudioFilename: audio.ogg
AudioLeadIn: 0
PreviewTime: 65804
Countdown: 0
SampleSet: Soft
StackLeniency: 0.7
Mode: 0
LetterboxInBreaks: 1
WidescreenStoryboard: 0

[Editor]
Bookmarks: 24980,90819
DistanceSpacing: 0.5
BeatDivisor: 4
GridSize: 8
TimelineZoom: 1

[Metadata]
Title:Throwdown
TitleUnicode:Throwdown
Artist:Fox Stevenson
ArtistUnicode:Fox Stevenson
Creator:Kyshiro
Version:Extra
Source:
Tags:asphyxia taku reditum cdfa dnb drum and bass trap stan sb electronic english shohei ohtani
BeatmapID:3059110
BeatmapSetID:242574

[Difficulty]
HPDrainRate:5.8
CircleSize:4
OverallDifficulty:8.5
ApproachRate:9
SliderMultiplier:1.6
SliderTickRate:1

[Events]
//Background and Video events
0,0,"bg.jpg",0,0
//Break Periods
2,85204,87147
2,109890,119890
//Storyboard Layer 0 (Background)
//Storyboard Layer 1 (Fail)
//Storyboard Layer 2 (Pass)
//Storyboard Layer 3 (Foreground)
//Storyboard Layer 4 (Overlay)
//Storyboard Sound Samples

[TimingPoints]
-24,342.857142857143,4,2,0,65,1,0
21918,-200,4,2,0,65,0,0
27404,-166.666666666667,4,2,0,65,0,0
30147,-133.333333333333,4,2,0,65,0,0
32890,-117.647058823529,4,2,0,65,0,0
41118,-100,4,2,0,75,0,0
43518,-133.333333333333,4,2,0,55,0,0
43861,-83.3333333333333,4,1,1,85,0,1
48918,-83.3333333333333,4,2,0,5,0,1
49004,-83.3333333333333,4,1,1,85,0,1
49090,-83.3333333333333,4,2,0,5,0,1
49176,-83.3333333333333,4,1,1,85,0,1
65804,-100,4,1,1,85,0,0
69147,-100,4,1,1,85,0,0
69233,-100,4,1,1,85,0,0
85176,-100,4,2,0,65,0,0
86376,-100,4,1,1,65,0,0
87747,-100,4,1,1,85,0,0
98633,-100,4,1,1,5,0,0
98718,-100,4,1,1,85,0,0
108661,-100,4,2,0,50,0,0
109176,-100,4,2,0,65,0,0
120490,-133.333333333333,4,2,0,65,0,0
131633,-133.333333333333,4,2,0,70,0,0
142604,-100,4,2,0,80,0,0
153576,-83.3333333333333,4,1,1,95,0,1
163176,-83.3333333333333,4,1,1,95,0,0
164204,-133.333333333333,4,1,1,95,0,0
164461,-133.333333333333,4,2,0,5,0,0
164547,-83.3333333333333,4,1,1,95,0,1
172776,-100,4,1,1,95,0,1
174147,-117.647058823529,4,1,1,95,0,0
175261,-117.647058823529,4,2,0,5,0,0
175518,-83.3333333333333,4,1,1,95,0,1
185118,-111.111111111111,4,1,1,95,0,0
186233,-111.111111111111,4,2,0,5,0,0
186490,-83.3333333333333,4,1,1,95,0,1
197461,-83.3333333333333,4,1,1,95,0,0

[Colours]
Combo1 : 166,137,250
Combo2 : 152,189,216
Combo3 : 213,140,215
Combo4 : 234,72,121

[HitObjects]
34,240,21918,6,0,P|95:226|156:246,1,120,2|0,0:0|0:0,0:0:0:0:
233,305,22604,2,0,P|294:319|355:299,1,120,2|0,0:0|0:0,0:0:0:0:
426,234,23290,2,0,L|446:102,1,120,2|0,0:0|0:0,0:0:0:0:
334,42,23976,2,0,L|351:160,1,120,2|0,0:0|0:0,0:0:0:0:
262,238,24661,6,0,B|204:259|204:216|146:238,1,120,2|0,0:0|0:0,0:0:0:0:
58,201,25347,2,0,P|42:158|66:83,1,120,2|0,0:0|0:0,0:0:0:0:
136,147,26033,2,0,B|156:147|176:141|176:141|209:163|254:158,1,120,2|0,0:0|0:0,0:0:0:0:
237,57,26718,2,0,P|289:49|355:75,1,120,2|0,0:0|0:0,0:0:0:0:
441,169,27404,6,0,L|435:218,1,47.9999985351563,2|0,0:0|0:0,0:0:0:0:
323,329,27918,2,0,L|315:280,2,47.9999985351563,0|2|0,0:0|0:0|0:0,0:0:0:0:
189,48,28604,2,0,L|181:97,2,47.9999985351563,0|2|0,0:0|0:0|0:0,0:0:0:0:
134,305,29290,1,0,0:0:0:0:
63,239,29461,2,0,P|55:211|58:183,1,47.9999985351563,2|0,0:0|0:0,0:0:0:0:
161,127,29804,2,0,P|161:150|153:173,1,47.9999985351563
221,248,30147,6,0,L|282:243,1,60.0000022888184,2|0,0:0|0:0,0:0:0:0:
486,128,30661,1,0,0:0:0:0:
383,65,30833,2,0,L|322:60,1,60.0000022888184,2|0,0:0|0:0,0:0:0:0:
38,209,31347,2,0,P|31:241|31:273,2,60.0000022888184,0|2|0,0:0|0:0|0:0,0:0:0:0:
362,289,32033,1,0,0:0:0:0:
443,200,32204,2,0,P|446:158|441:134,1,60.0000022888184,2|0,0:0|0:0,0:0:0:0:
362,289,32547,1,8,0:0:0:0:
278,203,32718,1,8,0:0:0:0:
194,292,32890,6,0,P|156:305|123:307,1,68.0000012969971,14|2,0:0|0:0,0:0:0:0:
6,169,33233,2,0,P|39:172|71:185,1,68.0000012969971,8|2,0:0|0:0,0:0:0:0:
184,117,33576,2,0,L|194:41,1,68.0000012969971,10|2,0:0|0:0,0:0:0:0:
347,119,33918,2,0,L|355:186,1,68.0000012969971,8|2,0:0|0:0,0:0:0:0:
451,339,34261,6,0,P|468:278|442:203,2,136.000002593994,10|8|10,0:0|0:0|0:0,0:0:0:0:
354,277,35118,1,2,0:0:0:0:
256,340,35290,2,0,L|177:332,1,68.0000012969971,8|2,0:0|0:0,0:0:0:0:
17,268,35633,2,0,L|96:260,1,68.0000012969971,10|2,0:0|0:0,0:0:0:0:
243,146,35976,6,0,P|187:121|107:140,1,136.000002593994,8|10,0:0|0:0,0:0:0:0:
171,235,36490,1,2,0:0:0:0:
312,242,36661,2,0,P|347:222|364:197,1,68.0000012969971,8|2,0:0|0:0,0:0:0:0:
240,327,37004,2,0,P|260:362|285:379,1,68.0000012969971,10|2,0:0|0:0,0:0:0:0:
171,235,37347,2,0,P|136:255|119:280,1,68.0000012969971,8|2,0:0|0:0,0:0:0:0:
243,146,37690,2,0,P|246:98|191:19,2,136.000002593994,10|8|10,0:0|0:0|0:0,0:0:0:0:
128,151,38547,5,2,0:0:0:0:
299,40,38718,2,0,L|368:45,1,68.0000012969971,8|2,0:0|0:0,0:0:0:0:
494,140,39061,2,0,L|425:145,1,68.0000012969971,10|2,0:0|0:0,0:0:0:0:
282,274,39404,1,8,0:0:0:0:
386,323,39576,1,2,0:0:0:0:
488,269,39747,5,10,0:0:0:0:
384,217,39918,1,0,0:0:0:0:
282,274,40090,2,0,P|270:316|274:352,1,68.0000012969971,8|2,0:0|0:0,0:0:0:0:
384,218,40433,2,0,P|384:184|373:152,1,68.0000012969971,10|2,0:0|0:0,0:0:0:0:
177,105,40776,1,8,0:0:0:0:
287,71,40947,5,2,0:0:0:0:
287,71,41033,1,2,0:0:0:0:
287,71,41118,2,0,P|293:53|293:30,1,40,12|0,0:0|0:0,0:0:0:0:
253,149,41290,1,0,0:0:0:0:
253,149,41376,1,2,0:0:0:0:
253,149,41461,2,0,P|253:168|259:187,1,40,2|0,0:0|0:0,0:0:0:0:
325,235,41633,2,0,L|370:228,1,40,2|0,0:0|0:0,0:0:0:0:
217,300,41804,6,0,L|172:293,1,40,8|0,0:0|0:0,0:0:0:0:
71,252,41976,1,0,0:0:0:0:
71,252,42061,1,2,0:0:0:0:
71,252,42147,2,0,P|55:222|52:205,1,40,2|0,0:0|0:0,0:0:0:0:
145,141,42318,1,2,0:0:0:0:
145,141,42403,1,0,0:0:0:0:
145,141,42490,2,0,P|161:111|164:94,1,40,8|0,0:0|0:0,0:0:0:0:
233,25,42661,1,0,0:0:0:0:
265,55,42747,1,2,0:0:0:0:
304,75,42833,1,2,0:0:0:0:
346,82,42918,1,0,0:0:0:0:
390,80,43004,1,2,0:0:0:0:
432,69,43090,1,0,0:0:0:0:
467,42,43176,1,8,0:0:0:0:
234,338,43518,6,0,P|188:327|169:329,1,60.0000022888184,12|2,0:3|0:0,0:0:0:0:
151,334,43776,5,2,0:0:0:0:
151,334,43861,2,0,P|124:297|127:244,1,95.9999970703126,12|2,0:0|0:0,0:0:0:0:
141,222,44118,1,2,0:0:0:0:
141,222,44204,1,0,0:0:0:0:
186,90,44376,1,2,0:0:0:0:
170,58,44462,1,2,0:0:0:0:
155,27,44547,1,8,0:2:0:0:
357,27,44718,1,2,0:0:0:0:
342,58,44803,1,2,0:0:0:0:
326,90,44889,1,8,0:0:0:0:
375,235,45061,1,2,0:0:0:0:
375,235,45147,1,2,0:0:0:0:
375,235,45233,6,0,P|419:254|473:247,1,95.9999970703126,0|10,0:0|0:0,0:0:0:0:
300,160,45576,2,0,P|252:155|209:174,1,95.9999970703126,8|2,0:0|0:0,0:0:0:0:
152,350,45918,1,8,0:2:0:0:
27,216,46090,2,0,L|20:167,1,47.9999985351563,10|0,0:0|0:0,0:0:0:0:
103,104,46261,2,0,L|96:151,1,47.9999985351563,8|0,0:0|0:0,0:0:0:0:
151,217,46433,1,8,0:2:0:0:
151,217,46518,1,8,0:2:0:0:
151,217,46604,6,0,L|247:207,1,95.9999970703126,12|2,0:0|0:0,0:0:0:0:
270,216,46861,1,2,0:0:0:0:
270,216,46947,1,0,0:0:0:0:
454,150,47118,1,2,0:0:0:0:
454,150,47204,1,2,0:0:0:0:
454,150,47290,2,0,P|434:101|445:56,1,95.9999970703126,8|2,0:2|0:0,0:0:0:0:
468,36,47547,1,2,0:0:0:0:
468,36,47633,1,8,0:0:0:0:
281,123,47804,5,2,0:0:0:0:
238,116,47890,1,2,0:0:0:0:
195,109,47976,1,0,0:0:0:0:
12,226,48147,1,10,0:0:0:0:
55,219,48233,1,2,0:0:0:0:
98,212,48319,1,8,0:0:0:0:
60,90,48490,1,10,0:0:0:0:
60,90,48576,1,2,0:0:0:0:
60,90,48661,1,8,0:2:0:0:
255,223,48833,2,0,P|263:246|265:277,1,47.9999985351563,10|0,0:0|0:0,0:0:0:0:
339,338,49004,2,0,P|342:314|350:292,1,47.9999985351563,10|2,0:0|0:0,0:0:0:0:
436,205,49176,1,0,0:0:0:0:
449,224,49261,1,0,0:0:0:0:
458,246,49347,6,0,P|468:300|465:341,1,95.9999970703126,12|2,0:0|0:0,0:0:0:0:
447,368,49604,1,2,0:0:0:0:
447,368,49690,1,0,0:0:0:0:
342,178,49861,1,2,0:0:0:0:
342,178,49947,1,2,0:0:0:0:
342,178,50033,2,0,P|335:125|346:80,1,95.9999970703126,8|2,0:2|0:0,0:0:0:0:
368,58,50290,1,2,0:0:0:0:
368,58,50376,1,8,0:0:0:0:
474,154,50547,5,2,0:0:0:0:
474,154,50633,1,2,0:0:0:0:
474,154,50718,1,0,0:0:0:0:
339,304,50890,1,10,0:0:0:0:
167,200,51061,2,0,P|157:149|173:104,1,95.9999970703126,8|2,0:0|0:0,0:0:0:0:
18,14,51404,2,0,P|31:59|21:105,1,95.9999970703126,8|10,0:2|0:0,0:0:0:0:
93,270,51747,2,0,P|151:300|262:235,1,191.999994140625,8|12,0:0|0:0,0:0:0:0:
370,134,52261,5,2,0:0:0:0:
384,93,52347,1,2,0:0:0:0:
399,52,52433,1,0,0:0:0:0:
256,247,52604,1,2,0:0:0:0:
255,290,52690,1,2,0:0:0:0:
256,333,52776,1,8,0:2:0:0:
142,134,52947,1,2,0:0:0:0:
128,93,53033,1,2,0:0:0:0:
113,52,53118,1,8,0:0:0:0:
257,43,53290,5,2,0:0:0:0:
257,43,53376,1,2,0:0:0:0:
257,43,53461,1,8,0:0:0:0:
364,231,53633,1,2,0:0:0:0:
148,231,53804,1,8,0:0:0:0:
364,153,53976,1,2,0:0:0:0:
257,341,54148,1,8,0:2:0:0:
148,153,54318,2,0,L|142:118,2,31.9999990234375,10|0|0,0:0|3:2|3:2,0:0:0:0:
81,193,54490,2,0,L|63:292,1,95.9999970703126,2|8,3:3|0:2,0:0:0:0:
38,308,54747,5,8,0:2:0:0:
38,308,54833,1,12,0:0:0:0:
243,245,55004,1,0,0:0:0:0:
243,245,55090,2,0,P|259:193|251:142,1,95.9999970703126,2|0,0:0|0:0,0:0:0:0:
329,84,55347,2,0,P|325:131|340:176,1,95.9999970703126,2|8,0:0|0:2,0:0:0:0:
467,223,55690,1,2,0:0:0:0:
158,187,55861,2,0,L|60:182,1,95.9999970703126,10|2,0:0|0:0,0:0:0:0:
36,199,56118,5,2,0:0:0:0:
36,199,56204,1,0,0:0:0:0:
203,328,56376,1,10,0:0:0:0:
203,328,56461,1,0,0:0:0:0:
203,328,56547,2,0,L|301:323,1,95.9999970703126,8|2,0:0|0:0,0:0:0:0:
429,230,56890,1,8,0:2:0:0:
300,53,57061,1,10,0:0:0:0:
300,187,57233,1,8,0:0:0:0:
498,107,57404,1,8,0:2:0:0:
467,66,57490,1,8,0:2:0:0:
437,25,57576,1,12,0:0:0:0:
222,103,57747,5,0,0:0:0:0:
222,103,57833,2,0,P|206:160|215:205,1,95.9999970703126,2|0,0:0|0:0,0:0:0:0:
139,246,58090,2,0,P|92:231|32:249,1,95.9999970703126,2|8,0:0|0:2,0:0:0:0:
218,278,58433,1,2,0:0:0:0:
103,123,58604,2,0,L|41:39,1,95.9999970703126,8|2,0:0|0:0,0:0:0:0:
218,278,58947,6,0,L|279:361,1,95.9999970703126,0|10,0:0|0:0,0:0:0:0:
304,362,59204,1,2,0:0:0:0:
304,362,59290,1,8,0:0:0:0:
380,182,59461,1,10,0:0:0:0:
380,182,59547,1,2,0:0:0:0:
380,182,59633,1,8,0:2:0:0:
195,88,59804,1,10,0:0:0:0:
317,88,59976,1,10,0:0:0:0:
132,182,60147,1,8,0:2:0:0:
380,182,60318,6,0,P|415:144|429:93,1,95.9999970703126,12|0,0:0|0:0,0:0:0:0:
271,189,60576,2,0,P|286:238|323:275,1,95.9999970703126,2|0,0:0|0:0,0:0:0:0:
317,88,60833,2,0,P|266:76|215:90,1,95.9999970703126,2|8,0:0|0:2,0:0:0:0:
154,340,61176,1,2,0:0:0:0:
56,236,61347,2,0,P|33:186|34:139,1,95.9999970703126,8|2,0:0|0:0,0:0:0:0:
38,114,61604,5,2,0:0:0:0:
38,114,61690,1,0,0:0:0:0:
154,340,61861,1,10,0:0:0:0:
215,209,62033,2,0,P|271:177|318:170,1,95.9999970703126,8|2,0:0|0:0,0:0:0:0:
500,91,62376,2,0,P|453:78|413:52,1,95.9999970703126,8|10,0:2|0:0,0:0:0:0:
428,209,62718,2,0,P|435:271|424:313,1,95.9999970703126,8|8,0:0|0:2,0:0:0:0:
414,330,62976,5,8,0:2:0:0:
414,330,63061,2,0,P|356:359|240:317,1,191.999994140625,12|8,0:0|0:0,0:0:0:0:
201,103,63576,1,2,0:0:0:0:
146,225,63747,2,0,P|133:271|145:329,1,95.9999970703126,8|0,0:2|0:0,0:0:0:0:
315,142,64090,2,0,P|318:94|305:48,1,95.9999970703126,8|2,0:0|0:0,0:0:0:0:
278,270,64433,6,0,L|380:279,1,95.9999970703126,12|0,0:0|0:0,0:0:0:0:
406,262,64690,1,2,0:0:0:0:
406,262,64776,2,0,P|460:258|502:279,1,95.9999970703126,8|2,0:0|0:0,0:0:0:0:
232,188,65118,1,8,0:2:0:0:
106,264,65290,2,0,L|101:296,3,31.9999990234375,0|0|0|2,3:3|3:3|3:3|3:3,0:0:0:0:
21,160,65633,1,8,0:2:0:0:
15,117,65718,1,8,0:2:0:0:
9,73,65804,6,0,P|65:44|158:72,1,160,4|0,0:0|0:0,0:0:0:0:
232,188,66318,1,0,0:0:0:0:
355,130,66490,2,0,P|376:88|378:47,1,80,8|0,0:2|0:0,0:0:0:0:
356,249,66833,2,0,P|401:238|434:213,1,80,8|0,0:0|0:0,0:0:0:0:
256,57,67176,6,0,L|158:57,1,80,0|8,0:0|0:0,0:0:0:0:
74,147,67518,1,8,0:0:0:0:
290,348,67861,2,0,P|308:290|283:194,1,160,8|8,0:2|0:0,0:0:0:0:
397,58,68376,1,8,0:2:0:0:
397,58,68461,1,8,0:2:0:0:
397,58,68547,2,0,P|375:108|380:147,1,80,8|0,0:0|0:0,0:0:0:0:
182,273,68890,6,0,P|120:252|54:257,1,120
38,263,69233,1,8,0:2:0:0:
146,212,69404,1,0,0:0:0:0:
204,106,69576,2,0,P|201:51|183:15,1,80,8|0,0:0|0:0,0:0:0:0:
327,150,69918,6,0,P|314:187|314:227,1,80,0|8,0:0|0:0,0:0:0:0:
332,247,70176,1,0,0:0:0:0:
332,247,70261,1,8,0:0:0:0:
447,315,70433,1,8,0:0:0:0:
236,319,70604,2,0,L|152:329,1,80,8|8,0:2|0:0,0:0:0:0:
29,171,70947,1,8,0:0:0:0:
142,208,71118,1,8,0:2:0:0:
246,147,71290,6,0,P|313:123|400:157,1,160,8|0,0:0|0:0,0:0:0:0:
496,88,71804,1,0,0:0:0:0:
318,241,71976,2,0,P|313:299|331:332,1,80,8|0,0:2|0:0,0:0:0:0:
459,188,72318,2,0,P|466:149|456:111,1,80,8|0,0:0|0:0,0:0:0:0:
310,50,72661,6,0,L|148:63,1,160,0|8,0:0|0:0,0:0:0:0:
20,181,73176,1,0,0:0:0:0:
139,192,73347,2,0,L|220:198,1,80,8|8,0:2|0:0,0:0:0:0:
85,98,73690,1,8,0:0:0:0:
72,281,73861,1,8,0:2:0:0:
72,281,73947,1,8,0:2:0:0:
72,281,74033,6,0,P|131:322|220:313,1,160,8|0,0:0|0:0,0:0:0:0:
321,85,74547,1,0,0:0:0:0:
395,178,74718,2,0,P|414:234|409:272,1,80,8|0,0:2|0:0,0:0:0:0:
195,91,75061,2,0,P|196:51|213:14,1,80,8|0,0:0|0:0,0:0:0:0:
276,245,75404,5,8,0:2:0:0:
166,294,75576,1,8,0:0:0:0:
126,296,75661,1,2,0:0:0:0:
87,283,75747,1,2,0:0:0:0:
60,252,75833,1,2,0:0:0:0:
52,213,75918,1,10,0:0:0:0:
60,173,76004,1,2,0:0:0:0:
84,141,76090,2,0,P|94:117|100:93,1,40,8|0,0:2|0:0,0:0:0:0:
166,26,76261,2,0,P|171:45|179:63,1,40,10|0,0:0|0:0,0:0:0:0:
251,130,76433,1,10,0:0:0:0:
401,102,76604,1,10,0:0:0:0:
432,76,76690,1,2,0:0:0:0:
463,50,76776,1,12,0:0:0:0:
447,260,76947,5,2,0:0:0:0:
421,229,77033,1,2,0:0:0:0:
395,198,77119,1,0,0:0:0:0:
296,192,77290,1,2,0:0:0:0:
265,218,77376,1,2,0:0:0:0:
234,244,77462,1,8,0:2:0:0:
250,34,77633,1,2,0:0:0:0:
276,65,77719,1,2,0:0:0:0:
302,96,77805,1,8,0:0:0:0:
187,135,77976,1,2,0:0:0:0:
147,132,78061,1,2,0:0:0:0:
107,129,78147,1,0,0:0:0:0:
22,298,78318,5,10,0:0:0:0:
128,336,78490,2,0,P|134:280|123:250,1,80,8|2,0:0|0:0,0:0:0:0:
301,96,78833,2,0,P|294:134|302:173,1,80,8|10,0:2|0:0,0:0:0:0:
408,134,79176,1,8,0:0:0:0:
201,48,79347,1,8,0:2:0:0:
161,56,79433,1,8,0:2:0:0:
122,64,79518,1,12,0:0:0:0:
123,249,79690,5,2,0:0:0:0:
153,222,79776,1,2,0:0:0:0:
169,186,79861,1,0,0:0:0:0:
296,267,80033,1,2,0:0:0:0:
302,228,80119,1,2,0:0:0:0:
291,190,80204,1,8,0:2:0:0:
443,188,80376,1,2,0:0:0:0:
423,155,80462,1,2,0:0:0:0:
390,132,80547,1,8,0:0:0:0:
189,293,80718,5,2,0:0:0:0:
172,329,80804,1,2,0:0:0:0:
157,366,80890,1,0,0:0:0:0:
355,366,81061,1,10,0:0:0:0:
340,329,81147,1,0,0:0:0:0:
323,293,81233,1,8,0:0:0:0:
256,84,81404,1,10,0:0:0:0:
256,124,81490,1,8,0:0:0:0:
256,164,81576,1,8,0:2:0:0:
369,52,81747,1,10,0:0:0:0:
179,190,81918,1,8,0:0:0:0:
143,52,82090,1,10,0:0:0:0:
333,190,82261,6,0,P|389:204|422:201,1,80,12|2,0:0|0:0,0:0:0:0:
436,193,82518,1,2,0:0:0:0:
436,193,82604,1,0,0:0:0:0:
256,84,82776,2,0,L|205:101,1,40,2|2,0:0|0:0,0:0:0:0:
137,127,82947,1,8,0:2:0:0:
183,306,83118,2,0,L|193:253,1,40,2|2,0:0|0:0,0:0:0:0:
206,182,83289,1,8,0:0:0:0:
27,131,83461,2,0,L|67:166,1,40,2|2,0:0|0:0,0:0:0:0:
124,213,83633,6,0,P|179:218|211:200,1,80,0|10,0:0|0:0,0:0:0:0:
366,89,83976,1,8,0:0:0:0:
146,89,84147,1,2,0:0:0:0:
311,208,84318,1,8,0:2:0:0:
256,0,84490,1,10,0:0:0:0:
200,208,84661,1,8,0:0:0:0:
261,112,84833,1,8,0:2:0:0:
261,112,84918,1,8,0:2:0:0:
261,112,85004,1,12,0:0:0:0:
45,85,87747,6,0,P|123:67|194:117,1,160,12|0,0:0|0:0,0:0:0:0:
106,167,88261,1,0,0:0:0:0:
269,170,88433,2,0,L|351:159,1,80,8|0,0:2|0:0,0:0:0:0:
477,299,88776,1,8,0:0:0:0:
395,356,88947,2,0,P|378:314|429:211,1,160,0|8,0:0|0:0,0:0:0:0:
268,319,89461,6,0,P|218:334|173:338,1,80,8|0,0:0|0:0,0:0:0:0:
21,219,89804,1,8,0:2:0:0:
123,173,89976,1,8,0:0:0:0:
215,235,90147,1,8,0:0:0:0:
114,283,90318,1,0,0:0:0:0:
85,83,90490,6,0,P|141:78|215:145,1,160,12|0,0:0|0:0,0:0:0:0:
342,303,91004,1,0,0:0:0:0:
319,192,91176,2,0,P|325:141|345:108,1,80,8|0,0:2|0:0,0:0:0:0:
429,181,91518,1,8,0:0:0:0:
254,262,91690,2,0,L|79:247,1,160,0|8,0:0|0:0,0:0:0:0:
342,303,92204,6,0,L|429:295,1,80,8|0,0:0|0:0,0:0:0:0:
482,82,92547,1,8,0:2:0:0:
401,2,92718,1,8,0:0:0:0:
302,53,92890,1,8,0:0:0:0:
318,164,93061,1,0,0:0:0:0:
430,181,93233,1,12,0:0:0:0:
422,174,93576,6,0,P|384:164|326:168,1,80
204,241,93918,2,0,L|179:325,1,80,8|0,0:2|0:0,0:0:0:0:
318,276,94261,1,8,0:0:0:0:
238,129,94433,2,0,P|139:103|65:122,1,160,0|8,0:0|0:0,0:0:0:0:
318,276,94947,6,0,L|401:266,1,80,8|0,0:0|0:0,0:0:0:0:
460,166,95290,1,8,0:2:0:0:
349,147,95461,1,8,0:0:0:0:
238,129,95633,1,8,0:0:0:0:
308,42,95804,1,0,0:0:0:0:
389,252,95976,2,0,P|395:305|385:338,1,80,12|0,0:0|0:0,0:0:0:0:
192,328,96318,2,0,P|186:275|196:242,1,80
290,289,96661,1,8,0:2:0:0:
296,279,97004,6,0,P|309:212|269:124,1,160,8|0,0:0|0:0,0:0:0:0:
174,222,97518,1,8,0:0:0:0:
158,263,97604,1,8,0:0:0:0:
142,304,97690,1,8,0:0:0:0:
370,304,97861,1,8,0:0:0:0:
354,263,97947,1,8,0:0:0:0:
338,222,98033,1,8,0:2:0:0:
485,312,98204,1,8,0:0:0:0:
256,304,98376,2,0,L|256:176,1,120,8|0,0:0|0:0,0:0:0:0:
266,164,98718,6,0,P|323:133|418:175,1,160,14|2,0:0|0:0,0:0:0:0:
176,270,99233,1,0,0:0:0:0:
130,143,99404,2,0,P|122:93|143:53,1,80,10|0,0:2|0:0,0:0:0:0:
338,222,99747,2,0,P|349:259|340:298,1,80,10|0,0:0|0:0,0:0:0:0:
120,218,100090,5,2,0:0:0:0:
256,84,100261,1,8,0:0:0:0:
392,218,100433,1,10,0:0:0:0:
256,192,100604,1,0,0:0:0:0:
356,120,100776,2,0,P|404:116|457:136,1,80,10|8,0:2|0:0,0:0:0:0:
191,306,101118,2,0,P|143:310|90:290,1,80,10|0,0:0|0:0,0:0:0:0:
27,83,101461,6,0,P|124:70|158:122,1,160,14|2,0:0|0:0,0:0:0:0:
191,306,101976,1,0,0:0:0:0:
75,210,102147,2,0,P|72:163|86:129,1,80,10|0,0:2|0:0,0:0:0:0:
280,279,102490,2,0,P|283:326|269:360,1,80,10|0,0:0|0:0,0:0:0:0:
203,175,102833,5,2,0:0:0:0:
313,157,103004,1,8,0:0:0:0:
423,139,103176,1,10,0:0:0:0:
353,51,103347,1,0,0:0:0:0:
243,69,103518,2,0,P|200:65|162:45,1,80,10|8,0:2|0:0,0:0:0:0:
423,139,103861,2,0,P|459:122|498:119,1,80
293,316,104204,6,0,L|315:145,1,160,14|2,0:0|0:0,0:0:0:0:
206,190,104718,1,0,0:0:0:0:
396,296,104890,2,0,P|445:308|484:306,1,80,10|0,0:2|0:0,0:0:0:0:
206,190,105233,2,0,P|166:190|127:201,1,80,10|0,0:0|0:0,0:0:0:0:
20,60,105576,5,2,0:0:0:0:
105,132,105747,1,8,0:0:0:0:
211,99,105918,1,10,0:0:0:0:
127,23,106090,1,0,0:0:0:0:
3,159,106261,2,0,P|0:194|17:236,1,80,10|8,0:2|0:0,0:0:0:0:
106,301,106604,1,10,0:0:0:0:
319,212,106776,1,0,0:0:0:0:
193,212,106947,5,10,0:0:0:0:
406,301,107119,1,0,0:0:0:0:
489,226,107290,2,0,P|500:178|490:138,1,80,2|0,0:0|0:0,0:0:0:0:
333,23,107633,2,0,P|327:62|338:100,1,80,10|0,0:2|0:0,0:0:0:0:
231,204,107976,1,10,0:0:0:0:
119,195,108147,1,0,0:0:0:0:
7,186,108318,1,10,0:0:0:0:
407,76,109690,5,4,0:0:0:0:
44,115,120490,6,0,P|110:60|97:242,1,420.000016021729,2|0,0:0|0:0,0:0:0:0:
131,154,121861,2,0,B|167:117|241:117|241:190|314:190|351:154,1,240.000009155274,2|0,0:0|0:0,0:0:0:0:
398,75,122718,6,0,P|400:39|388:7,1,60.0000022888184,2|2,0:0|0:0,0:0:0:0:
304,79,123061,1,0,0:0:0:0:
450,160,123233,2,0,L|467:303,1,120.000004577637,2|0,0:0|0:0,0:0:0:0:
396,345,123747,2,0,B|355:339|329:304|329:304|280:334|223:333|172:301,1,240.000009155274,2|0,0:0|0:0,0:0:0:0:
72,243,124604,2,0,P|122:201|236:201,1,180.000006866455,2|0,0:0|0:0,0:0:0:0:
360,76,125290,5,0,0:0:0:0:
287,118,125461,2,0,P|235:119|192:101,2,90.0000034332277,2|0|0,0:0|0:0|0:0,0:0:0:0:
360,76,126147,2,0,P|317:135|500:204,1,360.000013732911,2|0,0:0|0:0,0:0:0:0:
412,160,127347,2,0,B|376:158|347:173|347:173|305:157|305:157|268:168|231:156,1,180.000006866455,2|2,0:0|0:0,0:0:0:0:
179,95,128033,5,0,0:0:0:0:
157,176,128204,2,0,P|145:206|121:227,2,60.0000022888184,2|2|0,0:0|0:0|0:0,0:0:0:0:
179,95,128718,2,0,P|245:52|348:76,2,180.000006866455,2|2|0,0:0|0:0|0:0,0:0:0:0:
157,176,129918,6,0,L|140:247,1,60.0000022888184,2|0,0:0|0:0,0:0:0:0:
256,316,130261,2,0,L|256:256,1,60.0000022888184,2|0,0:0|0:0,0:0:0:0:
351,180,130604,2,0,L|368:251,1,60.0000022888184,2|0,0:0|0:0,0:0:0:0:
192,98,130947,2,0,P|175:53|176:30,1,60.0000022888184,2|0,0:0|0:0,0:0:0:0:
337,41,131290,2,0,P|333:71|320:98,1,60.0000022888184,2|0,0:0|0:0,0:0:0:0:
40,152,131633,6,0,L|48:220,1,60.0000022888184,4|0,0:0|0:0,0:0:0:0:
112,290,131976,1,8,0:0:0:0:
192,227,132147,1,2,0:0:0:0:
222,213,132233,1,0,0:0:0:0:
254,211,132318,1,2,0:0:0:0:
285,220,132404,1,0,0:0:0:0:
310,240,132490,1,2,0:0:0:0:
397,187,132661,2,0,P|408:149|406:115,1,60.0000022888184,8|2,0:0|0:0,0:0:0:0:
399,288,133004,6,0,P|425:316|456:331,1,60.0000022888184,2|2,0:0|0:0,0:0:0:0:
493,236,133347,1,8,0:0:0:0:
310,240,133518,1,2,0:0:0:0:
277,247,133604,1,0,0:0:0:0:
244,254,133690,1,2,0:0:0:0:
211,261,133776,1,0,0:0:0:0:
179,269,133861,1,2,0:0:0:0:
84,228,134033,2,0,P|76:192|83:161,1,60.0000022888184,8|2,0:0|0:0,0:0:0:0:
93,144,134290,1,0,0:0:0:0:
93,144,134375,1,2,0:0:0:0:
168,69,134547,5,2,0:0:0:0:
266,25,134718,2,0,P|277:74|270:95,1,60.0000022888184,8|2,0:0|0:0,0:0:0:0:
265,110,134976,1,0,0:0:0:0:
265,110,135061,1,2,0:0:0:0:
196,192,135233,1,2,0:0:0:0:
305,205,135404,2,0,L|379:196,1,60.0000022888184,8|2,0:0|0:0,0:0:0:0:
491,317,135747,5,2,0:0:0:0:
389,309,135918,1,2,0:0:0:0:
286,302,136090,1,8,0:0:0:0:
101,197,136261,1,2,0:0:0:0:
132,185,136347,1,0,0:0:0:0:
165,183,136433,1,2,0:0:0:0:
196,192,136518,1,0,0:0:0:0:
222,211,136604,1,2,0:0:0:0:
154,280,136776,1,8,0:0:0:0:
111,108,136947,1,2,0:0:0:0:
111,108,137033,1,0,0:0:0:0:
111,108,137118,6,0,L|91:40,1,60.0000022888184,2|2,0:0|0:0,0:0:0:0:
270,72,137461,2,0,L|236:133,1,60.0000022888184,8|2,0:0|0:0,0:0:0:0:
251,155,137718,1,0,0:0:0:0:
275,177,137804,1,2,0:0:0:0:
305,189,137890,1,0,0:0:0:0:
338,189,137976,1,2,0:0:0:0:
426,138,138147,1,8,0:0:0:0:
491,216,138318,1,2,0:0:0:0:
491,216,138404,1,0,0:0:0:0:
491,216,138490,6,0,P|499:255|489:293,1,60.0000022888184,2|2,0:0|0:0,0:0:0:0:
419,342,138833,1,8,0:0:0:0:
326,298,139004,1,2,0:0:0:0:
302,320,139090,1,0,0:0:0:0:
271,333,139176,1,2,0:0:0:0:
238,336,139261,1,0,0:0:0:0:
205,329,139347,1,2,0:0:0:0:
130,145,139518,1,8,0:0:0:0:
227,175,139690,1,2,0:0:0:0:
227,175,139776,1,0,0:0:0:0:
227,175,139861,6,0,P|244:221|246:251,1,60.0000022888184,2|2,0:0|0:0,0:0:0:0:
53,212,140204,1,8,0:0:0:0:
130,145,140376,1,2,0:0:0:0:
162,139,140461,1,0,0:0:0:0:
194,134,140547,1,2,0:0:0:0:
226,129,140633,1,0,0:0:0:0:
258,124,140718,1,2,0:0:0:0:
419,161,140890,1,8,0:0:0:0:
355,72,141061,1,2,0:0:0:0:
355,72,141147,1,0,0:0:0:0:
355,72,141233,1,2,0:0:0:0:
323,212,141404,5,2,0:0:0:0:
442,78,141576,1,8,0:0:0:0:
270,41,141747,1,2,0:0:0:0:
236,39,141833,1,0,0:0:0:0:
203,37,141918,1,2,0:0:0:0:
169,35,142004,1,0,0:0:0:0:
135,34,142090,1,2,0:0:0:0:
0,136,142261,1,8,0:0:0:0:
133,229,142433,1,2,0:0:0:0:
133,229,142518,1,2,0:0:0:0:
133,229,142604,6,0,P|158:178|155:140,1,80,12|0,0:0|0:0,0:0:0:0:
270,41,142947,2,0,P|274:80|295:114,1,80,8|2,0:0|0:0,0:0:0:0:
317,126,143204,1,0,0:0:0:0:
317,126,143290,1,10,0:0:0:0:
423,92,143461,1,2,0:0:0:0:
478,189,143633,2,0,L|471:273,1,80,8|2,0:0|0:0,0:0:0:0:
342,343,143976,5,10,0:0:0:0:
231,328,144147,1,2,0:0:0:0:
188,224,144318,1,8,0:0:0:0:
299,239,144489,1,2,0:0:0:0:
256,134,144661,1,10,0:0:0:0:
144,119,144833,1,2,0:0:0:0:
77,208,145004,1,8,0:0:0:0:
118,312,145176,1,2,0:0:0:0:
174,320,145261,1,2,0:0:0:0:
231,328,145347,1,10,0:0:0:0:
299,239,145518,5,2,0:0:0:0:
400,287,145690,2,0,P|423:331|423:369,1,80,8|0,0:0|0:0,0:0:0:0:
299,239,146033,2,0,P|325:197|358:178,1,80,10|2,0:0|0:0,0:0:0:0:
308,344,146376,2,0,P|258:341|225:322,1,80,8|2,0:0|0:0,0:0:0:0:
132,175,146718,5,10,0:0:0:0:
25,211,146890,1,2,0:0:0:0:
110,282,147061,1,8,0:0:0:0:
217,249,147233,1,2,0:0:0:0:
247,223,147318,1,0,0:0:0:0:
286,214,147404,1,10,0:0:0:0:
325,219,147490,1,0,0:0:0:0:
360,238,147576,1,2,0:0:0:0:
293,311,147747,1,8,0:0:0:0:
185,165,147918,1,2,0:0:0:0:
185,165,148004,1,2,0:0:0:0:
185,165,148090,1,10,0:0:0:0:
365,144,148261,5,2,0:0:0:0:
196,269,148433,1,8,0:0:0:0:
269,102,148604,1,2,0:0:0:0:
269,102,148690,1,0,0:0:0:0:
269,102,148776,1,10,0:0:0:0:
377,248,148947,1,2,0:0:0:0:
196,269,149118,2,0,L|115:263,1,80,8|2,0:0|0:0,0:0:0:0:
90,280,149376,1,0,0:0:0:0:
90,280,149461,1,10,0:0:0:0:
17,114,149633,5,2,0:0:0:0:
101,43,149804,2,0,P|125:89|127:119,1,80,8|2,0:0|0:0,0:0:0:0:
116,155,150061,1,0,0:0:0:0:
116,155,150147,1,10,0:0:0:0:
28,224,150318,1,2,0:0:0:0:
190,232,150490,2,0,L|279:218,1,80,8|2,0:0|0:3,0:0:0:0:
296,230,150747,5,2,0:3:0:0:
296,230,150833,2,0,P|312:248|323:273,1,40,8|0,0:0|0:0,0:0:0:0:
383,333,151004,1,2,0:0:0:0:
383,333,151090,1,2,0:0:0:0:
383,333,151176,2,0,P|392:315|406:300,1,40,8|0,0:0|0:0,0:0:0:0:
502,220,151347,1,2,0:0:0:0:
463,230,151433,1,0,0:0:0:0:
423,226,151518,1,8,0:0:0:0:
387,206,151604,1,0,0:0:0:0:
365,171,151690,1,2,0:0:0:0:
361,131,151776,1,2,0:0:0:0:
373,93,151861,1,8,0:0:0:0:
334,104,151947,1,0,0:0:0:0:
293,104,152033,1,2,0:0:0:0:
255,91,152118,1,0,0:0:0:0:
226,62,152204,6,0,P|219:44|214:20,1,40,8|0,0:0|0:0,0:0:0:0:
149,111,152376,2,0,P|132:102|113:87,1,40,2|2,0:0|0:0,0:0:0:0:
122,198,152547,2,0,P|103:202|79:203,1,40,8|0,0:0|0:0,0:0:0:0:
158,282,152719,2,0,P|146:298|128:314,1,40,2|0,0:0|0:0,0:0:0:0:
210,210,152890,1,10,0:0:0:0:
237,206,152976,1,2,0:0:0:0:
264,202,153061,1,2,0:0:0:0:
291,199,153147,1,2,0:0:0:0:
318,196,153233,1,10,0:3:0:0:
451,238,153404,1,12,0:3:0:0:
512,118,153576,6,0,P|459:101|417:107,1,95.9999970703126,12|2,0:0|0:0,0:0:0:0:
396,121,153833,1,2,0:0:0:0:
396,120,153918,1,8,0:2:0:0:
348,268,154090,1,2,0:0:0:0:
364,313,154176,1,2,0:0:0:0:
380,357,154261,1,0,0:0:0:0:
132,357,154433,1,10,0:0:0:0:
148,313,154518,1,2,0:0:0:0:
164,268,154604,1,8,0:2:0:0:
181,223,154690,2,0,P|173:171|148:134,1,95.9999970703126,10|0,0:0|0:0,0:0:0:0:
122,119,154947,5,10,0:0:0:0:
332,32,155118,1,0,0:0:0:0:
332,32,155204,1,8,0:0:0:0:
332,32,155290,2,0,P|387:42|432:36,1,95.9999970703126,8|10,0:2|0:0,0:0:0:0:
207,16,155633,1,2,0:0:0:0:
255,150,155804,1,8,0:0:0:0:
255,150,155890,1,0,0:0:0:0:
255,150,155976,2,0,P|264:175|267:200,1,47.9999985351563,8|0,0:2|0:0,0:0:0:0:
366,339,156233,5,0,0:0:0:0:
366,339,156318,2,0,P|377:276|393:246,1,95.9999970703126,12|2,0:0|0:0,0:0:0:0:
417,222,156576,1,2,0:0:0:0:
417,222,156661,1,8,0:2:0:0:
222,305,156833,1,2,0:0:0:0:
174,300,156918,1,2,0:0:0:0:
126,296,157004,1,0,0:0:0:0:
248,148,157176,1,10,0:0:0:0:
296,143,157261,1,2,0:0:0:0:
344,139,157347,1,8,0:2:0:0:
384,112,157433,2,0,P|405:63|394:18,1,95.9999970703126,10|0,0:0|0:0,0:0:0:0:
373,0,157690,5,10,0:0:0:0:
139,86,157861,1,0,0:0:0:0:
148,133,157947,1,8,0:0:0:0:
157,180,158033,1,8,0:2:0:0:
386,296,158204,1,10,0:0:0:0:
126,296,158376,1,2,0:0:0:0:
355,180,158547,1,8,0:0:0:0:
189,353,158718,2,0,P|250:376|328:347,1,143.999995605469,8|0,0:2|0:0,0:0:0:0:
256,272,159061,5,12,0:0:0:0:
355,180,159233,1,2,0:0:0:0:
400,166,159318,1,2,0:0:0:0:
446,152,159404,1,8,0:2:0:0:
348,300,159576,1,2,0:0:0:0:
303,286,159661,1,2,0:0:0:0:
257,272,159747,1,0,0:0:0:0:
211,257,159833,1,0,0:0:0:0:
165,242,159918,1,10,0:0:0:0:
225,63,160090,1,8,0:2:0:0:
225,63,160176,2,0,P|299:45|332:52,1,95.9999970703126,10|0,0:0|0:0,0:0:0:0:
346,58,160433,5,10,0:0:0:0:
151,132,160604,1,0,0:0:0:0:
106,118,160689,1,8,0:0:0:0:
60,104,160775,1,8,0:2:0:0:
136,335,160947,1,10,0:0:0:0:
349,205,161118,1,2,0:0:0:0:
162,205,161290,1,8,0:0:0:0:
375,335,161461,1,8,0:2:0:0:
256,285,161633,1,0,0:0:0:0:
410,160,161804,6,0,P|364:126|315:122,1,95.9999970703126,12|2,0:0|0:0,0:0:0:0:
292,127,162061,1,2,0:0:0:0:
292,127,162147,1,8,0:2:0:0:
56,161,162318,1,2,0:0:0:0:
89,195,162404,1,2,0:0:0:0:
132,215,162490,1,0,0:0:0:0:
181,218,162576,1,0,0:0:0:0:
225,200,162661,1,10,0:0:0:0:
162,95,162833,1,8,0:2:0:0:
162,95,162918,1,10,0:0:0:0:
327,222,163090,5,0,0:0:0:0:
327,222,163176,2,0,L|431:209,1,95.9999970703126,14|0,0:0|0:0,0:0:0:0:
194,238,163518,2,0,L|153:335,1,95.9999970703126,10|0,0:0|0:0,0:0:0:0:
246,115,163861,2,0,L|183:31,1,95.9999970703126,10|0,0:0|0:0,0:0:0:0:
20,158,164204,6,0,P|62:172|113:168,1,90.0000034332277,8|0,0:2|0:0,0:0:0:0:
138,152,164547,1,12,0:0:0:0:
319,31,164718,1,2,0:0:0:0:
319,31,164804,1,2,0:0:0:0:
193,31,164976,1,2,0:0:0:0:
193,31,165062,1,2,0:0:0:0:
374,152,165233,1,2,0:0:0:0:
509,144,165404,1,8,0:0:0:0:
464,125,165490,1,0,0:0:0:0:
416,130,165576,1,10,0:2:0:0:
374,152,165661,2,0,P|322:166|279:159,1,95.9999970703126,8|0,0:0|0:0,0:0:0:0:
252,141,165918,5,8,0:0:0:0:
319,31,166090,1,2,0:0:0:0:
319,31,166176,1,8,0:0:0:0:
319,31,166261,1,8,0:2:0:0:
409,223,166433,1,10,0:0:0:0:
199,206,166604,1,0,0:0:0:0:
419,100,166776,1,10,0:0:0:0:
298,274,166948,1,8,0:2:0:0:
208,84,167119,1,2,0:0:0:0:
409,223,167290,6,0,P|424:280|413:323,1,95.9999970703126,12|2,0:0|0:0,0:0:0:0:
402,338,167547,1,2,0:0:0:0:
210,354,167718,1,2,0:0:0:0:
210,354,167804,2,0,L|108:339,1,95.9999970703126,2|2,0:0|0:0,0:0:0:0:
4,170,168147,1,10,0:0:0:0:
46,148,168233,1,0,0:0:0:0:
93,149,168318,1,10,0:2:0:0:
132,175,168404,2,0,L|230:162,1,95.9999970703126,8|0,0:0|0:0,0:0:0:0:
255,134,168661,5,8,0:0:0:0:
366,231,168833,1,2,0:0:0:0:
366,231,168918,1,8,0:0:0:0:
366,231,169004,1,8,0:2:0:0:
182,336,169176,1,10,0:0:0:0:
330,336,169347,1,0,0:0:0:0:
146,231,169519,1,10,0:0:0:0:
255,134,169690,2,0,L|399:114,1,143.999995605469,8|0,0:2|0:0,0:0:0:0:
427,126,170033,5,12,0:0:0:0:
202,193,170204,1,2,0:0:0:0:
202,193,170290,2,0,L|96:181,1,95.9999970703126,2|2,0:0|0:0,0:0:0:0:
68,193,170547,1,2,0:0:0:0:
17,42,170718,2,0,P|81:29|122:41,1,95.9999970703126,2|10,0:0|0:0,0:0:0:0:
212,272,171061,1,10,0:2:0:0:
212,272,171147,2,0,L|194:373,1,95.9999970703126,8|0,0:0|0:0,0:0:0:0:
316,366,171404,6,0,L|300:272,1,95.9999970703126,8|2,0:0|0:0,0:0:0:0:
308,238,171661,1,8,0:0:0:0:
308,238,171747,1,8,0:2:0:0:
428,74,171918,1,10,0:0:0:0:
428,277,172090,1,0,0:0:0:0:
308,113,172261,1,10,0:0:0:0:
501,175,172433,1,8,0:2:0:0:
355,300,172604,1,2,0:0:0:0:
308,113,172776,6,0,P|246:96|186:110,1,120,12|0,0:0|0:0,0:0:0:0:
171,128,173118,1,8,0:2:0:0:
235,352,173290,1,2,0:0:0:0:
258,319,173376,1,0,0:0:0:0:
268,280,173461,1,2,0:0:0:0:
264,239,173547,1,0,0:0:0:0:
246,202,173633,1,8,0:0:0:0:
149,268,173804,1,8,0:2:0:0:
149,268,173890,1,8,0:0:0:0:
350,348,174061,5,0,0:0:0:0:
350,348,174147,2,0,L|426:343,1,68.0000012969971,14|0,0:0|0:0,0:0:0:0:
162,348,174490,2,0,L|86:343,1,68.0000012969971,10|0,0:0|0:0,0:0:0:0:
338,199,174833,2,0,P|360:165|366:132,1,68.0000012969971,10|0,0:0|0:0,0:0:0:0:
146,138,175176,2,0,P|154:171|174:199,1,68.0000012969971,8|0,0:2|0:0,0:0:0:0:
425,68,175518,6,0,P|380:46|323:58,1,95.9999970703126,12|0,0:0|0:0,0:0:0:0:
238,186,175861,1,8,0:2:0:0:
329,297,176033,1,2,0:0:0:0:
365,266,176118,1,0,0:0:0:0:
385,222,176204,1,2,0:0:0:0:
387,173,176290,1,0,0:0:0:0:
368,128,176376,1,8,0:0:0:0:
156,223,176547,1,8,0:2:0:0:
156,223,176633,2,0,P|145:275|158:317,1,95.9999970703126,8|0,0:0|0:0,0:0:0:0:
183,336,176890,5,10,0:0:0:0:
239,137,177061,1,0,0:0:0:0:
239,137,177147,1,8,0:0:0:0:
239,137,177233,2,0,P|199:101|156:91,1,95.9999970703126,10|8,0:2|0:0,0:0:0:0:
284,270,177576,1,2,0:0:0:0:
287,55,177747,1,8,0:0:0:0:
156,223,177918,1,10,0:2:0:0:
362,163,178090,1,0,0:0:0:0:
159,92,178261,6,0,P|124:103|59:109,1,95.9999970703126,12|0,0:0|0:0,0:0:0:0:
287,55,178604,1,8,0:2:0:0:
362,163,178776,1,2,0:0:0:0:
371,209,178861,1,0,0:0:0:0:
380,256,178947,1,2,0:0:0:0:
389,303,179033,1,0,0:0:0:0:
398,349,179118,1,8,0:0:0:0:
285,248,179290,1,8,0:2:0:0:
289,224,179376,1,8,0:0:0:0:
474,263,179547,1,0,0:0:0:0:
470,286,179633,1,10,0:0:0:0:
260,356,179804,5,0,0:0:0:0:
260,356,179890,1,8,0:0:0:0:
260,356,179976,2,0,L|162:342,1,95.9999970703126,10|8,0:2|0:0,0:0:0:0:
30,233,180318,1,2,0:0:0:0:
77,222,180404,1,0,0:0:0:0:
124,211,180490,1,8,0:0:0:0:
263,76,180661,2,0,P|201:54|140:94,1,143.999995605469,10|0,0:2|0:0,0:0:0:0:
209,133,181004,6,0,L|308:156,1,95.9999970703126,12|0,0:0|0:0,0:0:0:0:
335,142,181261,1,0,0:0:0:0:
335,142,181347,1,8,0:2:0:0:
468,254,181518,1,2,0:0:0:0:
424,233,181604,1,0,0:0:0:0:
375,234,181690,1,2,0:0:0:0:
333,258,181776,1,0,0:0:0:0:
309,299,181861,1,8,0:0:0:0:
453,159,182033,1,8,0:2:0:0:
459,136,182118,1,8,0:0:0:0:
402,321,182290,1,0,0:0:0:0:
409,343,182375,1,10,0:0:0:0:
291,181,182547,5,0,0:0:0:0:
244,169,182633,1,8,0:0:0:0:
198,183,182718,2,0,P|173:230|176:273,1,95.9999970703126,10|8,0:2|0:0,0:0:0:0:
311,223,183061,1,2,0:0:0:0:
88,155,183233,1,8,0:0:0:0:
308,80,183404,1,10,0:2:0:0:
176,271,183576,1,0,0:0:0:0:
170,38,183747,6,0,P|162:87|173:131,1,95.9999970703126,12|0,0:0|0:0,0:0:0:0:
197,156,184004,1,0,0:0:0:0:
197,156,184090,1,8,0:2:0:0:
430,187,184261,1,2,0:0:0:0:
386,166,184347,1,0,0:0:0:0:
337,166,184433,1,2,0:0:0:0:
293,185,184518,1,0,0:0:0:0:
270,227,184604,1,8,0:0:0:0:
83,155,184776,1,8,0:2:0:0:
75,132,184861,1,8,0:0:0:0:
143,279,185033,5,0,0:0:0:0:
138,296,185118,2,0,P|102:315|54:323,1,71.9999978027344,14|0,0:0|0:0,0:0:0:0:
270,227,185461,2,0,P|304:248|335:286,1,71.9999978027344,10|0,0:0|0:0,0:0:0:0:
124,162,185804,2,0,P|125:121|142:75,1,71.9999978027344,10|0,0:0|0:0,0:0:0:0:
274,36,186147,2,0,L|391:32,1,107.999996704102,8|0,0:2|0:0,0:0:0:0:
410,48,186490,5,12,0:0:0:0:
512,172,186661,1,0,0:0:0:0:
465,185,186747,1,0,0:0:0:0:
417,178,186833,1,8,0:2:0:0:
201,214,187004,1,2,0:0:0:0:
245,194,187090,1,0,0:0:0:0:
293,194,187176,1,2,0:0:0:0:
335,215,187261,1,0,0:0:0:0:
363,253,187347,1,8,0:0:0:0:
169,287,187518,1,8,0:2:0:0:
145,281,187604,1,8,0:0:0:0:
282,118,187776,1,0,0:0:0:0:
305,123,187862,1,10,0:0:0:0:
128,143,188033,5,0,0:0:0:0:
128,143,188118,1,8,0:0:0:0:
128,143,188204,2,0,P|114:95|126:49,1,95.9999970703126,10|8,0:2|0:0,0:0:0:0:
245,194,188547,2,0,L|243:244,1,47.9999985351563,2|0,0:0|0:0,0:0:0:0:
223,273,188718,1,8,0:0:0:0:
223,87,188890,2,0,P|294:61|362:83,1,143.999995605469,10|0,0:2|0:0,0:0:0:0:
383,96,189233,6,0,P|436:109|476:98,1,95.9999970703126,12|0,0:0|0:0,0:0:0:0:
501,76,189490,1,0,0:0:0:0:
501,76,189576,1,8,0:2:0:0:
294,169,189747,1,2,0:0:0:0:
278,214,189833,1,0,0:0:0:0:
284,261,189918,1,2,0:0:0:0:
313,299,190004,1,0,0:0:0:0:
357,317,190090,1,8,0:0:0:0:
204,146,190261,1,8,0:2:0:0:
180,140,190347,1,8,0:0:0:0:
372,226,190518,1,0,0:0:0:0:
395,219,190604,1,10,0:0:0:0:
359,13,190776,5,0,0:0:0:0:
316,34,190861,1,8,0:0:0:0:
295,77,190947,2,0,P|283:129|297:174,1,95.9999970703126,10|8,0:2|0:0,0:0:0:0:
200,301,191290,2,0,P|201:276|197:251,1,47.9999985351563,2|0,0:0|0:0,0:0:0:0:
181,225,191461,1,8,0:0:0:0:
87,28,191633,2,0,L|55:174,1,143.999995605469,10|0,0:2|0:0,0:0:0:0:
27,189,191976,1,12,0:0:0:0:
200,91,192147,5,0,0:0:0:0:
247,84,192233,1,0,0:0:0:0:
294,77,192318,1,8,0:2:0:0:
483,241,192490,1,2,0:0:0:0:
435,231,192576,1,0,0:0:0:0:
388,221,192661,1,2,0:0:0:0:
340,212,192747,1,0,0:0:0:0:
292,203,192833,1,8,0:0:0:0:
177,231,193004,1,8,0:2:0:0:
167,253,193090,1,8,0:0:0:0:
391,124,193261,1,0,0:0:0:0:
382,101,193347,1,10,0:0:0:0:
262,286,193518,5,0,0:0:0:0:
262,286,193604,1,8,0:0:0:0:
262,286,193690,1,10,0:2:0:0:
135,92,193861,1,8,0:0:0:0:
341,159,194032,1,2,0:0:0:0:
135,226,194204,1,8,0:0:0:0:
263,51,194376,2,0,P|330:35|401:53,1,143.999995605469,10|0,0:2|0:0,0:0:0:0:
424,74,194718,5,12,0:0:0:0:
269,171,194890,1,0,0:0:0:0:
221,165,194976,1,0,0:0:0:0:
173,159,195061,1,8,0:2:0:0:
15,289,195233,1,2,0:0:0:0:
53,316,195318,1,0,0:0:0:0:
99,326,195404,1,2,0:0:0:0:
146,320,195490,1,0,0:0:0:0:
185,292,195576,1,8,0:0:0:0:
77,164,195747,1,8,0:2:0:0:
53,169,195833,1,8,0:0:0:0:
278,262,196004,5,0,0:0:0:0:
300,254,196090,2,0,P|358:254|398:274,1,95.9999970703126,14|0,0:0|0:0,0:0:0:0:
479,171,196347,2,0,P|434:188|387:186,1,95.9999970703126,10|0,0:0|0:0,0:0:0:0:
337,131,196604,2,0,L|312:30,1,95.9999970703126,10|2,0:0|0:0,0:0:0:0:
286,23,196861,1,2,0:0:0:0:
286,23,196947,1,10,0:0:0:0:
151,192,197118,1,10,0:0:0:0:
458,43,197461,5,12,0:0:0:0:
