osu file format v14

[General]
AudioFilename: audio.ogg
AudioLeadIn: 0
PreviewTime: 65804
Countdown: 0
SampleSet: Soft
StackLeniency: 0.6
Mode: 0
LetterboxInBreaks: 1
WidescreenStoryboard: 1

[Editor]
Bookmarks: 21918,32890,43861,65804,76776,87747,110033,131633,142604,150833,153576,164547,175518,186490
DistanceSpacing: 0.6
BeatDivisor: 4
GridSize: 32
TimelineZoom: 0.9

[Metadata]
Title:Throwdown
TitleUnicode:Throwdown
Artist:Fox Stevenson
ArtistUnicode:Fox Stevenson
Creator:Kyshiro
Version:Change
Source:
Tags:asphyxia taku reditum cdfa dnb drum and bass trap stan sb electronic english shohei ohtani
BeatmapID:559842
BeatmapSetID:242574

[Difficulty]
HPDrainRate:6
CircleSize:4.2
OverallDifficulty:9
ApproachRate:9.2
SliderMultiplier:1.8
SliderTickRate:1

[Events]
//Background and Video events
0,0,"bg.jpg",0,0
//Break Periods
//Storyboard Layer 0 (Background)
//Storyboard Layer 1 (Fail)
//Storyboard Layer 2 (Pass)
//Storyboard Layer 3 (Foreground)
//Storyboard Layer 4 (Overlay)
//Storyboard Sound Samples

[TimingPoints]
-24,342.857142857143,4,2,0,65,1,0
21918,-200,4,2,0,65,0,0
27404,-153.846153846154,4,2,0,65,0,0
30147,-133.333333333333,4,2,0,65,0,0
32890,-111.111111111111,4,2,0,65,0,0
41118,-86.9565217391304,4,2,0,75,0,0
43518,-333.333333333333,4,2,0,55,0,0
43861,-83.3333333333333,4,1,1,85,0,1
48918,-83.3333333333333,4,2,0,5,0,1
49004,-83.3333333333333,4,1,1,85,0,1
49090,-83.3333333333333,4,2,0,5,0,1
49176,-83.3333333333333,4,1,1,85,0,1
62633,-83.3333333333333,4,2,0,5,0,1
62718,-83.3333333333333,4,1,1,85,0,1
62804,-83.3333333333333,4,2,0,5,0,1
62890,-83.3333333333333,4,1,1,85,0,1
65804,-100,4,1,1,85,0,0
85176,-100,4,2,0,65,0,0
86376,-100,4,1,1,65,0,0
87747,-100,4,1,1,85,0,0
92118,-100,4,2,0,5,0,0
92204,-100,4,1,1,85,0,0
92290,-100,4,2,0,5,0,0
92376,-100,4,1,1,85,0,0
95547,-100,4,2,0,5,0,0
95633,-100,4,1,1,85,0,0
95718,-100,4,2,0,5,0,0
95804,-100,4,1,1,85,0,0
108661,-100,4,2,0,50,0,0
109176,-133.333333333333,4,2,0,65,0,0
110033,-200,4,2,0,65,0,0
120490,-153.846153846154,4,2,0,65,0,0
131633,-125,4,2,0,70,0,0
140204,-111.111111111111,4,2,0,70,0,0
142604,-100,4,2,0,80,0,0
153233,-66.6666666666667,4,2,0,80,0,0
153404,-83.3333333333333,4,2,0,80,0,0
153576,-83.3333333333333,4,1,1,95,0,1
163176,-100,4,1,1,95,0,0
164204,-133.333333333333,4,1,1,95,0,0
164461,-133.333333333333,4,2,0,5,0,0
164547,-83.3333333333333,4,1,1,95,0,1
172776,-100,4,1,1,95,0,1
174147,-117.647058823529,4,1,1,95,0,0
175176,-83.3333333333333,4,1,1,95,0,0
175261,-83.3333333333333,4,2,0,5,0,0
175518,-83.3333333333333,4,1,1,95,0,1
185118,-111.111111111111,4,1,1,95,0,0
186147,-83.3333333333333,4,1,1,95,0,0
186233,-83.3333333333333,4,2,0,5,0,0
186490,-83.3333333333333,4,1,1,95,0,1
197461,-83.3333333333333,4,1,1,95,0,0

[Colours]
Combo1 : 166,137,250
Combo2 : 152,189,216
Combo3 : 213,140,215
Combo4 : 234,72,121

[HitObjects]
62,118,21918,6,0,P|127:95|175:146,1,135,2|0,0:0|0:0,0:0:0:0:
293,93,22604,2,0,P|273:167|274:232,1,135,2|0,0:0|0:0,0:0:0:0:
226,327,23290,2,0,L|365:310,1,135,2|0,0:0|0:0,0:0:0:0:
472,300,23976,2,0,B|495:237|495:237|470:171,1,135,2|0,0:0|0:0,0:0:0:0:
242,197,24661,6,0,B|171:185|181:234|111:222,1,135,2|0,0:0|0:0,0:0:0:0:
223,75,25347,2,0,P|277:81|340:137,1,135,2|0,0:0|0:0,0:0:0:0:
351,242,26033,2,0,L|498:226,1,135,2|0,0:0|0:0,0:0:0:0:
254,321,26718,2,0,L|199:311,2,45,2|0|0,0:0|0:0|0:0,0:0:0:0:
97,80,27404,6,0,L|91:147,1,58.4999973220826,2|0,0:0|0:0,0:0:0:0:
301,35,27918,5,0,0:0:0:0:
370,108,28089,2,0,L|376:175,1,58.4999973220826,2|0,0:0|0:0,0:0:0:0:
141,198,28605,5,0,0:0:0:0:
72,271,28776,2,0,L|66:338,1,58.4999973220826,2|0,0:0|0:0,0:0:0:0:
308,313,29290,5,0,0:0:0:0:
384,256,29461,1,2,0:0:0:0:
302,196,29633,2,0,P|278:139|274:77,1,116.999994644165
451,68,30147,6,0,P|425:93|387:110,1,67.5000025749208,2|0,0:0|0:0,0:0:0:0:
201,270,30661,5,0,0:0:0:0:
109,242,30833,2,0,P|79:226|55:202,1,67.5000025749208,2|0,0:0|0:0,0:0:0:0:
262,30,31347,5,0,0:0:0:0:
298,119,31519,2,0,P|304:151|301:185,1,67.5000025749208,2|0,0:0|0:0,0:0:0:0:
84,109,32033,5,0,0:0:0:0:
165,61,32204,1,2,0:0:0:0:
166,155,32376,1,0,0:0:0:0:
4,70,32547,1,8,0:0:0:0:
251,105,32718,1,8,0:0:0:0:
102,279,32890,6,0,L|83:193,1,80.9999975280763,14|2,0:0|0:0,0:0:0:0:
308,219,33233,2,0,P|265:221|226:234,1,80.9999975280763,8|2,0:0|0:0,0:0:0:0:
372,325,33576,1,10,0:0:0:0:
480,259,33747,1,2,0:0:0:0:
415,150,33918,2,0,L|420:61,1,80.9999975280763,8|2,0:0|0:0,0:0:0:0:
216,27,34261,5,10,0:0:0:0:
252,134,34433,1,2,0:0:0:0:
76,105,34604,1,8,0:0:0:0:
40,212,34776,1,2,0:0:0:0:
246,242,34947,2,0,L|161:225,1,80.9999975280763,10|2,0:0|0:0,0:0:0:0:
346,324,35290,1,8,0:0:0:0:
328,156,35461,1,2,0:0:0:0:
328,156,35547,1,2,0:0:0:0:
328,156,35633,6,0,L|416:142,1,80.9999975280763,10|2,0:0|0:0,0:0:0:0:
182,107,35976,2,0,P|133:80|109:57,1,80.9999975280763,8|2,0:0|0:0,0:0:0:0:
275,60,36318,1,10,0:0:0:0:
86,160,36490,1,2,0:0:0:0:
231,207,36661,2,0,L|218:305,1,80.9999975280763,8|2,0:0|0:0,0:0:0:0:
441,254,37004,6,0,P|398:238|357:235,1,80.9999975280763,10|2,0:0|0:0,0:0:0:0:
265,78,37347,2,0,P|305:73|342:58,1,80.9999975280763,8|2,0:0|0:0,0:0:0:0:
215,209,37690,2,0,P|152:230|96:276,1,121.499996292114,10|0,0:0|0:0,0:0:0:0:
93,281,38033,1,8,0:0:0:0:
134,128,38204,1,2,0:0:0:0:
134,128,38290,1,2,0:0:0:0:
134,128,38376,6,0,P|141:61|136:24,1,80.9999975280763,10|2,0:0|0:0,0:0:0:0:
312,238,38718,2,0,P|311:278|317:318,1,80.9999975280763,8|2,0:0|0:0,0:0:0:0:
351,127,39061,1,10,0:0:0:0:
210,199,39233,1,2,0:0:0:0:
428,217,39404,2,0,L|511:195,1,80.9999975280763,8|2,0:0|0:0,0:0:0:0:
225,61,39747,6,0,P|152:52|96:81,1,121.499996292114,10|0,0:0|0:0,0:0:0:0:
91,83,40090,1,8,0:0:0:0:
182,187,40261,1,2,0:0:0:0:
97,277,40433,2,0,L|112:372,1,80.9999975280763,10|2,0:0|0:0,0:0:0:0:
6,181,40776,1,8,0:0:0:0:
230,301,40947,5,2,0:0:0:0:
245,296,41033,1,2,0:0:0:0:
262,291,41118,2,0,L|314:298,1,51.7500009870529,12|0,0:0|0:0,0:0:0:0:
457,342,41290,5,0,0:0:0:0:
442,321,41376,1,2,0:0:0:0:
431,297,41461,1,2,0:0:0:0:
421,272,41547,1,0,0:0:0:0:
413,247,41633,1,2,0:0:0:0:
409,221,41718,1,0,0:0:0:0:
406,195,41804,2,0,P|406:154|416:126,1,51.7500009870529,8|0,0:0|0:0,0:0:0:0:
317,27,41976,5,0,0:0:0:0:
300,58,42061,1,2,0:0:0:0:
268,75,42147,1,2,0:0:0:0:
231,78,42233,1,0,0:0:0:0:
196,67,42318,1,2,0:0:0:0:
159,67,42404,1,0,0:0:0:0:
126,83,42490,2,0,P|95:110|83:141,1,51.7500009870529,8|0,0:0|0:0,0:0:0:0:
36,264,42661,5,0,0:0:0:0:
77,257,42747,1,2,0:0:0:0:
118,250,42833,1,2,0:0:0:0:
158,244,42918,1,0,0:0:0:0:
199,238,43004,1,2,0:0:0:0:
240,232,43090,1,0,0:0:0:0:
281,227,43176,1,8,0:0:0:0:
303,247,43518,6,0,L|296:279,1,26.9999991760254,12|2,0:3|0:0,0:0:0:0:
393,316,43776,5,2,0:0:0:0:
418,330,43861,2,0,P|401:263|410:212,1,107.999996704102,12|2,0:0|0:0,0:0:0:0:
426,196,44118,1,2,0:0:0:0:
426,196,44204,1,0,0:0:0:0:
299,48,44376,1,2,0:0:0:0:
308,84,44461,1,2,0:0:0:0:
318,120,44547,1,8,0:2:0:0:
175,113,44718,2,0,L|229:101,1,53.9999983520508,2|2,0:0|0:0,0:0:0:0:
393,65,44890,1,8,0:0:0:0:
151,215,45061,1,2,0:0:0:0:
118,211,45147,1,2,0:0:0:0:
85,207,45233,1,0,0:0:0:0:
259,186,45404,5,10,0:0:0:0:
140,335,45576,2,0,P|191:311|259:308,1,107.999996704102,8|2,0:0|0:0,0:0:0:0:
446,326,45918,1,8,0:2:0:0:
151,215,46090,1,10,0:0:0:0:
384,168,46261,1,8,0:0:0:0:
271,290,46433,2,0,L|266:218,1,53.9999983520508,8|8,0:2|0:2,0:0:0:0:
257,116,46604,5,12,0:0:0:0:
66,101,46776,1,2,0:0:0:0:
58,143,46861,1,2,0:0:0:0:
50,185,46947,1,0,0:0:0:0:
135,320,47118,1,2,0:0:0:0:
155,288,47204,1,2,0:0:0:0:
167,252,47290,1,8,0:2:0:0:
257,116,47461,1,2,0:0:0:0:
274,143,47547,1,2,0:0:0:0:
299,163,47633,1,8,0:0:0:0:
486,57,47804,1,2,0:0:0:0:
459,64,47890,1,2,0:0:0:0:
433,71,47976,1,0,0:0:0:0:
205,20,48147,6,0,P|239:20|270:33,1,53.9999983520508,10|2,0:0|0:0,0:0:0:0:
409,175,48318,1,8,0:0:0:0:
222,253,48490,1,10,0:0:0:0:
232,205,48576,1,2,0:0:0:0:
242,157,48661,1,8,0:2:0:0:
363,250,48833,2,0,L|297:257,1,53.9999983520508,10|0,0:0|0:0,0:0:0:0:
100,142,49004,2,0,L|166:149,1,53.9999983520508,10|2,0:0|0:0,0:0:0:0:
147,308,49176,1,0,0:0:0:0:
356,89,49347,5,12,0:0:0:0:
154,44,49518,1,2,0:0:0:0:
196,35,49604,1,2,0:0:0:0:
238,26,49690,1,0,0:0:0:0:
179,237,49861,2,0,L|110:226,1,53.9999983520508,2|2,0:0|0:0,0:0:0:0:
23,208,50033,1,8,0:2:0:0:
306,221,50204,1,2,0:0:0:0:
321,249,50290,1,2,0:0:0:0:
329,280,50376,1,8,0:0:0:0:
400,144,50547,2,0,P|415:106|428:82,1,53.9999983520508,2|2,0:0|0:0,0:0:0:0:
493,22,50718,5,0,0:0:0:0:
290,98,50890,1,10,0:0:0:0:
475,210,51061,2,0,L|487:319,1,107.999996704102,8|2,0:0|0:0,0:0:0:0:
227,282,51404,1,8,0:2:0:0:
353,181,51576,2,0,L|346:247,1,53.9999983520508,10|0,0:0|0:0,0:0:0:0:
332,359,51747,1,8,0:0:0:0:
140,181,51918,1,8,0:2:0:0:
187,169,52004,1,8,0:2:0:0:
234,157,52090,1,12,0:0:0:0:
118,321,52261,5,2,0:0:0:0:
80,314,52347,1,2,0:0:0:0:
47,295,52433,1,0,0:0:0:0:
276,260,52604,1,2,0:0:0:0:
308,255,52690,1,2,0:0:0:0:
337,242,52776,1,8,0:2:0:0:
170,83,52947,1,2,0:0:0:0:
168,110,53033,1,2,0:0:0:0:
166,136,53118,1,8,0:0:0:0:
33,62,53290,2,0,L|96:77,1,53.9999983520508,2|2,0:0|0:0,0:0:0:0:
259,139,53461,6,0,P|308:123|360:82,1,107.999996704102,8|2,0:0|0:0,0:0:0:0:
371,63,53718,1,2,0:0:0:0:
371,63,53804,1,8,0:0:0:0:
84,198,53976,1,2,0:0:0:0:
329,279,54147,2,0,P|268:254|222:247,1,107.999996704102,8|10,0:2|0:0,0:0:0:0:
199,253,54376,2,0,L|186:294,2,35.9999989013672,0|0|2,3:2|3:2|3:3,3:2:0:0:
412,353,54661,1,8,0:2:0:0:
438,346,54747,1,8,0:2:0:0:
464,339,54833,6,0,L|486:221,1,107.999996704102,12|0,0:0|0:0,0:0:0:0:
435,117,55090,2,0,L|454:223,1,107.999996704102,2|0,0:0|0:0,0:0:0:0:
359,259,55347,1,2,0:0:0:0:
251,56,55518,1,8,0:2:0:0:
450,95,55690,1,2,0:0:0:0:
219,200,55861,2,0,P|162:192|107:165,1,107.999996704102,10|2,0:0|0:0,0:0:0:0:
92,154,56118,1,2,0:0:0:0:
92,154,56204,1,0,0:0:0:0:
281,332,56376,6,0,P|321:307|345:299,1,53.9999983520508,10|0,0:0|0:0,0:0:0:0:
444,287,56547,1,8,0:0:0:0:
157,282,56718,1,2,0:0:0:0:
277,62,56890,2,0,L|291:135,1,53.9999983520508,8|0,0:2|0:0,0:0:0:0:
303,211,57061,1,10,0:0:0:0:
412,105,57233,1,8,0:0:0:0:
159,100,57404,1,8,0:2:0:0:
151,137,57490,1,8,0:2:0:0:
144,174,57576,6,0,B|91:185|91:185|31:160,1,107.999996704102,12|0,0:0|0:0,0:0:0:0:
177,202,57833,2,0,B|230:191|230:191|290:216,1,107.999996704102,2|0,0:0|0:0,0:0:0:0:
223,300,58090,1,2,0:0:0:0:
376,126,58261,2,0,L|400:244,1,107.999996704102,8|2,0:2|0:0,0:0:0:0:
466,35,58604,1,8,0:0:0:0:
269,99,58776,1,2,0:0:0:0:
482,175,58947,5,0,0:0:0:0:
302,8,59118,1,10,0:0:0:0:
264,3,59204,1,2,0:0:0:0:
228,16,59290,1,8,0:0:0:0:
227,197,59461,1,10,0:0:0:0:
273,212,59547,1,2,0:0:0:0:
319,198,59633,1,8,0:2:0:0:
148,100,59804,1,10,0:0:0:0:
399,136,59976,2,0,L|383:252,1,107.999996704102,10|8,0:0|0:2,0:0:0:0:
406,271,60233,5,8,0:2:0:0:
406,271,60318,2,0,L|513:255,1,107.999996704102,12|0,0:0|0:0,0:0:0:0:
386,297,60576,2,0,L|279:281,1,107.999996704102,2|0,0:0|0:0,0:0:0:0:
467,353,60833,1,2,0:0:0:0:
200,345,61004,2,0,B|177:295|177:295|184:233,1,107.999996704102,8|2,0:2|0:0,0:0:0:0:
298,60,61347,1,8,0:0:0:0:
325,180,61518,1,2,0:0:0:0:
287,172,61604,1,2,0:0:0:0:
249,164,61690,1,0,0:0:0:0:
413,98,61861,5,10,0:0:0:0:
184,77,62033,2,0,L|58:105,1,107.999996704102,8|2,0:0|0:0,0:0:0:0:
175,276,62376,1,8,0:2:0:0:
238,206,62547,2,0,P|194:184|166:188,1,53.9999983520508,10|0,0:0|0:0,0:0:0:0:
115,347,62718,2,0,P|159:369|187:365,1,53.9999983520508,8|0,0:0|0:0,0:0:0:0:
302,313,62890,1,8,0:2:0:0:
325,299,62976,1,8,0:2:0:0:
348,285,63061,6,0,L|372:120,1,161.999995056153,12|2,0:0|0:0,0:0:0:0:
394,103,63404,2,0,B|446:81|446:81|495:105,1,107.999996704102,8|2,0:0|0:0,0:0:0:0:
225,209,63747,2,0,P|150:201|69:130,1,161.999995056153,8|2,0:2|0:0,0:0:0:0:
70,120,64090,2,0,L|53:245,1,107.999996704102,8|2,0:0|0:0,0:0:0:0:
191,48,64433,6,0,B|244:29|244:29|293:52|293:52|348:34,1,161.999995056153,12|2,0:0|0:0,0:0:0:0:
370,25,64776,1,8,0:0:0:0:
234,131,64947,1,2,0:0:0:0:
491,100,65118,1,8,0:2:0:0:
388,213,65290,2,0,L|373:177,3,35.9999989013672,0|0|0|2,3:3|3:3|3:3|3:3,3:3:0:0:
313,322,65633,1,8,0:2:0:0:
296,343,65718,1,8,0:2:0:0:
283,361,65804,6,0,P|203:347|128:266,1,180,4|0,0:0|0:0,0:0:0:0:
253,108,66318,1,0,0:0:0:0:
320,192,66490,2,0,L|218:215,1,90,8|0,0:2|0:0,0:0:0:0:
178,53,66833,2,0,B|228:7|228:7|305:29,1,135,8|0,0:0|0:0,0:0:0:0:
317,35,67176,5,0,0:0:0:0:
144,152,67347,1,8,0:0:0:0:
409,149,67518,2,0,L|273:131,1,135,8|0,0:0|0:0,0:0:0:0:
251,139,67861,1,8,0:2:0:0:
448,61,68033,1,8,0:0:0:0:
455,267,68204,1,8,0:0:0:0:
286,255,68376,1,8,0:2:0:0:
306,245,68461,1,8,0:2:0:0:
326,235,68547,6,0,P|342:288|333:347,1,90,8|0,0:0|0:0,0:0:0:0:
124,293,68890,2,0,P|99:226|105:155,1,135
120,142,69233,2,0,L|221:156,1,90,8|0,0:2|0:0,0:0:0:0:
450,197,69576,2,0,B|466:153|466:153|455:108,1,90,8|0,0:0|0:0,0:0:0:0:
355,24,69918,5,0,0:0:0:0:
309,144,70090,1,8,0:0:0:0:
331,147,70176,1,0,0:0:0:0:
352,150,70261,1,8,0:0:0:0:
197,110,70433,1,8,0:0:0:0:
194,132,70519,1,0,0:0:0:0:
191,153,70604,1,8,0:2:0:0:
122,20,70776,1,8,0:0:0:0:
46,132,70947,2,0,L|57:193,1,45,8|0,0:0|0:0,0:0:0:0:
129,303,71118,2,0,L|136:258,1,45,8|8,0:2|0:2,0:0:0:0:
290,142,71290,5,8,0:0:0:0:
329,232,71461,1,0,0:0:0:0:
321,331,71633,2,0,L|203:318,1,90
305,119,71976,2,0,L|423:132,1,90,8|0,0:2|0:0,0:0:0:0:
181,193,72318,2,0,P|121:145|91:82,1,135,8|0,0:0|0:0,0:0:0:0:
87,72,72661,5,0,0:0:0:0:
53,229,72833,1,8,0:0:0:0:
271,117,73004,2,0,B|342:105|332:154|402:142,1,135,8|0,0:0|0:0,0:0:0:0:
420,140,73347,1,8,0:2:0:0:
328,21,73518,1,8,0:0:0:0:
261,302,73690,1,8,0:0:0:0:
405,220,73861,1,8,0:2:0:0:
378,222,73947,1,8,0:2:0:0:
351,224,74033,6,0,L|172:187,1,180,8|0,0:0|0:0,0:0:0:0:
333,94,74547,1,0,0:0:0:0:
76,117,74718,2,0,B|46:184|46:184|93:310,1,180,8|8,0:2|0:0,0:0:0:0:
197,51,75233,1,0,0:0:0:0:
315,227,75404,5,8,0:2:0:0:
208,304,75576,1,8,0:0:0:0:
211,277,75661,1,2,0:0:0:0:
214,250,75747,1,2,0:0:0:0:
217,223,75833,1,2,0:0:0:0:
220,196,75918,1,10,0:0:0:0:
224,169,76004,1,2,0:0:0:0:
228,142,76090,1,8,0:2:0:0:
368,103,76261,6,0,P|336:117|311:122,1,45,10|0,0:0|0:0,0:0:0:0:
126,43,76433,2,0,P|147:49|167:59,1,45,10|0,0:0|0:0,0:0:0:0:
258,229,76604,1,10,0:0:0:0:
217,223,76690,1,2,0:0:0:0:
176,217,76776,1,12,0:0:0:0:
389,227,76947,5,2,0:0:0:0:
408,257,77033,1,2,0:0:0:0:
427,286,77118,1,0,0:0:0:0:
289,361,77290,1,2,0:0:0:0:
291,329,77376,1,2,0:0:0:0:
303,300,77461,1,8,0:2:0:0:
207,170,77633,1,2,0:0:0:0:
215,196,77718,1,2,0:0:0:0:
217,223,77804,1,8,0:0:0:0:
133,307,77976,1,2,0:0:0:0:
110,304,78061,1,2,0:0:0:0:
87,301,78147,6,0,B|66:262|66:262|68:213,1,90,0|10,0:0|0:0,0:0:0:0:
291,132,78490,1,8,0:0:0:0:
69,98,78661,1,2,0:0:0:0:
171,36,78833,2,0,P|188:91|184:125,1,90,8|10,0:2|0:0,0:0:0:0:
392,231,79176,2,0,P|389:186|405:144,1,90,8|8,0:0|0:2,0:0:0:0:
430,130,79433,1,8,0:2:0:0:
430,130,79518,1,12,0:0:0:0:
295,31,79690,5,2,0:0:0:0:
300,66,79776,1,2,0:0:0:0:
305,101,79861,1,0,0:0:0:0:
236,267,80033,1,2,0:0:0:0:
241,236,80118,1,2,0:0:0:0:
246,204,80204,1,8,0:2:0:0:
129,112,80376,1,2,0:0:0:0:
155,108,80461,1,2,0:0:0:0:
181,111,80547,1,8,0:0:0:0:
388,198,80718,2,0,P|344:190|325:182,1,45,2|2,0:0|0:0,0:0:0:0:
214,38,80890,5,0,0:0:0:0:
456,41,81061,1,10,0:0:0:0:
463,80,81147,1,0,0:0:0:0:
470,119,81233,1,8,0:0:0:0:
253,136,81404,1,10,0:0:0:0:
277,103,81490,1,8,0:0:0:0:
314,86,81576,1,8,0:2:0:0:
318,255,81747,1,10,0:0:0:0:
160,149,81918,1,8,0:0:0:0:
426,208,82090,1,10,0:0:0:0:
214,307,82261,6,0,L|107:288,1,90,12|2,0:0|0:0,0:0:0:0:
97,304,82518,1,2,0:0:0:0:
97,304,82604,1,0,0:0:0:0:
327,337,82776,1,2,0:0:0:0:
357,332,82861,1,2,0:0:0:0:
388,327,82947,1,8,0:2:0:0:
225,180,83118,2,0,L|171:186,1,45,2|2,0:0|0:0,0:0:0:0:
78,193,83290,1,8,0:0:0:0:
361,203,83461,1,2,0:0:0:0:
380,183,83547,1,2,0:0:0:0:
396,161,83633,6,0,P|420:109|426:76,1,90,0|10,0:0|0:0,0:0:0:0:
477,223,83976,1,8,0:0:0:0:
315,71,84147,1,2,0:0:0:0:
279,234,84318,2,0,L|276:337,1,90,8|10,0:2|0:0,0:0:0:0:
172,127,84661,1,8,0:0:0:0:
77,267,84833,1,8,0:2:0:0:
116,259,84918,1,8,0:2:0:0:
155,251,85004,1,12,0:0:0:0:
160,105,85176,6,0,L|138:66,2,45,2|2|0,0:0|0:0|0:0,0:0:0:0:
350,241,85518,2,0,L|372:202,2,45,2|2|0,0:0|0:0|0:0,0:0:0:0:
304,73,85861,2,0,L|311:26,2,45,2|2|0,0:0|0:0|0:0,0:0:0:0:
221,222,86204,1,2,0:0:0:0:
223,239,86290,1,2,0:0:0:0:
225,256,86376,6,0,P|174:273|129:266,1,90,8|2,0:0|0:0,0:0:0:0:
294,325,86718,1,0,0:0:0:0:
84,196,86890,1,10,0:0:0:0:
237,62,87061,1,0,0:0:0:0:
229,142,87233,1,2,0:0:0:0:
221,222,87404,1,2,0:0:0:0:
221,222,87747,6,0,B|294:213|294:213|325:227|325:227|408:217,1,180,12|0,0:0|0:0,0:0:0:0:
309,120,88261,1,0,0:0:0:0:
439,7,88433,2,0,L|433:97,1,90,8|0,0:2|0:0,0:0:0:0:
211,43,88776,1,8,0:0:0:0:
317,27,88947,6,0,L|342:221,1,180,0|8,0:0|0:0,0:0:0:0:
364,364,89461,1,8,0:0:0:0:
273,294,89633,1,0,0:0:0:0:
431,277,89804,1,8,0:2:0:0:
196,375,89976,1,8,0:0:0:0:
111,292,90147,2,0,P|86:243|81:188,1,90,8|0,0:0|0:0,0:0:0:0:
257,131,90490,6,0,B|350:115|337:179|430:164,1,180,12|0,0:0|0:0,0:0:0:0:
410,53,91004,1,0,0:0:0:0:
277,233,91176,2,0,P|228:248|181:248,1,90,8|0,0:2|0:0,0:0:0:0:
80,183,91518,1,8,0:0:0:0:
199,126,91690,1,0,0:0:0:0:
94,62,91861,5,0,0:0:0:0:
308,50,92033,2,0,L|299:103,1,45,8|0,0:0|0:0,0:0:0:0:
409,175,92204,2,0,L|401:130,1,45,8|0,0:0|0:0,0:0:0:0:
470,55,92376,1,0,0:0:0:0:
365,277,92547,1,8,0:2:0:0:
292,201,92718,1,8,0:0:0:0:
473,263,92890,1,8,0:0:0:0:
333,375,93061,1,0,0:0:0:0:
203,131,93233,6,0,P|261:94|374:127,1,180,12|0,0:0|0:0,0:0:0:0:
155,246,93747,1,0,0:0:0:0:
79,152,93918,2,0,P|50:98|44:58,1,90,8|0,0:2|0:0,0:0:0:0:
64,271,94261,2,0,L|264:293,1,180,8|0,0:0|0:0,0:0:0:0:
438,225,94776,5,8,0:0:0:0:
341,160,94947,2,0,L|332:271,1,90,8|0,0:0|0:0,0:0:0:0:
187,99,95290,1,8,0:2:0:0:
316,55,95461,2,0,P|289:79|269:86,1,45,8|0,0:0|0:0,0:0:0:0:
64,39,95633,2,0,P|83:50|98:66,1,45,8|0,0:0|0:0,0:0:0:0:
180,198,95804,1,0,0:0:0:0:
102,116,95976,6,0,P|147:92|273:140,1,180,12|0,0:0|0:0,0:0:0:0:
174,312,96490,1,0,0:0:0:0:
50,240,96661,1,8,0:2:0:0:
118,196,96833,1,0,0:0:0:0:
198,204,97004,1,8,0:0:0:0:
250,265,97176,1,0,0:0:0:0:
323,299,97347,5,0,0:0:0:0:
402,287,97518,1,8,0:0:0:0:
429,270,97604,1,8,0:0:0:0:
448,245,97690,1,8,0:0:0:0:
339,127,97861,1,8,0:0:0:0:
340,158,97947,1,8,0:0:0:0:
341,189,98033,1,8,0:2:0:0:
451,97,98204,1,8,0:0:0:0:
239,146,98376,1,8,0:0:0:0:
508,182,98547,1,8,0:0:0:0:
158,72,98718,6,0,B|133:110|133:110|135:161,1,90,14|0,0:0|0:0,0:0:0:0:
226,349,99061,2,0,B|251:311|251:311|249:260,1,90,2|0,0:0|0:0,0:0:0:0:
91,238,99404,1,10,0:2:0:0:
294,182,99576,1,0,0:0:0:0:
178,43,99747,2,0,L|170:147,1,90,10|0,0:0|0:0,0:0:0:0:
354,266,100090,5,2,0:0:0:0:
494,182,100261,1,8,0:0:0:0:
354,101,100433,1,10,0:0:0:0:
399,186,100604,1,0,0:0:0:0:
406,28,100776,2,0,P|344:12|312:21,1,90,10|8,0:2|0:0,0:0:0:0:
179,152,101118,2,0,L|274:143,1,90,10|0,0:0|0:0,0:0:0:0:
87,82,101461,5,14,0:0:0:0:
87,82,101804,2,0,P|63:135|79:219,1,135,2|0,0:0|0:0,0:0:0:0:
97,226,102147,2,0,L|80:326,1,90,10|0,0:2|0:0,0:0:0:0:
286,291,102490,1,10,0:0:0:0:
206,198,102661,1,0,0:0:0:0:
189,366,102833,5,2,0:0:0:0:
398,299,103004,2,0,L|460:288,1,45,8|0,0:0|0:0,0:0:0:0:
299,253,103176,2,0,L|306:351,1,90,10|0,0:0|0:0,0:0:0:0:
401,178,103518,1,10,0:2:0:0:
324,98,103690,2,0,P|382:148|490:144,1,180,8|0,0:0|0:0,0:0:0:0:
225,163,104204,6,0,P|172:177|139:202,1,90,14|0,0:0|0:0,0:0:0:0:
75,90,104547,1,2,0:0:0:0:
264,247,104718,1,0,0:0:0:0:
138,306,104890,2,0,L|123:200,1,90,10|0,0:2|0:0,0:0:0:0:
215,39,105233,2,0,L|230:145,1,90,10|0,0:0|0:0,0:0:0:0:
261,341,105576,5,2,0:0:0:0:
371,209,105747,2,0,L|377:157,1,45,8|0,0:0|0:0,0:0:0:0:
308,262,105918,2,0,B|343:291|343:291|390:290,1,90,10|0,0:0|0:0,0:0:0:0:
463,139,106261,1,10,0:2:0:0:
261,174,106433,1,8,0:0:0:0:
500,261,106604,1,10,0:0:0:0:
500,261,106947,6,0,L|510:80,1,180,10|2,0:0|0:0,0:0:0:0:
348,35,107461,1,0,0:0:0:0:
278,97,107633,2,0,P|328:126|370:124,1,90,10|0,0:2|0:0,0:0:0:0:
207,187,107976,2,0,L|90:183,1,90,10|0,0:0|0:0,0:0:0:0:
31,113,108318,5,10,0:0:0:0:
306,241,108661,1,0,0:0:0:0:
387,220,108833,1,2,0:0:0:0:
407,302,109004,1,2,0:0:0:0:
326,322,109176,2,0,L|321:187,1,135.000005149842,2|2,0:0|0:0,0:0:0:0:
321,187,109690,5,4,0:0:0:0:
453,33,110033,2,0,P|410:85|221:63,1,270,2|0,0:0|0:0,0:0:0:0:
56,50,111404,6,0,L|81:145,1,90,2|2,0:0|0:0,0:0:0:0:
45,273,112090,1,0,0:0:0:0:
45,273,112261,2,0,B|77:240|77:240|168:249,1,135,2|2,0:0|0:0,0:0:0:0:
422,232,114318,5,0,0:0:0:0:
422,232,114490,2,0,B|328:219|343:284|249:271,1,180,2|0,0:0|0:0,0:0:0:0:
46,201,115518,2,0,B|127:168|147:62|147:62|170:129|236:157,1,315,2|0,0:0|0:0,0:0:0:0:
331,156,116890,6,0,P|375:142|413:112,2,90,2|2|0,0:0|0:0|0:0,0:0:0:0:
280,244,117747,2,0,L|270:384,1,135,2|2,0:0|0:0,0:0:0:0:
70,138,118604,6,0,L|63:93,1,45,2|0,0:0|0:0,0:0:0:0:
159,97,118947,2,0,L|204:90,1,45,2|0,0:0|0:0,0:0:0:0:
195,187,119290,2,0,L|202:232,1,45,2|0,0:0|0:0,0:0:0:0:
106,228,119633,1,2,0:0:0:0:
52,305,119804,1,0,0:0:0:0:
121,369,119976,2,0,L|227:352,1,90,2|0,0:0|0:0,0:0:0:0:
388,231,120661,6,0,P|434:105|288:160,1,350.999983932496,2|0,0:0|0:0,0:0:0:0:
288,243,121861,2,0,B|204:265|204:265|119:218,1,175.499991966248,2|0,0:0|0:0,0:0:0:0:
65,64,122547,5,0,0:0:0:0:
165,74,122718,2,0,L|149:143,2,58.4999973220826,2|2|0,0:0|0:0|0:0,0:0:0:0:
246,169,123233,2,0,P|272:136|356:102,1,116.999994644165,2|0,0:0|0:0,0:0:0:0:
486,216,123747,2,0,B|414:241|344:206|344:206|342:287|277:330,1,292.499986610413,2|0,0:0|0:0,0:0:0:0:
81,169,125290,5,0,0:0:0:0:
35,78,125461,2,0,L|155:95,1,116.999994644165,2|0,0:0|0:0,0:0:0:0:
398,44,126147,2,0,B|416:229|260:169|278:355,1,350.999983932496,2|0,0:0|0:0,0:0:0:0:
204,243,127347,2,0,P|157:207|93:185,1,116.999994644165,2|0,0:0|0:0,0:0:0:0:
2,309,127861,6,0,L|65:293,1,58.4999973220826,2|0,0:0|0:0,0:0:0:0:
142,343,128204,2,0,L|198:357,1,58.4999973220826,2|2,0:0|0:0,0:0:0:0:
289,308,128547,1,0,0:0:0:0:
380,357,128718,2,0,P|447:338|490:293,1,116.999994644165,2|0,0:0|0:0,0:0:0:0:
394,231,129233,2,0,P|327:212|284:167,1,116.999994644165,2|2,0:0|0:0,0:0:0:0:
306,20,129747,5,0,0:0:0:0:
386,43,129918,1,2,0:0:0:0:
361,124,130090,1,0,0:0:0:0:
281,99,130261,2,0,L|216:103,1,58.4999973220826,2|0,0:0|0:0,0:0:0:0:
110,175,130604,2,0,L|175:179,1,58.4999973220826,2|0,0:0|0:0,0:0:0:0:
310,308,130947,5,2,0:0:0:0:
390,285,131118,1,0,0:0:0:0:
365,204,131290,1,2,0:0:0:0:
285,229,131461,1,0,0:0:0:0:
419,295,131633,6,0,P|460:248|467:216,1,72,4|0,0:0|0:0,0:0:0:0:
402,40,131976,1,8,0:0:0:0:
325,123,132147,1,2,0:0:0:0:
348,139,132233,1,0,0:0:0:0:
374,148,132318,1,2,0:0:0:0:
402,152,132404,1,0,0:0:0:0:
430,149,132490,1,2,0:0:0:0:
225,85,132661,2,0,L|146:104,1,72,8|2,0:0|0:0,0:0:0:0:
126,97,132918,1,0,0:0:0:0:
97,93,133004,1,2,0:0:0:0:
68,89,133090,1,0,0:0:0:0:
39,85,133176,1,2,0:0:0:0:
28,238,133347,6,0,P|71:213|107:207,1,72,8|2,0:0|0:0,0:0:0:0:
119,217,133604,1,0,0:0:0:0:
146,226,133690,1,2,0:0:0:0:
326,198,133861,1,2,0:0:0:0:
192,136,134033,1,8,0:0:0:0:
435,138,134204,1,2,0:0:0:0:
435,138,134290,1,0,0:0:0:0:
435,138,134376,6,0,L|429:225,1,72,2|2,0:0|0:0,0:0:0:0:
354,352,134718,2,0,P|329:318|316:270,1,72,8|2,0:0|0:0,0:0:0:0:
316,261,134976,1,0,0:0:0:0:
303,286,135061,1,2,0:0:0:0:
284,308,135147,1,0,0:0:0:0:
261,326,135233,1,2,0:0:0:0:
118,265,135404,1,8,0:0:0:0:
200,115,135576,1,2,0:0:0:0:
202,143,135661,1,0,0:0:0:0:
204,171,135747,1,2,0:0:0:0:
206,199,135833,1,0,0:0:0:0:
208,227,135918,1,2,0:0:0:0:
309,122,136090,5,8,0:0:0:0:
99,89,136261,1,2,0:0:0:0:
91,116,136347,1,0,0:0:0:0:
83,143,136433,1,2,0:0:0:0:
17,31,136604,1,2,0:0:0:0:
194,27,136776,1,8,0:0:0:0:
110,223,136947,1,2,0:0:0:0:
102,195,137033,1,0,0:0:0:0:
94,167,137118,6,0,L|181:181,1,72,2|2,0:0|0:0,0:0:0:0:
376,222,137461,1,8,0:0:0:0:
298,135,137633,1,2,0:0:0:0:
281,158,137718,1,0,0:0:0:0:
269,184,137804,1,2,0:0:0:0:
263,212,137890,1,0,0:0:0:0:
265,240,137976,1,2,0:0:0:0:
436,126,138147,2,0,P|456:88|458:45,1,72,8|2,0:0|0:0,0:0:0:0:
430,56,138404,1,0,0:0:0:0:
401,53,138490,1,2,0:0:0:0:
372,50,138576,1,0,0:0:0:0:
343,47,138661,1,2,0:0:0:0:
162,132,138833,6,0,L|242:119,1,72,8|2,0:0|0:0,0:0:0:0:
261,116,139090,1,0,0:0:0:0:
286,130,139176,2,0,L|324:151,2,36,2|0|2,0:0|0:0|0:0,0:0:0:0:
186,257,139518,2,0,L|106:244,1,72,8|2,0:0|0:0,0:0:0:0:
85,242,139776,1,0,0:0:0:0:
86,242,139861,1,2,0:0:0:0:
241,361,140033,5,2,0:0:0:0:
324,243,140204,2,0,P|361:225|404:217,1,80.9999975280763,8|2,0:0|0:0,0:0:0:0:
432,218,140461,1,0,0:0:0:0:
463,225,140547,2,0,P|496:240|512:249,2,40.4999987640381,2|0|2,0:0|0:0|0:0,0:0:0:0:
251,149,140890,2,0,L|160:132,1,80.9999975280763,8|2,0:0|0:0,0:0:0:0:
139,127,141147,1,0,0:0:0:0:
107,121,141233,2,0,L|36:108,2,40.4999987640381,2|0|2,0:0|0:0|0:0,0:0:0:0:
361,86,141576,5,8,0:0:0:0:
232,246,141747,1,2,0:0:0:0:
267,238,141833,1,0,0:0:0:0:
302,241,141918,1,2,0:0:0:0:
335,256,142004,1,0,0:0:0:0:
360,281,142090,1,2,0:0:0:0:
205,132,142261,1,8,0:0:0:0:
67,222,142433,1,2,0:0:0:0:
67,222,142518,1,2,0:0:0:0:
67,222,142604,6,0,L|80:319,1,90,12|0,0:0|0:0,0:0:0:0:
216,42,142947,2,0,L|204:131,1,90,8|2,0:0|0:0,0:0:0:0:
96,74,143290,1,10,0:0:0:0:
293,178,143461,1,2,0:0:0:0:
186,284,143633,2,0,P|157:230|151:185,1,90,8|2,0:0|0:0,0:0:0:0:
399,130,143976,5,10,0:0:0:0:
384,243,144147,1,2,0:0:0:0:
311,56,144318,1,8,0:0:0:0:
512,84,144490,1,2,0:0:0:0:
293,178,144661,1,10,0:0:0:0:
418,18,144833,1,2,0:0:0:0:
399,130,145004,1,8,0:0:0:0:
384,243,145176,1,2,0:0:0:0:
384,243,145261,1,2,0:0:0:0:
384,243,145347,6,0,L|398:339,1,90,10|2,0:0|0:0,0:0:0:0:
127,296,145690,2,0,P|171:276|260:288,1,135,8|0,0:0|0:0,0:0:0:0:
271,295,146033,2,0,L|283:202,1,90,10|2,0:0|0:0,0:0:0:0:
225,72,146376,1,8,0:0:0:0:
68,151,146547,1,2,0:0:0:0:
68,151,146633,1,0,0:0:0:0:
68,151,146718,6,0,B|101:183|101:183|147:190,1,90,10|2,0:0|0:0,0:0:0:0:
360,102,147061,1,8,0:0:0:0:
249,37,147233,1,2,0:0:0:0:
249,37,147318,1,0,0:0:0:0:
249,37,147404,2,0,L|237:131,1,90,10|2,0:0|0:0,0:0:0:0:
121,64,147747,1,8,0:0:0:0:
345,194,147918,1,2,0:0:0:0:
345,194,148004,1,2,0:0:0:0:
345,194,148090,6,0,L|356:288,1,90,10|2,0:0|0:0,0:0:0:0:
453,148,148433,1,8,0:0:0:0:
247,259,148604,1,2,0:0:0:0:
222,232,148690,1,0,0:0:0:0:
190,214,148776,1,10,0:0:0:0:
155,204,148861,1,0,0:0:0:0:
118,201,148947,1,2,0:0:0:0:
11,107,149118,2,0,P|78:97|110:71,1,90,8|2,0:0|0:0,0:0:0:0:
116,64,149376,1,0,0:0:0:0:
116,64,149461,1,10,0:0:0:0:
236,104,149633,5,2,0:0:0:0:
11,200,149804,1,8,0:0:0:0:
168,214,149976,1,2,0:0:0:0:
175,248,150061,1,0,0:0:0:0:
182,283,150147,1,10,0:0:0:0:
189,318,150233,1,0,0:0:0:0:
196,352,150318,1,2,0:0:0:0:
74,310,150490,1,8,0:0:0:0:
272,226,150661,1,2,0:3:0:0:
320,237,150747,1,2,0:3:0:0:
361,264,150833,6,0,L|419:253,3,45,8|0|2|2,0:0|0:0|0:0|0:0,0:0:0:0:
353,115,151176,2,0,L|364:173,3,45,8|0|2|0,0:0|0:0|0:0|0:0,0:0:0:0:
488,121,151518,1,8,0:0:0:0:
470,147,151604,1,0,0:0:0:0:
455,175,151690,1,2,0:0:0:0:
442,204,151776,1,2,0:0:0:0:
433,233,151861,1,8,0:0:0:0:
424,263,151947,1,0,0:0:0:0:
417,294,152033,1,2,0:0:0:0:
412,324,152118,1,0,0:0:0:0:
408,355,152204,5,8,0:0:0:0:
376,329,152290,1,0,0:0:0:0:
337,317,152376,1,2,0:0:0:0:
296,319,152461,1,2,0:0:0:0:
262,342,152547,1,8,0:0:0:0:
224,357,152633,1,0,0:0:0:0:
183,358,152718,1,2,0:0:0:0:
146,340,152804,1,0,0:0:0:0:
126,304,152890,2,0,L|132:259,3,45,10|2|2|2,0:0|0:0|0:0|0:0,0:0:0:0:
58,140,153233,6,0,B|78:168|78:168|122:182,1,67.5000025749208,10|0,0:3|0:0,0:0:0:0:
255,189,153404,6,0,L|200:198,1,53.9999983520508,12|0,0:3|0:0,0:0:0:0:
333,244,153576,6,0,P|394:189|407:157,1,107.999996704102,12|2,0:0|0:0,0:0:0:0:
416,136,153833,1,2,0:0:0:0:
421,104,153918,1,8,0:2:0:0:
275,20,154090,1,2,0:0:0:0:
280,52,154176,1,2,0:0:0:0:
285,83,154261,1,0,0:0:0:0:
111,127,154433,2,0,P|79:112|56:96,1,53.9999983520508,10|2,0:0|0:0,0:0:0:0:
196,97,154604,1,8,0:2:0:0:
208,127,154690,2,0,L|197:250,1,107.999996704102,10|0,0:0|0:0,0:0:0:0:
121,338,154947,6,0,P|194:319|299:343,1,161.999995056153,10|8,0:0|0:0,0:0:0:0:
306,346,155290,1,8,0:2:0:0:
449,244,155461,1,10,0:0:0:0:
423,254,155547,1,0,0:0:0:0:
396,259,155633,1,2,0:0:0:0:
369,260,155718,1,0,0:0:0:0:
341,257,155804,1,8,0:0:0:0:
440,140,155976,2,0,L|501:147,1,53.9999983520508,8|0,0:2|0:0,0:0:0:0:
301,173,156147,2,0,L|240:166,1,53.9999983520508,2|0,0:0|0:0,0:0:0:0:
121,208,156318,6,0,L|111:98,1,107.999996704102,12|2,0:0|0:0,0:0:0:0:
118,68,156576,1,2,0:0:0:0:
126,36,156661,1,8,0:2:0:0:
320,52,156833,1,2,0:0:0:0:
287,70,156918,1,2,0:0:0:0:
250,80,157004,1,0,0:0:0:0:
317,196,157176,1,10,0:0:0:0:
353,188,157261,1,2,0:0:0:0:
390,194,157347,1,8,0:2:0:0:
421,214,157433,2,0,L|435:332,1,107.999996704102,10|0,0:0|0:0,0:0:0:0:
348,366,157690,6,0,B|293:365|293:365|247:338|247:338|190:337,1,161.999995056153,10|8,0:0|0:0,0:0:0:0:
163,337,158033,1,8,0:2:0:0:
67,220,158204,1,10,0:0:0:0:
99,220,158290,1,0,0:0:0:0:
130,211,158376,1,2,0:0:0:0:
157,194,158461,1,0,0:0:0:0:
178,169,158547,1,8,0:0:0:0:
474,204,158718,2,0,P|411:206|339:271,1,161.999995056153,8|0,0:2|0:0,0:0:0:0:
290,192,159061,6,0,L|276:83,1,107.999996704102,12|2,0:0|0:0,0:0:0:0:
282,52,159318,1,2,0:0:0:0:
288,20,159404,1,8,0:2:0:0:
94,76,159576,1,2,0:0:0:0:
130,84,159661,1,2,0:0:0:0:
166,93,159747,1,0,0:0:0:0:
211,235,159918,2,0,P|180:218|151:213,1,53.9999983520508,10|2,0:0|0:0,0:0:0:0:
64,304,160090,1,8,0:2:0:0:
50,331,160176,2,0,L|183:317,1,107.999996704102,10|0,0:0|0:0,0:0:0:0:
257,310,160433,6,0,B|342:295|330:354|414:340,1,161.999995056153,10|8,0:0|0:0,0:0:0:0:
439,338,160776,1,8,0:2:0:0:
324,123,160947,1,10,0:0:0:0:
320,149,161033,1,0,0:0:0:0:
316,175,161118,1,2,0:0:0:0:
312,201,161204,1,0,0:0:0:0:
308,227,161290,1,8,0:0:0:0:
499,264,161461,2,0,L|486:99,1,161.999995056153,8|0,0:2|0:0,0:0:0:0:
438,27,161804,6,0,P|374:25|332:46,1,107.999996704102,12|2,0:0|0:0,0:0:0:0:
313,67,162061,1,2,0:0:0:0:
302,97,162147,1,8,0:2:0:0:
233,222,162318,1,2,0:0:0:0:
220,186,162404,1,2,0:0:0:0:
196,156,162490,1,0,0:0:0:0:
64,294,162661,1,10,0:0:0:0:
88,322,162747,1,2,0:0:0:0:
121,340,162833,1,8,0:2:0:0:
158,345,162918,2,0,L|276:324,1,107.999996704102,10|0,0:0|0:0,0:0:0:0:
290,338,163176,6,0,P|337:351|377:372,1,90,14|0,0:0|0:0,0:0:0:0:
169,157,163518,2,0,P|122:170|82:191,1,90,10|0,0:0|0:0,0:0:0:0:
243,62,163861,1,10,0:0:0:0:
335,241,164033,1,0,0:0:0:0:
461,129,164204,2,0,L|352:116,1,101.250003862381,8|0,0:2|0:0,0:0:0:0:
325,131,164547,5,12,0:0:0:0:
430,277,164718,1,2,0:0:0:0:
442,246,164804,1,2,0:0:0:0:
247,287,164976,1,2,0:0:0:0:
259,318,165062,1,2,0:0:0:0:
331,223,165233,1,2,0:0:0:0:
144,321,165404,1,8,0:0:0:0:
71,169,165576,1,10,0:2:0:0:
107,178,165661,1,8,0:0:0:0:
143,187,165747,1,2,0:0:0:0:
179,196,165833,1,0,0:0:0:0:
215,204,165918,6,0,P|241:155|245:95,1,107.999996704102,8|2,0:0|0:0,0:0:0:0:
235,66,166176,1,8,0:0:0:0:
209,38,166261,1,8,0:2:0:0:
349,135,166433,1,10,0:0:0:0:
125,90,166604,1,0,0:0:0:0:
399,31,166776,1,10,0:0:0:0:
315,238,166947,1,8,0:2:0:0:
275,49,167118,1,2,0:0:0:0:
487,127,167290,5,12,0:0:0:0:
244,152,167461,1,2,0:0:0:0:
214,138,167547,1,2,0:0:0:0:
429,232,167718,1,2,0:0:0:0:
436,263,167804,1,2,0:0:0:0:
377,113,167976,1,2,0:0:0:0:
297,284,168147,1,10,0:0:0:0:
259,276,168233,1,0,0:0:0:0:
222,269,168318,1,10,0:2:0:0:
184,262,168404,1,8,0:0:0:0:
146,255,168490,1,0,0:0:0:0:
343,204,168661,6,0,L|457:190,1,107.999996704102,8|2,0:0|0:0,0:0:0:0:
482,201,168918,1,8,0:0:0:0:
482,201,169004,1,8,0:2:0:0:
289,58,169176,1,10,0:0:0:0:
411,296,169347,1,0,0:0:0:0:
421,91,169518,1,10,0:0:0:0:
171,174,169690,2,0,B|231:197|231:197|330:163,1,161.999995056153,8|0,0:2|0:0,0:0:0:0:
351,154,170033,5,12,0:0:0:0:
172,73,170204,1,2,0:0:0:0:
140,63,170290,1,2,0:0:0:0:
309,260,170461,1,2,0:0:0:0:
341,250,170546,1,2,0:0:0:0:
167,207,170718,1,2,0:0:0:0:
406,346,170890,1,10,0:0:0:0:
437,324,170976,1,0,0:0:0:0:
453,290,171061,1,10,0:2:0:0:
460,252,171147,1,8,0:0:0:0:
452,214,171233,1,2,0:0:0:0:
432,182,171318,1,0,0:0:0:0:
400,161,171404,6,0,L|420:46,1,107.999996704102,8|2,0:0|0:0,0:0:0:0:
439,30,171661,1,8,0:0:0:0:
439,30,171747,1,8,0:2:0:0:
289,126,171918,1,10,0:0:0:0:
507,117,172090,1,0,0:0:0:0:
211,41,172261,1,10,0:0:0:0:
218,207,172433,1,8,0:2:0:0:
364,51,172604,1,2,0:0:0:0:
137,125,172776,6,0,P|88:125|6:77,1,135,12|0,0:0|0:0,0:0:0:0:
0,57,173118,1,8,0:2:0:0:
166,242,173290,1,2,0:0:0:0:
190,221,173376,1,0,0:0:0:0:
218,207,173461,1,2,0:0:0:0:
248,197,173547,1,0,0:0:0:0:
279,191,173633,1,8,0:0:0:0:
412,147,173804,1,8,0:2:0:0:
426,167,173890,2,0,L|408:278,1,90,8|0,0:0|0:0,0:0:0:0:
419,359,174147,6,0,P|371:339|329:336,1,76.5000014591217,14|0,0:0|0:0,0:0:0:0:
89,355,174490,2,0,P|109:307|112:265,1,76.5000014591217,10|0,0:0|0:0,0:0:0:0:
93,25,174833,2,0,P|141:45|183:48,1,76.5000014591217,10|0,0:0|0:0,0:0:0:0:
423,29,175176,2,0,P|403:77|400:96,1,53.9999983520508,8|0,0:2|0:0,0:0:0:0:
432,236,175518,6,12,L|306:215,1,107.999996704102,12|0,0:0|0:0,0:0:0:0:
74,239,175861,1,8,0:2:0:0:
176,343,176033,1,2,0:0:0:0:
202,309,176118,1,0,0:0:0:0:
216,268,176204,1,2,0:0:0:0:
215,224,176290,1,0,0:0:0:0:
202,182,176376,1,8,0:0:0:0:
73,58,176547,1,8,0:2:0:0:
89,81,176633,2,0,P|151:74|209:38,1,107.999996704102,8|0,0:0|0:0,0:0:0:0:
261,110,176890,6,0,P|317:111|375:135,1,107.999996704102,10|0,0:0|0:0,0:0:0:0:
384,155,177147,1,8,0:0:0:0:
398,183,177233,1,10,0:2:0:0:
392,353,177404,1,8,0:0:0:0:
255,271,177576,2,0,L|315:257,1,53.9999983520508,2|0,0:0|0:0,0:0:0:0:
490,270,177747,1,8,0:0:0:0:
189,358,177918,2,0,P|115:336|64:265,1,161.999995056153,10|0,0:2|0:0,0:0:0:0:
59,240,178261,5,12,0:0:0:0:
173,129,178433,1,0,0:0:0:0:
186,164,178518,1,0,0:0:0:0:
189,201,178604,1,8,0:2:0:0:
85,52,178776,1,2,0:0:0:0:
117,23,178861,1,0,0:0:0:0:
158,9,178947,1,2,0:0:0:0:
201,12,179033,1,0,0:0:0:0:
239,30,179118,1,8,0:0:0:0:
387,33,179290,1,8,0:2:0:0:
383,61,179376,2,0,L|363:171,1,107.999996704102,8|0,0:0|0:0,0:0:0:0:
281,194,179633,6,0,P|320:259|334:306,1,107.999996704102,10|0,0:0|0:0,0:0:0:0:
337,320,179890,1,8,0:0:0:0:
339,352,179976,1,10,0:2:0:0:
202,306,180147,1,8,0:0:0:0:
454,242,180318,1,2,0:0:0:0:
451,274,180404,1,0,0:0:0:0:
449,306,180490,1,8,0:0:0:0:
307,102,180661,1,10,0:2:0:0:
337,227,180833,2,0,L|275:214,1,53.9999983520508
172,159,181004,6,0,L|195:286,1,107.999996704102,12|0,0:0|0:0,0:0:0:0:
185,297,181261,1,0,0:0:0:0:
179,328,181347,1,8,0:2:0:0:
350,375,181518,1,2,0:0:0:0:
334,340,181604,1,0,0:0:0:0:
328,302,181690,1,2,0:0:0:0:
328,264,181776,1,0,0:0:0:0:
337,227,181861,1,8,0:0:0:0:
465,96,182033,1,8,0:2:0:0:
457,117,182118,2,0,B|423:121|423:121|387:102|387:102|348:106,1,107.999996704102,8|0,0:0|0:0,0:0:0:0:
345,129,182376,5,10,0:0:0:0:
202,64,182547,1,0,0:0:0:0:
166,52,182633,1,8,0:0:0:0:
130,40,182718,1,10,0:2:0:0:
299,7,182890,1,8,0:0:0:0:
237,198,183061,1,2,0:0:0:0:
114,149,183233,1,8,0:0:0:0:
345,129,183404,1,10,0:2:0:0:
262,323,183576,1,0,0:0:0:0:
202,64,183747,5,12,0:0:0:0:
447,235,183918,1,0,0:0:0:0:
405,247,184004,1,0,0:0:0:0:
362,239,184090,1,8,0:2:0:0:
179,336,184261,1,2,0:0:0:0:
219,320,184347,1,0,0:0:0:0:
262,323,184433,1,2,0:0:0:0:
298,345,184518,1,0,0:0:0:0:
322,380,184604,1,8,0:0:0:0:
66,350,184776,1,8,0:2:0:0:
39,338,184861,2,0,L|27:221,1,107.999996704102,8|0,0:0|0:0,0:0:0:0:
24,197,185118,6,0,P|76:170|113:164,1,80.9999975280763,14|0,0:0|0:0,0:0:0:0:
312,116,185461,2,0,P|322:76|321:36,1,80.9999975280763,10|0,0:0|0:0,0:0:0:0:
246,275,185804,2,0,P|275:303|311:323,1,80.9999975280763,10|0,0:0|0:0,0:0:0:0:
207,106,186147,2,0,L|199:161,1,53.9999983520508,8|0,0:2|0:0,0:0:0:0:
420,240,186490,6,0,P|441:179|440:129,1,107.999996704102,12|0,0:0|0:0,0:0:0:0:
430,99,186747,1,0,0:0:0:0:
413,64,186833,1,8,0:2:0:0:
147,63,187004,1,2,0:0:0:0:
173,90,187090,1,0,0:0:0:0:
207,106,187176,1,2,0:0:0:0:
243,113,187261,1,0,0:0:0:0:
280,110,187347,1,8,0:0:0:0:
66,162,187518,1,8,0:2:0:0:
33,164,187604,1,8,0:0:0:0:
247,244,187775,1,0,0:0:0:0:
280,242,187861,1,10,0:0:0:0:
151,216,188033,5,0,0:0:0:0:
136,244,188118,1,8,0:0:0:0:
121,273,188204,2,0,L|144:383,1,107.999996704102,10|8,0:2|0:0,0:0:0:0:
24,245,188547,1,2,0:0:0:0:
288,338,188718,1,8,0:0:0:0:
57,362,188890,1,10,0:2:0:0:
201,289,189061,1,0,0:0:0:0:
45,113,189233,6,0,P|90:172|132:193,1,107.999996704102,12|0,0:0|0:0,0:0:0:0:
149,199,189490,1,0,0:0:0:0:
181,200,189576,1,8,0:2:0:0:
416,155,189747,1,2,0:0:0:0:
382,126,189833,1,0,0:0:0:0:
342,109,189918,1,2,0:0:0:0:
299,101,190004,1,0,0:0:0:0:
255,104,190090,1,8,0:0:0:0:
346,256,190261,1,8,0:2:0:0:
358,225,190347,1,8,0:0:0:0:
470,43,190518,1,0,0:0:0:0:
482,74,190604,1,10,0:0:0:0:
306,109,190776,5,0,0:0:0:0:
306,109,190861,1,8,0:0:0:0:
306,109,190947,2,8,P|248:81|214:41,1,107.999996704102,10|8,0:2|0:0,0:0:0:0:
378,37,191290,1,2,0:0:0:0:
135,123,191461,1,8,0:0:0:0:
310,202,191633,2,0,P|308:288|277:359,1,161.999995056153,10|0,0:2|0:0,0:0:0:0:
252,375,191976,5,12,0:0:0:0:
123,248,192147,1,0,0:0:0:0:
157,231,192233,1,0,0:0:0:0:
193,223,192318,1,8,0:2:0:0:
397,193,192490,1,2,0:0:0:0:
353,189,192576,1,0,0:0:0:0:
311,179,192661,1,2,0:0:0:0:
272,159,192747,1,0,0:0:0:0:
237,132,192833,1,8,0:0:0:0:
471,101,193004,1,8,0:2:0:0:
482,131,193090,1,8,0:0:0:0:
405,316,193261,1,0,0:0:0:0:
416,286,193347,1,10,0:0:0:0:
225,155,193518,5,0,0:0:0:0:
246,179,193604,1,8,0:0:0:0:
267,203,193690,2,0,L|388:181,1,107.999996704102,10|8,0:2|0:0,0:0:0:0:
157,287,194033,1,2,0:0:0:0:
126,277,194118,1,0,0:0:0:0:
94,268,194204,1,8,0:0:0:0:
289,361,194376,2,0,B|345:321|345:321|448:333,1,161.999995056153,10|0,0:2|0:0,0:0:0:0:
466,335,194718,5,12,0:0:0:0:
456,128,194890,1,0,0:0:0:0:
431,156,194976,1,0,0:0:0:0:
418,191,195061,1,8,0:2:0:0:
286,110,195233,1,2,0:0:0:0:
258,77,195318,1,0,0:0:0:0:
222,52,195404,1,2,0:0:0:0:
182,35,195490,1,0,0:0:0:0:
139,25,195576,1,8,0:0:0:0:
32,143,195747,1,8,0:2:0:0:
63,136,195833,1,8,0:0:0:0:
208,217,196004,1,0,0:0:0:0:
177,210,196090,6,0,B|171:266|171:266|196:316,1,107.999996704102,14|0,0:0|0:0,0:0:0:0:
284,362,196347,2,0,B|340:368|340:368|390:343,1,107.999996704102,10|0,0:0|0:0,0:0:0:0:
438,254,196604,2,0,B|444:198|444:198|419:148,1,107.999996704102,10|2,0:0|0:0,0:0:0:0:
401,131,196861,1,2,0:0:0:0:
401,131,196947,1,10,0:0:0:0:
266,44,197118,2,0,B|258:99|258:99|288:143|288:143|282:207,1,161.999995056153,10|0,0:0|0:0,0:0:0:0:
280,229,197461,5,12,0:0:0:0:
