osu file format v14

[General]
AudioFilename: audio.mp3
AudioLeadIn: 0
PreviewTime: 77386
Countdown: 0
SampleSet: Normal
StackLeniency: 0.7
Mode: 1
LetterboxInBreaks: 0
WidescreenStoryboard: 0

[Editor]
Bookmarks: 11161,33229,44264,55298,60816,66333,71850,80126,99436
DistanceSpacing: 1
BeatDivisor: 4
GridSize: 8
TimelineZoom: 1.2

[Metadata]
Title:Take You Down
TitleUnicode:Take You Down
Artist:Fox Stevenson
ArtistUnicode:Fox Stevenson
Creator:Rosiie
Version:Futsuu
Source:
Tags:english dnb drum and bass liquicity electronic short version cut hivie stan sb edm
BeatmapID:2384417
BeatmapSetID:1141611

[Difficulty]
HPDrainRate:7.5
CircleSize:2
OverallDifficulty:4
ApproachRate:8
SliderMultiplier:1.4
SliderTickRate:1

[Events]
//Background and Video events
0,0,"f0x.jpg",0,-115
//Break Periods
//Storyboard Layer 0 (Background)
//Storyboard Layer 1 (Fail)
//Storyboard Layer 2 (Pass)
//Storyboard Layer 3 (Foreground)
//Storyboard Layer 4 (Overlay)
//Storyboard Sound Samples

[TimingPoints]
11180,344.827586206897,4,1,0,100,1,0
11180,-111.111111111111,4,1,0,80,0,0
33248,-111.111111111111,4,1,0,90,0,0
55317,-100,4,1,0,100,0,1
77386,-100,4,1,0,90,0,0
78248,-111.111111111111,4,1,0,90,0,0
80145,-100,4,1,0,100,0,1
99455,-100,4,1,0,90,0,0

[HitObjects]
256,192,11180,5,0,0:0:0:0:
256,192,12214,1,8,0:0:0:0:
256,192,12559,1,0,0:0:0:0:
256,192,13248,1,0,0:0:0:0:
256,192,13593,1,0,0:0:0:0:
256,192,13938,1,8,0:0:0:0:
256,192,14455,1,0,0:0:0:0:
256,192,16697,1,8,0:0:0:0:
256,192,17042,1,0,0:0:0:0:
256,192,17386,1,8,0:0:0:0:
256,192,17731,1,8,0:0:0:0:
256,192,17904,1,0,0:0:0:0:
256,192,18421,1,8,0:0:0:0:
256,192,18766,1,0,0:0:0:0:
256,192,19111,1,0,0:0:0:0:
256,192,19455,1,8,0:0:0:0:
256,192,21524,1,0,0:0:0:0:
256,192,21869,1,0,0:0:0:0:
256,192,22214,1,8,0:0:0:0:
256,192,23076,1,8,0:0:0:0:
256,192,23421,1,0,0:0:0:0:
256,192,24283,1,8,0:0:0:0:
256,192,24628,1,0,0:0:0:0:
256,192,24800,1,8,0:0:0:0:
256,192,26007,1,8,0:0:0:0:
256,192,26180,1,0,0:0:0:0:
256,192,27731,1,0,0:0:0:0:
256,192,28248,1,0,0:0:0:0:
256,192,28421,1,8,0:0:0:0:
256,192,28938,1,0,0:0:0:0:
256,192,29455,1,8,0:0:0:0:
256,192,29800,1,0,0:0:0:0:
256,192,30145,1,0,0:0:0:0:
256,192,30490,1,8,0:0:0:0:
256,192,30835,12,0,32904,0:0:0:0:
256,192,33248,5,4,0:0:0:0:
256,192,34111,1,8,0:0:0:0:
256,192,34455,1,0,0:0:0:0:
256,192,35317,1,0,0:0:0:0:
256,192,35662,1,0,0:0:0:0:
256,192,35835,1,8,0:0:0:0:
256,192,36352,1,0,0:0:0:0:
256,192,36524,1,8,0:0:0:0:
256,192,37042,1,8,0:0:0:0:
256,192,37214,1,0,0:0:0:0:
256,192,37559,1,0,0:0:0:0:
256,192,38938,1,0,0:0:0:0:
256,192,39111,1,8,0:0:0:0:
256,192,39455,1,0,0:0:0:0:
256,192,39800,1,8,0:0:0:0:
256,192,40145,1,0,0:0:0:0:
256,192,40490,1,8,0:0:0:0:
256,192,40835,1,8,0:0:0:0:
256,192,41180,1,8,0:0:0:0:
256,192,41524,1,0,0:0:0:0:
256,192,42559,1,0,0:0:0:0:
256,192,43593,1,8,0:0:0:0:
256,192,43938,1,8,0:0:0:0:
256,192,44111,1,0,0:0:0:0:
256,192,44283,1,0,0:0:0:0:
256,192,45145,1,0,0:0:0:0:
256,192,45317,1,8,0:0:0:0:
256,192,45662,1,0,0:0:0:0:
256,192,46007,1,8,0:0:0:0:
256,192,46524,1,0,0:0:0:0:
256,192,46697,1,8,0:0:0:0:
256,192,47042,1,0,0:0:0:0:
256,192,47386,1,8,0:0:0:0:
256,192,47904,1,0,0:0:0:0:
256,192,48076,1,8,0:0:0:0:
256,192,48421,1,0,0:0:0:0:
256,192,49111,1,8,0:0:0:0:
256,192,49455,1,8,0:0:0:0:
256,192,49800,1,4,0:0:0:0:
256,192,50145,1,0,0:0:0:0:
256,192,50490,1,0,0:0:0:0:
256,192,51180,1,0,0:0:0:0:
256,192,51869,1,0,0:0:0:0:
256,192,52559,12,0,54628,0:0:0:0:
256,192,55317,5,4,0:0:0:0:
256,192,55662,1,0,0:0:0:0:
256,192,55835,1,8,0:0:0:0:
256,192,56352,1,8,0:0:0:0:
256,192,56697,1,8,0:0:0:0:
256,192,56869,1,0,0:0:0:0:
256,192,57386,1,8,0:0:0:0:
256,192,57731,1,8,0:0:0:0:
256,192,58076,1,0,0:0:0:0:
256,192,58421,1,0,0:0:0:0:
256,192,58593,1,8,0:0:0:0:
256,192,59111,1,8,0:0:0:0:
256,192,59455,1,8,0:0:0:0:
256,192,59628,1,0,0:0:0:0:
256,192,60145,1,8,0:0:0:0:
256,192,60835,1,0,0:0:0:0:
256,192,61180,1,0,0:0:0:0:
256,192,61352,1,8,0:0:0:0:
256,192,61524,1,0,0:0:0:0:
256,192,61869,1,8,0:0:0:0:
256,192,62214,1,0,0:0:0:0:
256,192,62559,1,8,0:0:0:0:
256,192,62904,1,8,0:0:0:0:
256,192,63248,1,0,0:0:0:0:
256,192,63593,1,0,0:0:0:0:
256,192,64111,1,8,0:0:0:0:
256,192,64628,1,8,0:0:0:0:
256,192,65145,1,0,0:0:0:0:
256,192,65662,1,8,0:0:0:0:
256,192,66352,1,0,0:0:0:0:
256,192,66697,1,0,0:0:0:0:
256,192,66869,1,8,0:0:0:0:
256,192,67386,1,8,0:0:0:0:
256,192,67731,1,8,0:0:0:0:
256,192,67904,1,0,0:0:0:0:
256,192,68421,1,8,0:0:0:0:
256,192,68766,1,8,0:0:0:0:
256,192,69111,1,0,0:0:0:0:
256,192,69455,1,0,0:0:0:0:
256,192,69628,1,8,0:0:0:0:
256,192,70145,1,8,0:0:0:0:
256,192,70490,1,0,0:0:0:0:
256,192,70662,1,0,0:0:0:0:
256,192,71180,1,8,0:0:0:0:
256,192,71869,1,0,0:0:0:0:
256,192,72214,1,0,0:0:0:0:
256,192,72386,1,8,0:0:0:0:
256,192,72559,1,0,0:0:0:0:
256,192,72904,1,8,0:0:0:0:
256,192,73248,1,0,0:0:0:0:
256,192,73593,1,8,0:0:0:0:
256,192,73938,1,8,0:0:0:0:
256,192,74283,1,0,0:0:0:0:
256,192,74628,1,0,0:0:0:0:
256,192,75145,1,8,0:0:0:0:
256,192,75662,1,8,0:0:0:0:
256,192,76180,1,0,0:0:0:0:
256,192,76697,1,8,0:0:0:0:
256,192,77042,1,8,0:0:0:0:
256,192,77386,1,0,0:0:0:0:
256,192,78248,1,8,0:0:0:0:
256,192,78593,1,0,0:0:0:0:
256,192,79455,1,0,0:0:0:0:
256,192,79800,1,8,0:0:0:0:
256,192,79973,1,8,0:0:0:0:
256,192,80145,1,4,0:0:0:0:
256,192,80490,1,8,0:0:0:0:
256,192,81007,1,0,0:0:0:0:
256,192,81180,1,8,0:0:0:0:
256,192,81524,1,0,0:0:0:0:
256,192,81697,1,0,0:0:0:0:
256,192,81869,1,8,0:0:0:0:
256,192,82386,1,0,0:0:0:0:
256,192,82559,1,8,0:0:0:0:
256,192,82904,1,0,0:0:0:0:
256,192,83248,1,8,0:0:0:0:
256,192,83593,1,0,0:0:0:0:
256,192,83766,1,0,0:0:0:0:
256,192,83938,1,8,0:0:0:0:
256,192,84283,1,0,0:0:0:0:
256,192,84628,1,8,0:0:0:0:
256,192,84973,1,0,0:0:0:0:
256,192,85317,1,8,0:0:0:0:
256,192,85662,1,0,0:0:0:0:
256,192,86180,1,8,0:0:0:0:
256,192,86697,1,8,0:0:0:0:
256,192,87214,1,0,0:0:0:0:
256,192,87731,1,8,0:0:0:0:
256,192,88076,1,8,0:0:0:0:
256,192,88421,1,0,0:0:0:0:
256,192,89283,1,0,0:0:0:0:
256,192,89455,1,8,0:0:0:0:
256,192,89800,1,0,0:0:0:0:
256,192,90145,1,8,0:0:0:0:
256,192,90662,1,0,0:0:0:0:
256,192,90835,1,8,0:0:0:0:
256,192,91180,1,0,0:0:0:0:
256,192,91524,1,8,0:0:0:0:
256,192,92042,1,0,0:0:0:0:
256,192,92214,1,8,0:0:0:0:
256,192,92559,1,0,0:0:0:0:
256,192,92731,1,0,0:0:0:0:
256,192,92904,1,8,0:0:0:0:
256,192,93421,1,0,0:0:0:0:
256,192,93593,1,8,0:0:0:0:
256,192,93938,1,0,0:0:0:0:
256,192,94283,1,8,0:0:0:0:
256,192,94628,1,0,0:0:0:0:
256,192,94800,1,0,0:0:0:0:
256,192,94973,1,8,0:0:0:0:
256,192,95317,1,0,0:0:0:0:
256,192,95662,1,8,0:0:0:0:
256,192,96007,1,0,0:0:0:0:
256,192,96352,1,8,0:0:0:0:
256,192,96697,1,0,0:0:0:0:
256,192,97214,1,8,0:0:0:0:
256,192,97731,1,8,0:0:0:0:
256,192,98248,1,0,0:0:0:0:
256,192,98766,1,8,0:0:0:0:
256,192,99111,1,8,0:0:0:0:
256,192,99455,1,0,0:0:0:0:
