osu file format v14

[General]
AudioFilename: audio.mp3
AudioLeadIn: 0
PreviewTime: 77248
Countdown: 0
SampleSet: Soft
StackLeniency: 0.7
Mode: 0
LetterboxInBreaks: 0
WidescreenStoryboard: 1

[Editor]
DistanceSpacing: 1
BeatDivisor: 4
GridSize: 4
TimelineZoom: 1

[Metadata]
Title:Take You Down
TitleUnicode:Take You Down
Artist:Fox Stevenson
ArtistUnicode:Fox Stevenson
Creator:A r M i N
Version:Plaudible's Expert
Source:
Tags:english dnb drum and bass liquicity electronic short version cut stan sb edm Armin A_r_m_i_n Nao Tomori Naotoshi Capu Xen Xenon- Xehn Daycore Stixy NeoSkyLove NeoSL Affirmation Plaudible schoolboy Komore Kujinn Reform
BeatmapID:2328327
BeatmapSetID:1098490

[Difficulty]
HPDrainRate:6
CircleSize:3.8
OverallDifficulty:8.8
ApproachRate:9.2
SliderMultiplier:2
SliderTickRate:1

[Events]
//Background and Video events
0,0,"f0x.jpg",0,0
//Break Periods
//Storyboard Layer 0 (Background)
//Storyboard Layer 1 (Fail)
//Storyboard Layer 2 (Pass)
//Storyboard Layer 3 (Foreground)
//Storyboard Layer 4 (Overlay)
//Storyboard Sound Samples

[TimingPoints]
93,344.827586206897,4,2,2,50,1,0
11128,-125,4,2,2,50,0,0
33196,-111.111111111111,4,2,2,60,0,0
43886,-111.111111111111,4,2,1,70,0,0
44231,-100,4,2,1,70,0,0
54748,-200,4,2,2,60,0,0
54920,-100,4,2,2,60,0,0
55093,-66.6666666666667,4,2,2,60,0,0
55265,-90.9090909090909,4,2,1,80,0,1
60265,-90.9090909090909,4,2,2,80,0,1
60782,-90.9090909090909,4,2,1,80,0,1
71299,-90.9090909090909,4,2,2,80,0,1
71817,-90.9090909090909,4,2,1,80,0,1
77334,-133.333333333333,4,2,1,60,0,0
80093,-90.9090909090909,4,2,1,80,0,0
82334,-90.9090909090909,4,2,2,80,0,0
82851,-90.9090909090909,4,2,1,80,0,0
93368,-90.9090909090909,4,2,2,80,0,0
93886,-90.9090909090909,4,2,1,80,0,0
99403,-90.9090909090909,4,2,1,50,0,0

[Colours]
Combo1 : 101,98,238
Combo2 : 255,213,234
Combo3 : 168,236,204
Combo4 : 187,238,255
Combo5 : 232,222,187
Combo6 : 255,70,70
Combo7 : 191,91,234
Combo8 : 235,112,65

[HitObjects]
437,136,11128,6,0,P|451:75|505:130,1,160,4|0,1:2|0:0,0:0:0:0:
489,199,11645,2,0,B|454:174|413:191|413:191|376:211|329:194,1,160,2|0,0:0|0:0,0:0:0:0:
269,140,12162,2,0,L|281:59,1,80,2|0,0:2|0:0,0:0:0:0:
163,28,12507,2,0,L|190:220,1,160,2|0,0:2|0:0,0:0:0:0:
97,343,13196,2,0,B|143:326|153:290|153:290|186:326|239:324,1,160,2|2,0:2|0:2,0:0:0:0:
309,294,13714,1,0,0:2:0:0:
309,294,13886,6,0,P|327:250|330:209,2,80,2|0|2,0:2|0:0|0:2,0:0:0:0:
234,236,14403,2,0,B|318:255|318:255|387:225|387:225|473:244,1,240,2|2,0:2|0:0,0:0:0:0:
498,41,15438,2,0,B|414:22|414:22|345:52|345:52|259:33,1,240,2|2,0:0|0:0,0:0:0:0:
168,65,16128,1,0,0:0:0:0:
168,65,16300,2,0,P|187:107|217:127,1,80,2|0,0:0|0:0,0:0:0:0:
351,204,16645,6,0,B|309:189|273:211|273:211|232:234|188:219,1,160,2|2,0:0|0:2,0:0:0:0:
138,134,17162,1,2,0:2:0:0:
138,134,17334,2,0,P|94:185|110:285,1,160,2|2,0:2|0:2,0:0:0:0:
239,305,17852,2,0,P|283:254|267:154,1,160,2|2,0:2|0:2,0:0:0:0:
226,82,18369,2,0,L|303:66,1,80,2|0,0:2|0:0,0:0:0:0:
138,134,18714,2,0,L|60:118,1,80,2|0,0:2|0:0,0:0:0:0:
207,256,19059,2,0,P|230:206|222:165,1,80,2|0,0:2|0:0,0:0:0:0:
59,118,19403,6,0,L|80:297,1,160,2|0,0:2|0:0,0:0:0:0:
16,334,19921,2,0,B|51:309|92:326|92:326|129:346|176:329,1,160,2|0,0:0|0:0,0:0:0:0:
253,281,20438,2,0,B|275:238|260:190|260:190|225:232|240:276,1,160,2|0,0:0|0:0,0:0:0:0:
337,326,20955,2,0,P|355:275|349:163,1,160,2|0,0:0|0:0,0:0:0:0:
167,178,21472,2,0,P|151:227|151:264,1,80,2|0,0:0|0:0,0:0:0:0:
350,170,21817,2,0,P|347:130|334:93,1,80,2|0,0:0|0:0,0:0:0:0:
150,255,22162,6,0,L|316:277,1,160,2|0,0:0|0:0,0:0:0:0:
455,341,22679,2,0,P|416:348|385:373,1,80,2|0,0:0|0:0,0:0:0:0:
402,200,23024,2,0,P|427:230|464:243,1,80,2|0,0:2|0:0,0:0:0:0:
308,276,23369,2,0,B|224:257|224:257|155:287|155:287|69:268,1,240,2|0,0:2|0:0,0:0:0:0:
184,62,24231,1,2,0:2:0:0:
150,195,24403,1,2,0:2:0:0:
155,75,24576,1,2,0:2:0:0:
258,134,24748,6,0,B|385:165|428:107|428:107|372:99|304:155|298:225|298:225|363:267|459:248|498:191,1,560,2|2,0:2|0:2,0:0:0:0:
421,341,26128,2,0,P|342:342|266:317,1,160,2|0,0:2|0:0,0:0:0:0:
164,274,26645,2,0,P|150:323|157:361,1,80,2|0,0:0|0:0,0:0:0:0:
259,203,26990,2,0,P|223:166|186:153,1,80,2|0,0:0|0:0,0:0:0:0:
267,317,27334,2,0,P|316:304|345:278,1,80,2|0,0:0|0:0,0:0:0:0:
197,155,27679,6,0,L|35:143,1,160,2|0,0:0|0:0,0:0:0:0:
127,277,28196,1,2,0:2:0:0:
226,267,28369,1,2,0:2:0:0:
117,181,28541,2,0,P|77:193|43:227,1,80,2|0,0:2|0:0,0:0:0:0:
226,267,28886,2,0,P|235:226|223:179,1,80,2|0,0:2|0:0,0:0:0:0:
127,277,29231,1,2,0:2:0:0:
199,371,29403,2,0,L|283:365,1,80,2|0,0:2|0:0,0:0:0:0:
395,294,29748,2,0,P|434:308|470:342,1,80,2|0,0:2|0:0,0:0:0:0:
294,228,30093,2,0,P|263:253|225:266,1,80,2|0,0:2|0:0,0:0:0:0:
346,124,30438,5,2,0:2:0:0:
256,192,30524,12,0,32507,0:0:0:0:
196,150,32679,5,8,0:2:0:0:
427,212,32852,1,8,0:2:0:0:
260,263,33024,1,8,0:2:0:0:
427,212,33196,6,0,B|454:161|454:161|443:35,1,179.999994506836,4|8,1:2|0:2,0:0:0:0:
339,188,33714,2,0,P|342:243|363:276,1,89.9999972534181,0|0,0:0|0:0,0:0:0:0:
363,99,34059,2,0,L|265:87,1,89.9999972534181,2|8,0:2|0:2,0:0:0:0:
141,118,34403,6,0,B|164:94|169:66|169:66|162:144|231:187,1,179.999994506836,2|0,0:2|0:0,0:0:0:0:
112,218,34921,2,0,P|70:240|22:238,1,89.9999972534181,8|0,0:2|0:0,0:0:0:0:
211,172,35265,1,2,0:2:0:0:
46,145,35438,1,2,0:2:0:0:
197,74,35610,1,10,0:2:0:0:
112,218,35783,6,0,P|175:272|277:257,1,179.999994506836,2|0,0:2|0:0,0:0:0:0:
445,171,36300,1,10,0:2:0:0:
497,261,36472,2,0,P|434:207|332:222,1,179.999994506836,2|0,0:2|0:0,0:0:0:0:
185,307,36990,1,10,0:2:0:0:
211,172,37162,6,0,L|225:83,1,89.9999972534181,2|0,0:2|0:0,0:0:0:0:
36,201,37507,2,0,L|50:289,1,89.9999972534181,2|8,0:2|0:2,0:0:0:0:
185,307,37852,1,0,0:0:0:0:
225,83,38024,2,0,P|173:66|129:73,1,89.9999972534181,2|0,0:0|0:0,0:0:0:0:
288,213,38369,2,0,P|332:215|374:199,1,89.9999972534181,8|0,0:2|0:0,0:0:0:0:
171,182,38714,5,0,0:0:0:0:
225,83,38886,1,2,0:2:0:0:
288,213,39059,1,10,0:2:0:0:
355,77,39231,1,2,0:2:0:0:
171,182,39403,1,2,0:2:0:0:
399,235,39576,1,2,0:2:0:0:
225,83,39748,2,0,B|184:69|184:69|76:88,1,134.999995880127,10|0,0:2|0:0,0:0:0:0:
57,93,40093,6,0,P|71:172|48:268,1,179.999994506836,2|10,0:2|0:2,0:0:0:0:
272,364,40783,2,0,P|258:285|281:189,1,179.999994506836,2|10,0:2|0:2,0:0:0:0:
57,93,41472,6,0,B|106:63|147:87|147:87|190:113|244:85,1,179.999994506836,2|8,0:2|0:2,0:0:0:0:
371,137,41990,2,0,B|356:119|352:84|352:84|349:152|289:204,1,179.999994506836,2|0,0:0|0:0,0:0:0:0:
194,211,42507,6,0,P|272:220|325:311,1,179.999994506836,10|0,0:2|0:0,0:0:0:0:
212,325,43024,1,2,0:0:0:0:
212,325,43196,2,0,L|117:311,1,89.9999972534181,8|0,0:2|0:0,0:0:0:0:
301,192,43541,2,0,L|396:178,1,89.9999972534181,2|0,0:0|0:0,0:0:0:0:
120,76,43886,1,10,0:2:0:0:
32,230,44059,1,0,1:2:0:0:
32,230,44145,1,0,1:2:0:0:
32,230,44231,6,0,P|28:283|45:330,1,100,6|0,1:2|0:0,0:0:0:0:
182,250,44576,2,0,L|195:144,1,100,8|0,0:2|0:0,0:0:0:0:
120,76,44921,1,0,0:0:0:0:
285,224,45093,2,0,P|346:224|387:207,1,100,2|8,1:2|0:2,0:0:0:0:
296,51,45438,6,0,B|208:60|257:192|365:112,1,200,2|0,0:2|0:0,0:0:0:0:
171,48,45955,2,0,P|122:32|71:42,1,100,8|2,0:2|0:2,0:0:0:0:
67,251,46300,1,2,0:2:0:0:
118,126,46472,1,2,1:2:0:0:
57,275,46645,2,0,P|106:291|157:281,1,100,10|2,0:2|0:2,0:0:0:0:
303,182,46990,6,0,L|191:167,1,100,0|0,1:2|0:0,0:0:0:0:
241,268,47334,1,10,0:2:0:0:
359,101,47507,2,0,L|471:86,1,100,2|0,0:2|0:0,0:0:0:0:
424,188,47852,1,0,1:2:0:0:
307,24,48024,1,10,0:2:0:0:
424,188,48196,6,0,P|450:247|447:295,1,100,2|0,0:2|1:2,0:0:0:0:
238,329,48541,2,0,P|212:270|215:222,1,100,2|8,0:2|0:2,0:0:0:0:
212,235,49059,1,2,0:0:0:0:
421,181,49231,1,0,1:2:0:0:
141,88,49403,2,0,L|128:201,1,100,8|0,0:2|0:0,0:0:0:0:
321,256,49748,6,0,P|321:199|295:159,1,100,4|2,1:2|0:2,0:0:0:0:
111,305,50093,2,0,P|139:354|182:376,1,100,2|2,1:2|0:2,0:0:0:0:
386,326,50438,2,0,P|413:284|414:234,1,100,2|2,1:2|0:2,0:0:0:0:
196,182,50783,2,0,P|193:232|217:275,1,100,2|0,1:2|0:0,0:0:0:0:
414,98,51128,6,0,L|303:88,1,100,2|0,1:2|0:0,0:0:0:0:
115,114,51472,2,0,P|107:65|124:17,1,100,2|0,1:2|0:0,0:0:0:0:
317,284,51817,2,0,L|416:292,1,100,2|0,1:2|0:0,0:0:0:0:
26,204,52161,2,0,P|9:251|18:300,1,100,2|0,1:2|0:0,0:0:0:0:
317,284,52507,5,14,0:2:0:0:
122,191,52679,1,8,0:2:0:0:
331,166,52852,1,8,0:2:0:0:
117,225,53024,1,10,0:2:0:0:
267,88,53196,5,8,0:2:0:0:
154,347,53369,1,8,0:2:0:0:
182,112,53541,1,10,0:2:0:0:
245,306,53714,1,8,0:2:0:0:
353,62,53886,5,8,0:2:0:0:
154,347,54059,1,10,0:2:0:0:
112,42,54231,1,8,0:2:0:0:
377,271,54403,1,8,0:2:0:0:
199,178,54576,5,0,1:2:0:0:
199,178,54748,6,0,L|204:219,1,25,8|0,0:2|0:0,0:0:0:0:
116,176,54920,6,0,L|125:243,1,50,8|0,0:2|0:0,0:0:0:0:
33,173,55093,6,0,L|45:257,1,75.0000028610231,8|0,0:2|0:0,0:0:0:0:
278,122,55265,6,0,B|445:109|445:109|394:148,1,220.000006713867,6|8,1:2|0:2,0:0:0:0:
199,178,55783,2,0,P|180:127|193:69,1,110.000003356934,2|0,0:2|0:0,0:0:0:0:
328,21,56128,1,0,1:2:0:0:
383,221,56300,2,0,L|362:333,1,110.000003356934,10|0,0:2|0:0,0:0:0:0:
163,245,56645,5,0,1:2:0:0:
383,221,56817,1,2,0:2:0:0:
131,251,56990,1,8,0:2:0:0:
306,360,57162,1,0,0:0:0:0:
61,196,57334,2,0,P|34:137|33:86,1,110.000003356934,2|0,0:2|1:2,0:0:0:0:
297,28,57679,2,0,P|297:82|277:133,1,110.000003356934,10|0,0:2|1:2,0:0:0:0:
200,69,57938,1,0,1:2:0:0:
200,69,58024,6,0,L|425:106,1,220.000006713867,2|8,1:2|0:2,0:0:0:0:
504,210,58541,2,0,P|437:214|401:246,1,110.000003356934,2|0,0:2|0:0,0:0:0:0:
487,339,58886,1,0,1:2:0:0:
312,168,59059,2,0,P|282:227|292:275,1,110.000003356934,10|0,0:2|0:0,0:0:0:0:
412,107,59403,5,0,1:2:0:0:
231,72,59576,1,2,0:2:0:0:
490,38,59748,2,0,B|514:72|514:72|506:150,1,110.000003356934,8|0,0:2|0:0,0:0:0:0:
376,349,60093,1,2,0:2:0:0:
195,165,60265,1,8,0:2:0:0:
507,140,60438,1,10,0:2:0:0:
378,374,60610,1,8,0:2:0:0:
109,216,60783,6,0,P|99:165|129:92,1,110.000003356934,0|2,1:2|0:2,0:0:0:0:
395,79,61128,1,10,0:2:0:0:
195,165,61300,1,2,0:2:0:0:
419,67,61472,1,2,0:2:0:0:
149,13,61645,1,2,1:2:0:0:
309,190,61817,2,0,P|318:243|302:295,1,110.000003356934,10|0,0:2|0:0,0:0:0:0:
109,216,62162,6,0,L|220:234,1,110.000003356934,2|0,1:2|0:2,0:0:0:0:
419,67,62507,2,0,L|308:85,1,110.000003356934,10|0,0:2|0:0,0:0:0:0:
150,317,62852,1,2,0:2:0:0:
309,190,63024,1,0,1:2:0:0:
40,86,63196,2,0,P|19:152|27:199,1,110.000003356934,10|0,0:2|0:0,0:0:0:0:
150,317,63541,6,0,B|241:337|241:337|284:317|284:317|376:339,1,220.000006713867,2|8,1:2|0:2,0:0:0:0:
191,214,64059,2,0,L|80:228,1,110.000003356934,2|0,0:2|0:0,0:0:0:0:
283,353,64403,1,0,1:2:0:0:
356,162,64576,2,0,P|359:104|333:43,1,110.000003356934,10|0,0:2|0:0,0:0:0:0:
166,125,64921,5,0,1:2:0:0:
378,175,65093,1,2,0:2:0:0:
81,227,65265,2,0,B|66:192|66:192|75:111,1,110.000003356934,8|0,0:2|1:2,0:0:0:0:
86,36,65524,1,8,0:2:0:0:
86,36,65610,2,0,L|147:28,1,55.0000016784668,2|0,0:2|0:0,0:0:0:0:
238,225,65783,2,0,L|177:217,1,55.0000016784668,0|0,1:2|0:0,0:0:0:0:
331,38,65955,2,0,B|449:25|449:25|419:41|401:84,1,165.000005035401,10|0,0:2|0:0,0:0:0:0:
370,124,66300,6,0,P|445:132|366:198,1,220.000006713867,6|8,1:2|0:2,0:0:0:0:
230,97,66817,2,0,P|170:88|115:105,1,110.000003356934,2|0,0:2|0:0,0:0:0:0:
271,284,67162,1,0,1:2:0:0:
370,124,67334,2,0,L|356:14,1,110.000003356934,10|0,0:2|0:0,0:0:0:0:
181,190,67679,5,0,1:2:0:0:
445,167,67852,1,2,0:2:0:0:
150,169,68024,1,8,0:2:0:0:
295,370,68196,1,0,0:0:0:0:
334,104,68369,2,0,P|287:80|232:84,1,110.000003356934,2|0,0:2|1:2,0:0:0:0:
345,295,68714,2,0,P|399:299|447:275,1,110.000003356934,10|0,0:2|1:2,0:0:0:0:
382,209,68972,1,0,1:2:0:0:
382,209,69059,6,0,B|325:184|325:184|157:205,1,220.000006713867,2|8,1:2|0:2,0:0:0:0:
21,96,69576,2,0,L|136:114,1,110.000003356934,2|0,0:2|0:0,0:0:0:0:
252,228,69921,1,0,1:2:0:0:
23,328,70093,2,0,P|12:266|40:203,1,110.000003356934,10|0,0:2|0:0,0:0:0:0:
394,184,70438,5,0,1:2:0:0:
104,279,70610,1,2,0:2:0:0:
334,361,70783,2,0,P|348:308|337:255,1,110.000003356934,10|0,0:2|0:0,0:0:0:0:
104,279,71128,1,2,0:2:0:0:
394,184,71300,1,8,0:2:0:0:
29,110,71472,1,10,0:2:0:0:
336,254,71645,1,8,0:2:0:0:
136,137,71817,6,0,P|134:73|160:21,1,110.000003356934,0|2,1:2|0:2,0:0:0:0:
303,163,72162,1,10,0:2:0:0:
193,323,72334,1,2,0:2:0:0:
136,137,72507,1,2,0:2:0:0:
294,378,72679,1,2,1:2:0:0:
370,95,72852,2,0,B|320:69|320:69|251:78,1,110.000003356934,10|0,0:2|0:0,0:0:0:0:
397,255,73196,6,0,L|522:241,1,110.000003356934,2|0,1:2|0:2,0:0:0:0:
193,323,73541,2,0,L|68:309,1,110.000003356934,10|0,0:2|0:0,0:0:0:0:
282,47,73886,1,2,0:2:0:0:
347,343,74059,1,0,1:2:0:0:
138,223,74231,2,0,P|103:179|101:117,1,110.000003356934,10|0,0:2|0:0,0:0:0:0:
201,147,74490,1,0,0:0:0:0:
201,147,74576,6,0,L|155:368,1,220.000006713867,2|8,1:2|0:2,0:0:0:0:
285,251,75093,2,0,P|335:230|389:239,1,110.000003356934,2|0,0:2|0:0,0:0:0:0:
156,362,75438,1,0,1:2:0:0:
92,206,75610,2,0,P|52:168|0:158,1,110.000003356934,10|0,0:2|0:0,0:0:0:0:
327,63,75955,5,0,1:2:0:0:
112,105,76128,1,2,0:2:0:0:
386,198,76300,2,0,B|411:170|411:170|425:90,1,110.000003356934,8|0,0:2|1:2,0:0:0:0:
327,63,76559,1,8,0:2:0:0:
327,63,76645,2,0,L|319:124,1,55.0000016784668,2|0,0:2|0:0,0:0:0:0:
498,268,76817,2,0,L|490:207,1,55.0000016784668,0|0,1:2|0:0,0:0:0:0:
297,251,76990,2,0,B|257:303|283:372|283:372|284:348|302:329,1,165.000005035401,10|0,0:2|0:0,0:0:0:0:
386,198,77334,6,0,P|302:153|195:222,1,225.000008583069,4|0,1:2|0:0,0:0:0:0:
479,61,78196,1,2,0:2:0:0:
297,251,78541,2,0,B|213:243|166:182|166:182|144:254|40:285,1,300.000011444092,2|0,0:2|0:0,0:0:0:0:
183,359,79403,1,2,0:2:0:0:
284,127,79576,1,2,1:2:0:0:
284,127,79662,1,0,1:2:0:0:
284,127,79748,2,0,L|270:39,1,75.0000028610231,14|2,0:2|0:2,0:0:0:0:
200,219,80093,6,0,P|280:164|395:212,1,220.000006713867,4|10,1:2|0:2,0:0:0:0:
301,281,80610,1,2,0:0:0:0:
121,161,80783,2,0,L|103:46,2,110.000003356934,0|0|10,0:0|1:2|0:2,0:0:0:0:
148,362,81300,1,2,0:0:0:0:
301,281,81472,5,0,1:2:0:0:
121,161,81645,1,2,0:0:0:0:
407,93,81817,2,0,P|418:150|398:211,1,110.000003356934,8|0,0:2|0:0,0:0:0:0:
261,300,82162,1,2,0:2:0:0:
176,68,82334,1,10,0:0:0:0:
257,333,82507,1,10,0:2:0:0:
407,93,82679,1,8,0:2:0:0:
87,239,82852,6,0,P|143:267|206:262,1,110.000003356934,0|2,1:2|0:0,0:0:0:0:
185,24,83196,1,10,0:2:0:0:
38,141,83369,1,2,0:0:0:0:
275,197,83541,1,2,0:0:0:0:
7,134,83714,1,2,1:2:0:0:
312,68,83886,2,0,P|366:69|414:95,1,110.000003356934,10|0,0:2|0:0,0:0:0:0:
171,280,84231,6,0,L|153:149,1,110.000003356934,2|0,1:2|0:0,0:0:0:0:
416,271,84576,2,0,L|398:402,1,110.000003356934,10|0,0:2|0:0,0:0:0:0:
156,171,84921,1,2,0:0:0:0:
414,95,85093,1,0,1:2:0:0:
121,162,85265,1,10,0:2:0:0:
416,272,85438,1,0,0:0:0:0:
137,369,85610,6,0,B|100:311|100:311|121:156,1,220.000006713867,2|8,1:2|0:2,0:0:0:0:
318,214,86128,2,0,P|264:253|201:255,1,110.000003356934,2|0,0:0|0:0,0:0:0:0:
190,70,86472,1,0,1:2:0:0:
424,167,86645,2,0,P|431:233|402:288,1,110.000003356934,10|0,0:2|0:0,0:0:0:0:
196,180,86990,5,0,1:2:0:0:
449,163,87162,1,2,0:0:0:0:
235,345,87334,2,0,L|123:325,1,110.000003356934,8|0,0:2|1:2,0:0:0:0:
42,310,87593,1,8,0:2:0:0:
42,310,87679,2,0,P|31:271|33:249,1,55.0000016784668,2|0,0:2|0:0,0:0:0:0:
288,167,87852,2,0,P|287:194|277:220,1,55.0000016784668,0|0,1:2|0:0,0:0:0:0:
121,83,88024,2,0,L|314:62,1,165.000005035401,10|0,0:2|0:0,0:0:0:0:
380,26,88369,6,0,B|409:88|391:155|391:155|365:111|372:56,1,220.000006713867,2|8,1:2|0:2,0:0:0:0:
449,245,88886,2,0,P|382:258|325:241,1,110.000003356934,0|0,0:0|0:0,0:0:0:0:
114,49,89231,1,2,1:2:0:0:
141,266,89403,1,8,0:2:0:0:
303,32,89576,6,0,B|382:20|382:20|426:82|387:166,1,220.000006713867,2|0,0:0|0:0,0:0:0:0:
245,281,90093,2,0,P|182:259|125:272,1,110.000003356934,8|2,0:2|0:0,0:0:0:0:
227,112,90438,1,2,0:0:0:0:
177,363,90610,1,2,1:2:0:0:
26,147,90783,1,10,0:2:0:0:
181,28,90955,6,0,B|241:9|288:43|288:43|333:78|401:53,1,220.000006713867,2|0,0:0|0:0,0:0:0:0:
183,268,91472,1,10,0:2:0:0:
26,147,91645,2,0,P|6:205|18:270,1,110.000003356934,2|0,0:0|0:0,0:0:0:0:
177,363,91990,1,0,1:2:0:0:
227,112,92162,1,10,0:2:0:0:
90,313,92334,1,2,0:0:0:0:
310,166,92507,6,0,L|430:158,2,110.000003356934,0|2|8,1:2|0:0|0:2,0:0:0:0:
183,268,93024,1,0,0:0:0:0:
78,78,93196,1,2,0:0:0:0:
419,158,93369,1,8,0:2:0:0:
90,313,93541,1,10,0:2:0:0:
310,166,93714,1,8,0:2:0:0:
78,78,93886,6,0,P|61:140|78:190,1,110.000003356934,0|2,1:2|0:0,0:0:0:0:
234,319,94231,1,10,0:2:0:0:
272,72,94403,1,2,0:0:0:0:
230,349,94576,1,2,0:0:0:0:
159,131,94748,1,2,1:2:0:0:
399,115,94921,2,0,P|411:167|394:219,1,110.000003356934,10|0,0:2|0:0,0:0:0:0:
139,333,95265,6,0,L|19:313,1,110.000003356934,2|0,1:2|0:0,0:0:0:0:
159,131,95610,2,0,L|275:118,1,110.000003356934,10|0,0:2|0:0,0:0:0:0:
102,230,95955,1,2,0:0:0:0:
87,36,96128,1,0,1:2:0:0:
284,237,96300,2,0,P|290:291|276:344,1,110.000003356934,10|0,0:2|0:0,0:0:0:0:
159,131,96645,6,0,B|252:126|252:126|288:96|288:96|382:93,1,220.000006713867,2|8,1:2|0:2,0:0:0:0:
178,266,97162,2,0,P|113:259|32:130,1,220.000006713867,2|0,0:0|1:2,0:0:0:0:
319,59,97679,6,0,B|311:-34|164:11|264:135,1,220.000006713867,10|0,0:2|0:0,0:0:0:0:
387,237,98196,2,0,B|327:218|280:252|280:252|235:287|167:262,1,220.000006713867,2|0,1:2|0:0,0:0:0:0:
319,59,98714,2,0,P|374:105|393:148,1,110.000003356934,2|0,1:2|0:0,0:0:0:0:
77,297,99059,2,0,P|89:226|117:188,1,110.000003356934,2|0,1:2|0:0,0:0:0:0:
379,378,99403,5,6,1:2:0:0:
