osu file format v14

[General]
AudioFilename: audio.mp3
AudioLeadIn: 0
PreviewTime: 77248
Countdown: 0
SampleSet: Normal
StackLeniency: 1
Mode: 1
LetterboxInBreaks: 0
WidescreenStoryboard: 1

[Editor]
DistanceSpacing: 1.1
BeatDivisor: 4
GridSize: 4
TimelineZoom: 1

[Metadata]
Title:Take You Down
TitleUnicode:Take You Down
Artist:Fox Stevenson
ArtistUnicode:Fox Stevenson
Creator:A r M i N
Version:Kantan
Source:
Tags:english dnb drum and bass liquicity electronic short version cut stan sb edm Armin A_r_m_i_n Nao Tomori Naotoshi Capu Xen Xenon- Xehn Daycore Stixy NeoSkyLove NeoSL Affirmation Plaudible schoolboy Komore Kujinn Reform
BeatmapID:2422358
BeatmapSetID:1098490

[Difficulty]
HPDrainRate:9
CircleSize:4
OverallDifficulty:3
ApproachRate:9
SliderMultiplier:1.40000000596046
SliderTickRate:1

[Events]
//Background and Video events
0,0,"f0x.jpg",0,-100
//Break Periods
//Storyboard Layer 0 (Background)
//Storyboard Layer 1 (Fail)
//Storyboard Layer 2 (Pass)
//Storyboard Layer 3 (Foreground)
//Storyboard Layer 4 (Overlay)
//Storyboard Sound Samples

[TimingPoints]
93,344.827586206897,4,1,0,50,1,0
11128,-100,4,1,0,75,0,0
33196,-100,4,1,0,90,0,0
43886,-100,4,1,0,90,0,0
44231,-100,4,1,0,90,0,0
49748,-100,4,1,0,90,0,0
54748,-100,4,1,0,90,0,0
55265,-100,4,1,0,90,0,1
60783,-100,4,1,0,90,0,1
61128,-100,4,1,0,90,0,1
71817,-100,4,1,0,90,0,1
72162,-100,4,1,0,90,0,1
77334,-100,4,1,0,90,0,0
80093,-100,4,1,0,90,0,0
82852,-100,4,1,0,90,0,0
83196,-100,4,1,0,90,0,0
93886,-100,4,1,0,90,0,0
94231,-100,4,1,0,90,0,0
99403,-100,4,1,0,90,0,0

[Colours]
Combo1 : 101,98,238
Combo2 : 255,213,234
Combo3 : 168,236,204
Combo4 : 187,238,255
Combo5 : 232,222,187
Combo6 : 255,70,70
Combo7 : 191,91,234
Combo8 : 235,112,65

[HitObjects]
252,191,11127,5,4,0:0:0:0:
144,105,12161,1,8,0:0:0:0:
251,162,12506,1,0,0:0:0:0:
232,208,13195,1,0,0:0:0:0:
232,208,13885,1,8,0:0:0:0:
232,208,14402,1,0,0:0:0:0:
285,133,17333,1,8,0:0:0:0:
279,136,17851,1,8,0:0:0:0:
85,123,18713,1,0,0:0:0:0:
53,98,19402,1,8,0:0:0:0:
208,131,22161,1,0,0:0:0:0:
332,197,23023,1,8,0:0:0:0:
183,199,23368,1,0,0:0:0:0:
189,190,24230,1,8,0:0:0:0:
189,190,24747,1,8,0:0:0:0:
189,190,26127,1,0,0:0:0:0:
199,142,28368,1,8,0:0:0:0:
199,142,28885,1,8,0:0:0:0:
199,142,29747,1,0,0:0:0:0:
200,148,30437,1,8,0:0:0:0:
256,192,30954,12,0,32678,0:0:0:0:
212,161,33195,5,4,0:0:0:0:
166,169,34058,1,8,0:0:0:0:
174,174,34402,1,0,0:0:0:0:
226,177,35264,1,8,0:0:0:0:
226,177,35782,1,8,0:0:0:0:
246,211,36471,1,8,0:0:0:0:
246,211,37161,1,0,0:0:0:0:
246,211,37506,1,0,0:0:0:0:
147,151,39058,1,8,0:0:0:0:
246,211,39402,1,0,0:0:0:0:
246,211,40092,1,8,0:0:0:0:
246,211,40782,1,8,0:0:0:0:
246,211,41471,1,0,0:0:0:0:
267,126,41989,1,8,0:0:0:0:
191,147,42506,1,8,0:0:0:0:
249,191,43023,1,0,0:0:0:0:
249,191,43885,1,12,0:0:0:0:
249,191,44230,1,4,0:0:0:0:
300,223,45437,1,0,0:0:0:0:
246,159,46299,1,0,0:0:0:0:
246,159,46816,1,8,0:0:0:0:
239,146,47506,1,8,0:0:0:0:
239,146,48195,1,0,0:0:0:0:
239,146,48540,1,0,0:0:0:0:
136,149,49747,1,0,0:0:0:0:
216,168,50092,1,0,0:0:0:0:
216,168,50437,1,0,0:0:0:0:
150,171,51127,1,8,0:0:0:0:
188,184,51471,1,8,0:0:0:0:
188,184,51816,1,8,0:0:0:0:
227,201,52506,1,0,0:0:0:0:
227,201,53023,1,8,0:0:0:0:
227,201,53540,1,8,0:0:0:0:
227,201,54058,1,0,0:0:0:0:
227,201,55264,1,4,0:0:0:0:
298,182,55782,1,8,0:0:0:0:
298,182,56299,1,8,0:0:0:0:
298,182,56816,1,0,0:0:0:0:
288,190,57333,1,8,0:0:0:0:
298,182,57678,1,0,0:0:0:0:
288,190,58023,1,0,0:0:0:0:
288,190,58540,1,8,0:0:0:0:
288,190,59058,1,0,0:0:0:0:
288,190,59575,1,0,0:0:0:0:
288,190,60092,1,8,0:0:0:0:
288,190,60437,1,8,0:0:0:0:
272,186,60782,1,0,0:0:0:0:
198,168,61816,1,8,0:0:0:0:
198,168,62161,1,0,0:0:0:0:
160,157,62851,1,8,0:0:0:0:
160,157,63195,1,0,0:0:0:0:
198,168,63540,1,0,0:0:0:0:
175,152,64058,1,8,0:0:0:0:
122,158,64575,1,0,0:0:0:0:
122,158,65092,1,0,0:0:0:0:
110,158,65609,1,8,0:0:0:0:
109,158,65954,1,0,0:0:0:0:
227,201,66299,1,4,0:0:0:0:
298,182,67334,1,8,0:0:0:0:
298,182,67851,1,0,0:0:0:0:
288,190,68368,1,8,0:0:0:0:
298,182,68713,1,0,0:0:0:0:
288,190,69058,1,0,0:0:0:0:
288,190,69575,1,8,0:0:0:0:
288,190,70093,1,0,0:0:0:0:
288,190,70610,1,0,0:0:0:0:
288,190,71127,1,8,0:0:0:0:
288,190,71472,1,8,0:0:0:0:
272,186,71817,1,0,0:0:0:0:
198,168,72851,1,8,0:0:0:0:
198,168,73196,1,0,0:0:0:0:
160,157,73886,1,8,0:0:0:0:
160,157,74230,1,0,0:0:0:0:
198,168,74575,1,0,0:0:0:0:
175,152,75093,1,8,0:0:0:0:
122,158,75610,1,0,0:0:0:0:
122,158,76127,1,0,0:0:0:0:
110,158,76644,1,8,0:0:0:0:
109,158,76989,1,0,0:0:0:0:
258,192,77333,1,4,0:0:0:0:
210,170,79747,1,0,0:0:0:0:
251,195,80092,1,12,0:0:0:0:
250,186,80609,1,8,0:0:0:0:
268,190,81299,1,0,0:0:0:0:
268,190,81644,1,0,0:0:0:0:
257,190,82161,1,8,0:0:0:0:
255,190,82506,1,8,0:0:0:0:
257,190,82851,1,0,0:0:0:0:
246,211,83540,1,0,0:0:0:0:
173,122,83885,1,0,0:0:0:0:
246,211,84230,1,8,0:0:0:0:
246,211,84920,1,8,0:0:0:0:
221,91,85264,1,8,0:0:0:0:
246,211,85609,1,0,0:0:0:0:
191,147,86644,1,8,0:0:0:0:
249,191,87161,1,0,0:0:0:0:
191,137,87678,1,8,0:0:0:0:
249,191,88023,1,8,0:0:0:0:
249,191,88368,1,4,0:0:0:0:
295,119,89230,1,8,0:0:0:0:
209,120,89575,1,0,0:0:0:0:
243,153,90437,1,0,0:0:0:0:
243,153,90954,1,8,0:0:0:0:
243,153,91644,1,8,0:0:0:0:
243,153,92333,1,0,0:0:0:0:
243,153,92678,1,0,0:0:0:0:
203,190,93885,1,0,0:0:0:0:
129,174,94575,1,0,0:0:0:0:
254,185,94920,1,0,0:0:0:0:
183,94,95264,1,8,0:0:0:0:
183,94,95954,1,8,0:0:0:0:
250,195,96299,1,8,0:0:0:0:
253,106,96644,1,0,0:0:0:0:
278,150,97161,1,8,0:0:0:0:
270,145,97678,1,8,0:0:0:0:
270,145,98195,1,0,0:0:0:0:
209,92,98713,1,8,0:0:0:0:
209,92,99058,1,8,0:0:0:0:
209,92,99402,1,0,0:0:0:0:
