osu file format v14

[General]
AudioFilename: audio.mp3
AudioLeadIn: 0
PreviewTime: 77248
Countdown: 0
SampleSet: Soft
StackLeniency: 0.7
Mode: 0
LetterboxInBreaks: 0
WidescreenStoryboard: 0

[Editor]
DistanceSpacing: 0.6
BeatDivisor: 4
GridSize: 8
TimelineZoom: 1

[Metadata]
Title:Take You Down
TitleUnicode:Take You Down
Artist:Fox Stevenson
ArtistUnicode:Fox Stevenson
Creator:A r M i N
Version:Expert
Source:
Tags:english dnb drum and bass liquicity electronic short version cut stan sb edm Armin A_r_m_i_n Nao Tomori Naotoshi Capu Xen Xenon- Xehn Daycore Stixy NeoSkyLove NeoSL Affirmation Plaudible schoolboy Komore Kujinn Reform
BeatmapID:2295086
BeatmapSetID:1098490

[Difficulty]
HPDrainRate:6
CircleSize:3.8
OverallDifficulty:8.8
ApproachRate:9.2
SliderMultiplier:1.8
SliderTickRate:1

[Events]
//Background and Video events
0,0,"f0x.jpg",0,0
//Break Periods
//Storyboard Layer 0 (Background)
//Storyboard Layer 1 (Fail)
//Storyboard Layer 2 (Pass)
//Storyboard Layer 3 (Foreground)
//Storyboard Layer 4 (Overlay)
//Storyboard Sound Samples

[TimingPoints]
93,344.827586206897,4,2,2,50,1,0
11128,-125,4,2,2,50,0,0
33196,-111.111111111111,4,2,2,60,0,0
43886,-76.9230769230769,4,2,1,70,0,0
44231,-100,4,2,1,70,0,0
54748,-100,4,2,2,60,0,0
55265,-90.9090909090909,4,2,1,80,0,1
60265,-90.9090909090909,4,2,2,80,0,1
60782,-90.9090909090909,4,2,1,80,0,1
60783,-90.9090909090909,4,2,1,80,0,1
71299,-90.9090909090909,4,2,2,80,0,1
71300,-90.9090909090909,4,2,2,80,0,1
71817,-90.9090909090909,4,2,1,80,0,1
77334,-125,4,2,1,60,0,0
80093,-83.3333333333333,4,2,1,80,0,1
82334,-83.3333333333333,4,2,2,80,0,1
82851,-83.3333333333333,4,2,1,80,0,1
93368,-83.3333333333333,4,2,2,80,0,1
93886,-83.3333333333333,4,2,1,80,0,1
99403,-83.3333333333333,4,2,1,50,0,0

[Colours]
Combo1 : 101,98,238
Combo2 : 255,213,234
Combo3 : 168,236,204
Combo4 : 187,238,255
Combo5 : 232,222,187
Combo6 : 255,70,70
Combo7 : 191,91,234
Combo8 : 235,112,65

[HitObjects]
22,216,11128,6,0,B|168:154|138:323|284:262,1,288,4|0,1:2|0:0,0:0:0:0:
387,33,12162,6,0,L|400:111,1,72,2|0,0:2|0:0,0:0:0:0:
501,154,12507,2,0,B|477:147|454:130|454:130|352:177|352:177|329:161|305:154,1,216,2|0,0:2|0:0,0:0:0:0:
175,83,13196,2,0,P|189:116|200:151,1,72,2|0,0:2|0:0,0:0:0:0:
81,284,13541,2,0,P|90:249|104:216,1,72,2|0,0:2|0:2,0:0:0:0:
318,320,13886,6,0,P|248:320|206:264,1,144,2|2,0:2|0:2,0:0:0:0:
384,239,14403,2,0,B|433:291|433:291|414:362,1,144,2|0,0:2|0:0,0:0:0:0:
287,197,14921,6,0,L|310:54,1,144,2|0,0:0|0:0,0:0:0:0:
498,38,15438,2,0,L|475:181,1,144,2|0,0:0|0:0,0:0:0:0:
432,332,15955,5,2,0:0:0:0:
384,239,16128,1,0,0:0:0:0:
446,343,16300,1,2,0:0:0:0:
398,250,16472,1,0,0:0:0:0:
264,344,16645,6,0,B|190:360|200:303|127:319,1,144,2|2,0:0|0:2,0:0:0:0:
38,154,17162,1,2,0:2:0:0:
23,258,17334,2,0,P|91:235|174:210,1,144,2|2,0:2|0:2,0:0:0:0:
321,83,17852,6,0,B|370:135|370:135|351:206,1,144,2|2,0:2|0:2,0:0:0:0:
359,317,18369,2,0,P|391:301|425:289,1,72,2|0,0:2|0:0,0:0:0:0:
254,165,18714,2,0,P|223:187|214:288,2,144,2|2|2,0:2|0:2|0:2,0:0:0:0:
461,158,22162,6,0,B|401:142|401:142|357:190|357:190|313:198|273:166,1,216,2|2,0:0|0:0,0:0:0:0:
104,35,23024,6,0,P|120:65|135:108,1,72,2|0,0:2|0:0,0:0:0:0:
16,218,23369,2,0,B|24:186|48:163|48:163|96:215|153:203|153:203|170:232|170:232|207:229|235:257,1,288,2|0,0:2|0:0,0:0:0:0:
362,309,24231,2,0,P|345:340|332:374,2,72,2|2|2,0:2|0:2|0:2,0:0:0:0:
507,163,24748,6,0,B|446:131|391:157|391:157|406:106|368:29|368:29|294:74|279:125|279:125|248:74|179:69,1,504,2|2,0:2|0:2,0:0:0:0:
70,227,26128,2,0,P|137:237|180:183,1,144,2|0,0:2|0:0,0:0:0:0:
96,10,26645,6,0,P|81:41|80:85,1,72,2|0,0:0|0:0,0:0:0:0:
182,68,26990,2,0,P|197:36|199:0,1,72,2|0,0:0|0:0,0:0:0:0:
138,165,27334,2,0,L|161:273,1,108,2|0,0:0|0:0,0:0:0:0:
139,302,27679,6,0,B|251:264|231:375|339:339,1,216,2|2,0:0|0:2,0:0:0:0:
488,210,28369,1,2,0:2:0:0:
368,191,28541,2,0,P|381:224|392:258,1,72,2|0,0:2|0:0,0:0:0:0:
463,97,28886,6,0,P|410:51|340:59,1,144,2|2,0:2|0:2,0:0:0:0:
177,23,29403,2,0,P|194:54|203:89,1,72,2|0,0:2|0:0,0:0:0:0:
86,238,29748,2,0,B|133:184|133:184|199:213,2,144,2|2|2,0:2|0:2|0:2,0:0:0:0:
256,192,30955,12,0,32507,0:0:0:0:
497,82,32679,5,8,0:2:0:0:
474,186,32852,1,8,0:2:0:0:
451,290,33024,1,8,0:2:0:0:
312,136,33196,6,0,B|228:114|241:184|157:163,1,161.999995056153,4|8,1:2|0:2,0:0:0:0:
53,19,33714,2,0,P|77:50|83:90,1,80.9999975280763,0|0,0:0|0:0,0:0:0:0:
10,254,34059,6,0,P|25:216|56:191,1,80.9999975280763,2|8,0:2|0:2,0:0:0:0:
237,325,34403,2,0,P|161:340|110:281,1,161.999995056153,2|0,0:2|0:0,0:0:0:0:
319,258,34921,2,0,P|338:294|343:343,1,80.9999975280763,8|0,0:2|0:0,0:0:0:0:
254,144,35265,5,2,0:2:0:0:
429,219,35438,1,2,0:2:0:0:
237,325,35610,1,10,0:2:0:0:
456,204,35783,6,0,B|456:149|418:114|418:114|436:99|460:94|460:94|428:54|436:5,1,242.999992584229,2|10,0:2|0:2,0:0:0:0:
254,144,36472,2,0,B|194:165|151:118|151:118|141:132|141:132|98:84|39:106,1,242.999992584229,2|10,0:2|0:2,0:0:0:0:
297,44,37162,2,0,P|352:100|358:179,1,161.999995056153,2|2,0:2|0:2,0:0:0:0:
439,339,37679,6,0,L|359:355,1,80.9999975280763,8|0,0:2|0:0,0:0:0:0:
176,235,38024,2,0,B|251:206|251:206|296:273,2,161.999995056153,2|8|0,0:0|0:2|0:0,0:0:0:0:
211,334,38886,5,2,0:2:0:0:
88,173,39059,2,0,P|72:210|63:249,1,80.9999975280763,10|2,0:2|0:2,0:0:0:0:
213,27,39403,5,2,0:2:0:0:
0,121,39576,1,2,0:2:0:0:
216,221,39748,2,0,P|223:162|180:123,1,121.499996292114,10|0,0:2|0:0,0:0:0:0:
88,173,40093,6,0,L|109:251,1,80.9999975280763,2|0,0:2|0:0,0:0:0:0:
290,357,40438,2,0,L|311:279,1,80.9999975280763,10|0,0:2|0:0,0:0:0:0:
410,61,40783,6,0,P|370:63|336:85,1,80.9999975280763,2|0,0:2|0:0,0:0:0:0:
432,286,41128,2,0,P|471:283|505:261,1,80.9999975280763,10|0,0:2|0:0,0:0:0:0:
252,246,41472,6,0,B|169:266|182:196|98:218,1,161.999995056153,2|8,0:2|0:2,0:0:0:0:
312,160,41990,2,0,B|379:205|379:205|350:280,1,161.999995056153,2|0,0:0|0:0,0:0:0:0:
212,129,42507,6,0,P|256:64|334:58,1,161.999995056153,10|0,0:2|0:0,0:0:0:0:
232,236,43024,2,0,P|187:171|109:165,1,161.999995056153,2|0,0:0|0:0,0:0:0:0:
0,318,43541,2,0,P|38:304|77:297,1,80.9999975280763,2|0,0:0|0:0,0:0:0:0:
357,368,43886,6,0,P|363:312|373:251,1,116.999994644165,10|0,0:2|1:2,0:0:0:0:
435,190,44145,1,0,1:2:0:0:
454,225,44231,6,0,B|419:218|394:202|394:202|344:217|344:217|319:201|285:195,1,180,6|8,1:2|0:2,0:0:0:0:
150,334,44748,2,0,P|191:315|235:306,1,90,0|0,0:0|0:0,0:0:0:0:
195,118,45093,2,0,P|176:158|166:202,1,90,2|8,1:2|0:2,0:0:0:0:
58,115,45438,1,2,0:2:0:0:
274,29,45610,6,0,P|341:83|333:169,1,180,0|8,1:2|0:2,0:0:0:0:
144,256,46128,1,2,0:2:0:0:
229,186,46300,2,0,P|243:228|254:272,1,90,2|2,0:2|1:2,0:0:0:0:
82,170,46645,1,10,0:2:0:0:
275,80,46817,1,2,0:2:0:0:
128,17,46990,6,0,B|219:-10|205:74|296:46,1,180,0|10,1:2|0:2,0:0:0:0:
472,191,47507,2,0,B|457:157|425:144|425:144|315:177,1,180,2|0,0:2|1:2,0:0:0:0:
124,262,48024,1,10,0:2:0:0:
198,181,48196,6,0,P|218:220|233:263,1,90,2|0,0:2|1:2,0:0:0:0:
47,160,48541,2,0,P|61:117|82:77,1,90,2|8,0:2|0:2,0:0:0:0:
69,49,49059,5,2,0:0:0:0:
207,151,49231,1,0,1:2:0:0:
48,320,49403,2,0,P|90:306|134:295,1,90,8|0,0:2|0:0,0:0:0:0:
311,157,49748,6,0,L|298:248,1,90,4|2,1:2|0:2,0:0:0:0:
446,165,50093,1,2,1:2:0:0:
249,71,50265,1,2,0:2:0:0:
402,262,50438,1,2,1:2:0:0:
495,42,50610,1,2,0:2:0:0:
385,299,50783,2,0,B|315:283|325:337|255:321,1,135,2|0,1:2|0:0,0:0:0:0:
128,280,51128,6,0,P|145:321|156:365,1,90,2|0,1:2|0:0,0:0:0:0:
301,132,51472,2,0,P|283:174|273:218,1,90,2|0,1:2|0:0,0:0:0:0:
58,185,51817,6,0,P|101:172|143:157,1,90,2|0,1:2|0:0,0:0:0:0:
344,348,52162,2,0,P|300:335|258:320,1,90,2|0,1:2|0:0,0:0:0:0:
194,56,52507,5,14,0:2:0:0:
355,175,52679,1,8,0:2:0:0:
151,276,52852,1,8,0:2:0:0:
323,75,53024,1,10,0:2:0:0:
449,315,53196,5,8,0:2:0:0:
196,168,53369,1,8,0:2:0:0:
448,15,53541,1,10,0:2:0:0:
322,320,53714,1,8,0:2:0:0:
208,7,53886,5,8,0:2:0:0:
499,194,54059,1,10,0:2:0:0:
217,328,54231,1,8,0:2:0:0:
362,15,54403,1,8,0:2:0:0:
481,295,54576,5,0,1:2:0:0:
249,169,54748,5,8,0:2:0:0:
347,133,54921,1,8,0:2:0:0:
445,97,55093,1,8,0:2:0:0:
160,54,55265,6,0,P|88:116|104:210,1,198.000006042481,6|8,1:2|0:2,0:0:0:0:
342,112,55783,2,0,L|320:15,1,99.0000030212403,2|0,0:2|0:0,0:0:0:0:
194,154,56128,1,0,1:2:0:0:
421,180,56300,2,0,P|441:145|442:80,1,99.0000030212403,10|0,0:2|0:0,0:0:0:0:
288,205,56645,5,0,1:2:0:0:
512,306,56817,1,2,0:2:0:0:
342,112,56990,1,8,0:2:0:0:
226,331,57162,1,0,0:0:0:0:
360,77,57334,2,0,L|456:55,1,99.0000030212403,2|0,0:2|1:2,0:0:0:0:
339,253,57679,2,0,L|242:230,1,99.0000030212403,10|0,0:2|1:2,0:0:0:0:
146,7,58024,6,0,B|180:27|198:59|198:59|146:171,1,198.000006042481,2|8,1:2|0:2,0:0:0:0:
350,302,58541,2,0,L|328:205,1,99.0000030212403,2|0,0:2|0:0,0:0:0:0:
179,339,58886,1,0,1:2:0:0:
429,371,59059,2,0,P|449:336|450:271,1,99.0000030212403,10|0,0:2|0:0,0:0:0:0:
271,89,59403,5,0,1:2:0:0:
350,302,59576,1,2,0:2:0:0:
258,51,59748,1,8,0:2:0:0:
153,237,59921,1,0,0:0:0:0:
386,120,60093,1,2,0:2:0:0:
117,92,60265,5,8,0:2:0:0:
297,208,60438,1,10,0:2:0:0:
90,337,60610,1,8,0:2:0:0:
330,186,60783,6,0,L|427:208,1,99.0000030212403,0|2,1:2|0:2,0:0:0:0:
258,51,61128,1,10,0:2:0:0:
166,251,61300,1,2,0:2:0:0:
357,85,61472,1,2,0:2:0:0:
376,302,61645,1,2,1:2:0:0:
258,51,61817,2,0,L|161:73,1,99.0000030212403,10|0,0:2|0:0,0:0:0:0:
436,154,62162,6,0,P|456:119|457:54,1,99.0000030212403,2|0,1:2|0:2,0:0:0:0:
255,217,62507,2,0,P|255:266|277:309,1,99.0000030212403,10|0,0:2|0:0,0:0:0:0:
452,267,62852,6,0,P|405:252|357:241,1,99.0000030212403,2|0,0:2|1:2,0:0:0:0:
161,72,63196,2,0,P|208:57|256:45,1,99.0000030212403,10|0,0:2|0:0,0:0:0:0:
109,209,63541,6,0,P|37:147|55:55,1,198.000006042481,2|8,1:2|0:2,0:0:0:0:
222,193,64058,2,0,P|206:239|194:292,1,99.0000030212403,2|0,0:2|0:0,0:0:0:0:
130,117,64403,1,0,1:2:0:0:
358,165,64576,2,0,P|369:213|385:259,1,99.0000030212403,10|0,0:2|0:0,0:0:0:0:
265,42,64921,5,0,1:2:0:0:
502,139,65093,1,2,0:2:0:0:
265,240,65265,1,8,0:2:0:0:
469,355,65438,1,0,1:2:0:0:
475,321,65524,1,8,0:2:0:0:
480,287,65610,2,0,P|434:302|376:315,1,99.0000030212403,2|0,0:2|1:2,0:0:0:0:
243,132,65955,2,0,P|291:143|338:158,1,99.0000030212403,10|0,0:2|0:0,0:0:0:0:
103,248,66300,6,0,B|63:136|63:136|79:96|119:72,1,198.000006042481,6|8,1:2|0:2,0:0:0:0:
172,327,66817,2,0,P|137:347|72:348,1,99.0000030212403,2|0,0:2|0:0,0:0:0:0:
185,153,67162,1,0,1:2:0:0:
343,268,67334,2,0,L|246:246,1,99.0000030212403,10|0,0:2|0:0,0:0:0:0:
330,143,67679,5,0,1:2:0:0:
390,362,67852,1,2,0:2:0:0:
319,105,68024,1,8,0:2:0:0:
230,283,68196,1,0,0:0:0:0:
120,87,68369,2,0,L|95:182,1,99.0000030212403,2|0,0:2|1:2,0:0:0:0:
319,105,68713,2,0,L|294:10,1,99.0000030212403,10|0,0:2|1:2,0:0:0:0:
418,224,69059,6,0,B|316:193|333:287|231:256,1,198.000006042481,2|8,1:2|0:2,0:0:0:0:
41,167,69576,2,0,P|63:211|71:259,1,99.0000030212403,2|0,0:2|0:0,0:0:0:0:
247,167,69921,1,0,1:2:0:0:
150,6,70093,2,0,P|127:57|119:98,1,99.0000030212403,10|0,0:2|0:0,0:0:0:0:
339,251,70438,5,0,1:2:0:0:
247,54,70610,1,2,0:2:0:0:
104,279,70783,1,10,0:2:0:0:
247,167,70955,1,0,0:0:0:0:
42,63,71128,1,2,0:2:0:0:
338,69,71300,5,8,0:2:0:0:
136,175,71472,1,10,0:2:0:0:
342,284,71645,1,8,0:2:0:0:
102,156,71817,6,0,P|83:201|72:249,1,99.0000030212403,0|2,1:2|0:2,0:0:0:0:
247,167,72162,1,10,0:2:0:0:
42,63,72334,1,2,0:2:0:0:
282,185,72507,1,2,0:2:0:0:
54,285,72679,1,2,1:2:0:0:
135,14,72852,2,0,P|154:59|166:107,1,99.0000030212403,10|0,0:2|0:0,0:0:0:0:
313,297,73196,6,0,L|215:275,1,99.0000030212403,2|0,1:2|0:2,0:0:0:0:
368,95,73541,2,0,L|464:73,1,99.0000030212403,10|0,0:2|0:0,0:0:0:0:
250,17,73886,6,0,P|221:56|220:105,1,99.0000030212403,2|0,0:2|1:2,0:0:0:0:
445,288,74231,2,0,P|443:239|415:199,1,99.0000030212403,10|0,0:2|0:0,0:0:0:0:
248,352,74576,6,0,B|146:382|163:288|61:319,1,198.000006042481,2|8,1:2|0:2,0:0:0:0:
197,155,75093,2,0,L|218:252,1,99.0000030212403,2|0,0:2|0:0,0:0:0:0:
77,151,75438,1,0,1:2:0:0:
329,84,75610,2,0,L|308:181,1,99.0000030212403,10|0,0:2|0:0,0:0:0:0:
228,53,75955,5,0,1:2:0:0:
419,159,76128,1,2,0:2:0:0:
164,229,76300,1,8,0:2:0:0:
357,322,76472,1,0,1:2:0:0:
361,286,76559,1,8,0:2:0:0:
340,258,76645,2,0,P|320:223|319:158,1,99.0000030212403,2|0,0:2|1:2,0:0:0:0:
62,69,76990,2,0,P|82:104|83:169,1,99.0000030212403,10|0,0:2|0:0,0:0:0:0:
286,62,77334,6,0,B|371:36|357:115|443:89|443:89|421:77|409:55,1,216,4|0,1:2|0:0,0:0:0:0:
409,55,78196,6,0,P|395:96|384:141,1,72,2|0,0:2|0:0,0:0:0:0:
427,278,78541,2,0,B|377:281|342:226|342:226|314:246|326:272|298:291|298:291|263:237|214:240,1,288,2|0,0:2|0:0,0:0:0:0:
31,302,79403,5,2,0:2:0:0:
139,131,79576,1,2,1:2:0:0:
152,158,79662,1,0,1:2:0:0:
126,189,79748,5,14,0:2:0:0:
0,54,79921,1,2,0:2:0:0:
230,8,80093,6,0,B|361:31|361:31|395:60|391:105,1,215.999993408203,4|10,1:2|0:2,0:0:0:0:
279,292,80610,2,0,P|269:238|251:188,1,107.999996704102,2|0,0:0|0:0,0:0:0:0:
386,233,80955,1,0,1:2:0:0:
172,347,81128,1,10,0:2:0:0:
420,214,81300,6,0,P|401:264|392:317,1,107.999996704102,2|0,0:0|1:2,0:0:0:0:
251,188,81645,1,2,0:0:0:0:
431,67,81817,2,0,L|324:48,1,107.999996704102,8|0,0:2|0:0,0:0:0:0:
136,171,82162,1,2,0:2:0:0:
348,251,82334,5,10,0:0:0:0:
207,93,82507,1,10,0:2:0:0:
121,288,82679,1,8,0:2:0:0:
224,56,82852,6,0,P|246:106|263:160,1,107.999996704102,0|2,1:2|0:0,0:0:0:0:
111,68,83196,1,10,0:2:0:0:
312,3,83369,1,2,0:0:0:0:
155,166,83541,1,2,0:0:0:0:
384,226,83714,1,2,1:2:0:0:
118,156,83886,2,0,P|96:206|79:260,1,107.999996704102,10|0,0:2|0:0,0:0:0:0:
280,347,84231,6,0,P|243:309|190:310,1,107.999996704102,2|0,1:2|0:0,0:0:0:0:
339,128,84576,2,0,P|391:128|428:91,1,107.999996704102,10|0,0:2|0:0,0:0:0:0:
195,39,84921,6,0,P|210:90|223:143,1,107.999996704102,2|0,0:0|1:2,0:0:0:0:
402,334,85265,2,0,P|414:281|430:229,1,107.999996704102,10|0,0:2|0:0,0:0:0:0:
203,310,85610,6,0,B|93:343|112:241|1:274,1,215.999993408203,2|8,1:2|0:2,0:0:0:0:
262,227,86128,2,0,P|288:273|298:326,1,107.999996704102,2|0,0:0|0:0,0:0:0:0:
144,196,86472,1,0,1:2:0:0:
359,50,86645,2,0,P|332:97|323:150,1,107.999996704102,10|0,0:2|0:0,0:0:0:0:
239,8,86990,5,0,1:2:0:0:
421,137,87162,1,2,0:0:0:0:
203,254,87334,1,8,0:2:0:0:
430,368,87507,1,0,1:2:0:0:
416,333,87593,1,8,0:2:0:0:
402,298,87679,2,0,P|348:312|294:327,1,107.999996704102,2|0,0:2|1:2,0:0:0:0:
114,196,88024,2,0,P|92:245|76:297,1,107.999996704102,10|0,0:2|0:0,0:0:0:0:
268,150,88369,6,0,P|239:97|93:94,1,215.999993408203,2|8,1:2|0:2,0:0:0:0:
255,256,88886,2,0,P|292:250|356:212,1,107.999996704102,0|0,0:0|0:0,0:0:0:0:
166,167,89231,2,0,P|138:233|123:291,1,107.999996704102,2|8,1:2|0:2,0:0:0:0:
268,150,89576,1,2,0:0:0:0:
106,57,89748,6,0,B|115:35|149:11|149:11|297:54,1,215.999993408203,0|8,1:2|0:2,0:0:0:0:
428,35,90265,1,2,0:0:0:0:
268,150,90438,1,2,0:0:0:0:
460,12,90610,1,2,1:2:0:0:
385,231,90783,1,10,0:2:0:0:
295,53,90955,1,2,0:0:0:0:
404,266,91128,6,0,B|332:250|332:250|268:282|268:282|198:266,1,215.999993408203,0|10,1:2|0:2,0:0:0:0:
42,180,91645,2,0,P|67:227|79:280,1,107.999996704102,2|0,0:0|0:0,0:0:0:0:
244,173,91990,1,0,1:2:0:0:
53,71,92162,1,10,0:2:0:0:
197,10,92334,6,0,P|171:57|159:110,1,107.999996704102,2|0,0:0|1:2,0:0:0:0:
330,233,92679,1,2,0:0:0:0:
387,53,92852,2,0,L|281:73,1,107.999996704102,8|0,0:2|0:0,0:0:0:0:
184,240,93196,1,2,0:0:0:0:
300,38,93369,5,8,0:2:0:0:
369,241,93541,1,10,0:2:0:0:
159,110,93714,1,8,0:2:0:0:
420,21,93886,6,0,P|398:80|386:131,1,107.999996704102,0|2,1:2|0:0,0:0:0:0:
221,283,94231,1,10,0:2:0:0:
426,221,94403,1,2,0:0:0:0:
265,83,94576,1,2,0:0:0:0:
449,240,94748,1,2,1:2:0:0:
196,313,94921,2,0,P|206:260|218:207,1,107.999996704102,10|0,0:2|0:0,0:0:0:0:
415,346,95265,6,0,P|369:312|310:315,1,107.999996704102,2|0,1:2|0:0,0:0:0:0:
136,117,95610,2,0,P|189:115|231:82,1,107.999996704102,10|0,0:2|0:0,0:0:0:0:
379,32,95955,6,0,P|364:83|353:136,1,107.999996704102,2|0,0:0|1:2,0:0:0:0:
195,332,96300,2,0,P|183:279|169:227,1,107.999996704102,10|0,0:2|0:0,0:0:0:0:
99,10,96645,6,0,P|24:81|51:181,1,215.999993408203,2|8,1:2|0:2,0:0:0:0:
305,219,97162,2,0,B|303:174|272:138|272:138|148:113,1,215.999993408203,2|0,0:0|1:2,0:0:0:0:
273,323,97679,6,0,B|382:356|363:254|473:286|473:286|416:310|413:371,2,323.999990112305,10|2|2,0:2|1:2|1:2,0:0:0:0:
104,140,99059,1,2,1:2:0:0:
6,302,99403,1,6,1:2:0:0:
