osu file format v14

[General]
AudioFilename: audio.mp3
AudioLeadIn: 0
PreviewTime: 77248
Countdown: 0
SampleSet: Soft
StackLeniency: 0.4
Mode: 0
LetterboxInBreaks: 0
WidescreenStoryboard: 0

[Editor]
DistanceSpacing: 1.6
BeatDivisor: 4
GridSize: 4
TimelineZoom: 1

[Metadata]
Title:Take You Down
TitleUnicode:Take You Down
Artist:Fox Stevenson
ArtistUnicode:Fox Stevenson
Creator:A r M i N
Version:Daycore's Insane
Source:
Tags:english dnb drum and bass liquicity electronic short version cut stan sb edm Armin A_r_m_i_n Nao Tomori Naotoshi Capu Xen Xenon- Xehn Daycore Stixy NeoSkyLove NeoSL Affirmation Plaudible schoolboy Komore Kujinn Reform
BeatmapID:2314797
BeatmapSetID:1098490

[Difficulty]
HPDrainRate:5
CircleSize:4.2
OverallDifficulty:7.7
ApproachRate:8.8
SliderMultiplier:1.65
SliderTickRate:1

[Events]
//Background and Video events
0,0,"f0x.jpg",0,0
//Break Periods
//Storyboard Layer 0 (Background)
//Storyboard Layer 1 (Fail)
//Storyboard Layer 2 (Pass)
//Storyboard Layer 3 (Foreground)
//Storyboard Layer 4 (Overlay)
//Storyboard Sound Samples

[TimingPoints]
93,344.827586206897,4,2,2,50,1,0
11128,-125,4,2,2,50,0,0
33196,-111.111111111111,4,2,2,60,0,0
43886,-76.9230769230769,4,2,1,70,0,0
44231,-100,4,2,1,70,0,0
54748,-100,4,2,2,60,0,0
55265,-90.9090909090909,4,2,1,80,0,1
60265,-90.9090909090909,4,2,2,80,0,1
60782,-90.9090909090909,4,2,1,80,0,1
71299,-90.9090909090909,4,2,2,80,0,1
71817,-90.9090909090909,4,2,1,80,0,1
77334,-125,4,2,1,60,0,0
80093,-83.3333333333333,4,2,1,80,0,0
82334,-83.3333333333333,4,2,2,80,0,0
82851,-83.3333333333333,4,2,1,80,0,0
93368,-83.3333333333333,4,2,2,80,0,0
93886,-83.3333333333333,4,2,1,80,0,0
99403,-83.3333333333333,4,2,1,50,0,0

[Colours]
Combo1 : 101,98,238
Combo2 : 255,213,234
Combo3 : 168,236,204
Combo4 : 187,238,255
Combo5 : 232,222,187
Combo6 : 255,70,70
Combo7 : 191,91,234
Combo8 : 235,112,65

[HitObjects]
256,192,30438,12,4,33196,1:2:0:0:
308,188,34059,6,0,P|292:133|256:111,1,74.2499977340699,2|8,0:2|0:2,0:0:0:0:
235,232,34403,2,0,B|397:229|397:229|360:244|353:305,1,222.74999320221,2|8,0:2|0:2,0:0:0:0:
359,274,35265,2,0,P|398:290|441:296,1,74.2499977340699,2|2,0:2|0:2,0:0:0:0:
488,227,35610,1,10,0:2:0:0:
444,379,35783,6,0,P|368:364|298:334,1,148.49999546814,2|0,0:2|0:0,0:0:0:0:
277,246,36300,1,10,0:2:0:0:
172,316,36472,2,0,B|82:317|105:365|18:359,1,148.49999546814,2|0,0:2|0:0,0:0:0:0:
25,203,36990,1,10,0:2:0:0:
25,203,37162,2,0,P|36:242|45:291,1,74.2499977340699,2|0,0:2|0:0,0:0:0:0:
106,158,37507,2,0,P|113:121|169:0,1,148.49999546814,2|0,0:2|0:0,0:0:0:0:
281,38,38024,1,2,0:0:0:0:
281,38,38369,1,8,0:2:0:0:
281,38,38714,5,0,0:0:0:0:
365,11,38886,2,0,P|363:78|347:102,1,74.2499977340699,2|10,0:2|0:2,0:0:0:0:
300,148,39231,2,0,P|290:183|295:219,2,74.2499977340699,2|2|2,0:2|0:2|0:2,0:0:0:0:
345,292,39748,2,0,P|293:305|247:291,1,74.2499977340699,10|0,0:2|0:0,0:0:0:0:
201,258,40093,2,0,P|230:295|184:383,1,148.49999546814,2|10,0:2|0:2,0:0:0:0:
116,349,40610,1,0,0:0:0:0:
116,349,40783,2,0,P|63:325|33:323,1,74.2499977340699,2|0,0:2|0:0,0:0:0:0:
9,250,41128,1,10,0:2:0:0:
9,250,41472,6,0,B|7:152|7:152|26:176|59:182,1,148.49999546814,2|8,0:2|0:2,0:0:0:0:
130,182,41990,2,0,P|170:167|206:47,1,148.49999546814,2|0,0:0|0:0,0:0:0:0:
162,12,42507,2,0,B|235:53|248:-8|322:32,1,148.49999546814,10|0,0:2|0:0,0:0:0:0:
384,2,43024,2,0,B|357:-1|343:35|343:35|360:150,1,148.49999546814,2|0,0:0|0:0,0:0:0:0:
409,187,43541,2,0,P|367:206|325:199,1,74.2499977340699,2|0,0:0|0:0,0:0:0:0:
438,107,43886,2,0,P|474:107|529:160,1,107.249995090485,10|0,0:2|1:2,0:0:0:0:
501,250,44145,1,0,1:2:0:0:
501,250,44231,6,0,P|495:279|499:358,1,82.5,6|0,1:2|0:0,0:0:0:0:
350,303,44576,2,0,B|444:313|411:239|530:251,1,165,8|0,0:2|0:0,0:0:0:0:
364,217,45093,2,0,P|364:169|352:118,1,82.5,2|8,1:2|0:2,0:0:0:0:
369,53,45438,2,0,P|361:94|366:228,1,165,2|0,0:2|0:0,0:0:0:0:
442,122,45955,1,8,0:2:0:0:
281,106,46128,6,0,P|229:99|190:100,2,82.5,2|2|2,0:2|0:2|1:2,0:0:0:0:
132,151,46645,2,0,P|116:111|129:57,1,82.5,10|2,0:2|0:2,0:0:0:0:
214,185,46990,2,0,L|202:365,1,165,0|10,1:2|0:2,0:0:0:0:
175,265,47507,2,0,B|264:286|254:228|347:238,1,165,2|0,0:2|1:2,0:0:0:0:
417,272,48024,2,0,P|424:221|404:174,1,82.5,10|2,0:2|0:2,0:0:0:0:
359,334,48369,5,0,1:2:0:0:
359,334,48541,2,0,B|400:339|432:302|432:302|470:337|526:330,1,165,2|0,0:2|0:0,0:0:0:0:
361,250,49059,2,0,P|307:243|267:258,1,82.5,2|0,0:0|1:2,0:0:0:0:
217,326,49403,2,0,P|163:333|123:318,1,82.5,8|0,0:2|0:0,0:0:0:0:
66,254,49748,6,0,L|53:156,1,82.5,4|2,1:2|0:2,0:0:0:0:
195,157,50093,2,0,L|208:59,1,82.5,2|2,1:2|0:2,0:0:0:0:
56,264,50438,2,0,L|41:156,1,82.5,2|2,1:2|0:2,0:0:0:0:
207,161,50783,2,0,L|221:53,1,82.5,2|0,1:2|0:0,0:0:0:0:
30,60,51128,6,0,P|78:34|133:38,1,82.5,2|0,1:2|0:0,0:0:0:0:
292,51,51472,2,0,P|244:77|189:73,1,82.5,2|0,1:2|0:0,0:0:0:0:
7,46,51817,2,0,P|60:18|120:22,1,82.5,2|0,1:2|0:0,0:0:0:0:
302,69,52161,2,0,P|249:97|188:93,1,82.5,2|0,1:2|0:0,0:0:0:0:
308,216,52507,5,14,0:2:0:0:
446,193,52679,1,8,0:2:0:0:
291,238,52852,1,8,0:2:0:0:
470,208,53024,1,10,0:2:0:0:
310,320,53196,6,0,P|259:317|216:284,1,82.5,8|8,0:2|0:2,0:0:0:0:
57,377,53541,2,0,P|85:347|99:309,1,82.5,10|8,0:2|0:2,0:0:0:0:
42,157,53886,5,8,0:2:0:0:
216,165,54059,1,10,0:2:0:0:
28,124,54231,1,8,0:2:0:0:
231,133,54404,1,8,0:2:0:0:
102,37,54576,5,0,1:2:0:0:
192,162,54748,1,8,0:2:0:0:
85,56,54920,1,8,0:2:0:0:
247,13,55093,1,8,0:2:0:0:
133,239,55265,6,0,B|143:109|143:109|86:157,1,181.500005538941,6|8,1:2|0:2,0:0:0:0:
102,37,55783,2,0,P|175:30|209:56,1,90.7500027694703,2|0,0:2|0:0,0:0:0:0:
311,119,56128,1,0,1:2:0:0:
311,119,56300,2,0,L|204:109,1,90.7500027694703,10|0,0:2|0:0,0:0:0:0:
369,47,56645,5,0,1:2:0:0:
266,202,56817,2,0,B|371:203|341:257|446:265,1,181.500005538941,2|0,0:2|0:0,0:0:0:0:
286,292,57334,2,0,P|267:339|265:382,1,90.7500027694703,2|0,0:2|1:2,0:0:0:0:
424,169,57679,2,0,P|443:122|445:79,1,90.7500027694703,10|0,0:2|1:2,0:0:0:0:
289,51,58024,6,0,B|390:56|374:-18|478:2,1,181.500005538941,2|8,1:2|0:2,0:0:0:0:
287,136,58541,2,0,P|241:125|200:65,1,90.7500027694703,2|0,0:2|0:0,0:0:0:0:
350,225,58886,1,0,1:2:0:0:
350,225,59059,2,0,L|344:330,1,90.7500027694703,10|0,0:2|0:0,0:0:0:0:
438,202,59403,5,0,1:2:0:0:
267,338,59576,2,0,P|219:353|122:258,1,181.500005538941,2|0,0:2|0:0,0:0:0:0:
201,155,60093,1,2,0:2:0:0:
216,257,60265,1,8,0:2:0:0:
110,188,60438,1,10,0:2:0:0:
125,86,60610,1,8,0:2:0:0:
270,96,60783,5,0,1:2:0:0:
366,71,60955,2,0,L|362:177,1,90.7500027694703,2|10,0:2|0:2,0:0:0:0:
414,307,61300,1,2,0:2:0:0:
466,171,61472,1,2,0:2:0:0:
352,361,61645,1,2,1:2:0:0:
300,225,61817,1,10,0:2:0:0:
414,307,61990,1,0,0:0:0:0:
270,327,62162,6,0,P|215:340|156:309,1,90.7500027694703,2|0,1:2|0:2,0:0:0:0:
55,256,62507,2,0,P|110:243|169:274,1,90.7500027694703,10|0,0:2|0:0,0:0:0:0:
30,340,62852,1,2,0:2:0:0:
15,160,63024,1,0,1:2:0:0:
141,252,63196,1,10,0:2:0:0:
159,71,63368,1,0,0:0:0:0:
277,170,63541,6,0,P|364:188|424:120,1,181.500005538941,2|8,1:2|0:2,0:0:0:0:
321,10,64059,1,2,0:2:0:0:
321,10,64231,2,0,L|336:102,1,90.7500027694703,0|0,0:0|1:2,0:0:0:0:
486,196,64576,2,0,L|471:288,1,90.7500027694703,10|0,0:2|0:0,0:0:0:0:
309,345,64921,5,0,1:2:0:0:
309,345,65093,2,0,B|254:333|229:296|229:296|205:345|141:356,1,181.500005538941,2|0,0:2|1:2,0:0:0:0:
147,347,65524,1,8,0:2:0:0:
128,345,65610,1,2,0:2:0:0:
161,221,65783,1,0,1:2:0:0:
73,129,65955,2,0,P|55:87|54:39,1,90.7500027694703,10|0,0:2|0:0,0:0:0:0:
178,16,66300,6,0,B|252:16|252:16|282:24|282:24|372:24,1,181.500005538941,6|8,1:2|0:2,0:0:0:0:
469,87,66817,1,2,0:2:0:0:
469,87,66990,2,0,P|439:146|433:201,1,90.7500027694703,0|0,0:0|1:2,0:0:0:0:
341,255,67334,2,0,P|329:211|306:172,1,90.7500027694703,10|0,0:2|0:0,0:0:0:0:
179,156,67679,5,0,1:2:0:0:
179,156,67852,2,0,L|74:155,1,90.7500027694703,2|8,0:2|0:2,0:0:0:0:
185,262,68196,1,0,0:0:0:0:
306,172,68369,1,2,0:2:0:0:
292,337,68541,1,0,1:2:0:0:
104,297,68714,1,10,0:2:0:0:
410,282,69059,6,0,P|432:228|451:78,1,181.500005538941,2|8,1:2|0:2,0:0:0:0:
323,38,69576,1,2,0:2:0:0:
323,38,69748,2,0,P|329:91|348:143,1,90.7500027694703,0|0,0:0|1:2,0:0:0:0:
244,281,70093,2,0,P|256:237|261:192,1,90.7500027694703,10|0,0:2|0:0,0:0:0:0:
137,269,70438,1,0,1:2:0:0:
286,372,70610,2,0,P|351:377|394:367,1,90.7500027694703,2|10,0:2|0:2,0:0:0:0:
244,281,70955,5,0,0:0:0:0:
85,340,71128,2,0,P|53:301|53:239,1,90.7500027694703,2|8,0:2|0:2,0:0:0:0:
103,80,71472,1,10,0:2:0:0:
47,262,71645,1,8,0:2:0:0:
110,54,71817,5,0,1:2:0:0:
184,121,71990,2,0,P|247:134|298:119,1,90.7500027694703,2|10,0:2|0:2,0:0:0:0:
404,71,72334,1,2,0:2:0:0:
273,5,72507,1,2,0:2:0:0:
364,171,72679,1,2,1:2:0:0:
465,12,72852,1,10,0:2:0:0:
293,93,73024,1,0,0:0:0:0:
459,185,73196,6,0,P|473:251|473:285,1,90.7500027694703,2|0,1:2|0:2,0:0:0:0:
334,378,73541,2,0,P|337:332|348:288,1,90.7500027694703,10|0,0:2|0:0,0:0:0:0:
404,71,73886,1,2,0:2:0:0:
248,182,74059,1,0,1:2:0:0:
437,96,74231,1,10,0:2:0:0:
217,7,74404,1,0,0:0:0:0:
164,164,74576,6,0,P|176:228|285:257,1,181.500005538941,2|8,1:2|0:2,0:0:0:0:
132,79,75093,1,2,0:2:0:0:
132,79,75265,2,0,L|39:82,1,90.7500027694703,0|0,0:0|1:2,0:0:0:0:
219,14,75610,2,0,L|312:17,1,90.7500027694703,10|0,0:2|0:0,0:0:0:0:
430,58,75955,5,0,1:2:0:0:
430,58,76128,2,0,P|402:110|466:206,1,181.500005538941,2|0,0:2|1:2,0:0:0:0:
473,199,76559,1,8,0:2:0:0:
485,194,76645,1,2,0:2:0:0:
353,133,76817,1,0,1:2:0:0:
256,241,76990,1,10,0:2:0:0:
259,254,77334,5,4,1:2:0:0:
259,254,79576,5,2,1:2:0:0:
262,266,79662,1,0,1:2:0:0:
265,278,79748,1,14,0:2:0:0:
185,348,79921,1,2,0:2:0:0:
79,321,80093,6,0,P|53:260|61:218,1,98.9999969787599,4|0,1:2|0:0,0:0:0:0:
144,97,80438,1,10,0:2:0:0:
144,97,80610,2,0,P|132:144|-7:149,1,197.99999395752,2|0,0:0|1:2,0:0:0:0:
93,25,81128,1,10,0:2:0:0:
181,17,81300,2,0,P|234:23|293:39,1,98.9999969787599,2|0,0:0|1:2,0:0:0:0:
329,136,81645,1,2,0:0:0:0:
329,136,81817,2,0,P|382:130|441:114,1,98.9999969787599,8|0,0:2|0:0,0:0:0:0:
199,243,82162,6,0,B|144:252|144:252|87:221,1,98.9999969787599,2|10,0:2|0:0,0:0:0:0:
266,195,82507,1,10,0:2:0:0:
292,360,82679,1,8,0:2:0:0:
405,234,82852,6,0,P|452:215|509:232,2,98.9999969787599,0|2|10,1:2|0:0|0:2,0:0:0:0:
458,305,83369,1,2,0:0:0:0:
479,128,83541,2,0,P|468:79|424:45,1,98.9999969787599,2|2,0:0|1:2,0:0:0:0:
333,48,83886,2,0,L|221:54,1,98.9999969787599,10|0,0:2|0:0,0:0:0:0:
137,29,84231,6,0,B|100:68|100:68|128:239,2,197.99999395752,2|10|2,1:2|0:2|0:0,0:0:0:0:
182,94,85093,1,0,1:2:0:0:
35,176,85265,2,0,P|21:222|16:297,1,98.9999969787599,10|0,0:2|0:0,0:0:0:0:
106,325,85610,6,0,P|151:358|268:282,1,197.99999395752,2|8,1:2|0:2,0:0:0:0:
226,85,86128,2,0,P|201:137|183:307,1,197.99999395752,2|0,0:0|1:2,0:0:0:0:
385,383,86645,2,0,P|375:284|338:193,1,197.99999395752,10|0,0:2|1:2,0:0:0:0:
456,300,87162,2,0,B|300:281|300:281|230:316,1,197.99999395752,2|0,0:0|1:2,0:0:0:0:
252,308,87593,1,8,0:2:0:0:
240,317,87679,5,2,0:2:0:0:
251,188,87852,1,0,1:2:0:0:
132,138,88024,1,10,0:2:0:0:
387,173,88369,6,0,P|450:181|481:62,1,197.99999395752,2|8,1:2|0:2,0:0:0:0:
319,102,88886,1,0,0:0:0:0:
319,102,89059,2,0,P|302:151|305:232,1,98.9999969787599,0|2,0:0|1:2,0:0:0:0:
371,315,89403,1,8,0:2:0:0:
391,190,89576,2,0,P|408:239|409:404,1,197.99999395752,2|0,0:0|0:0,0:0:0:0:
278,348,90093,1,8,0:2:0:0:
278,348,90265,1,2,0:0:0:0:
146,303,90438,2,0,P|85:296|22:337,1,98.9999969787599,2|2,0:0|1:2,0:0:0:0:
21,219,90783,1,10,0:2:0:0:
206,233,90955,6,0,P|181:176|111:145,1,98.9999969787599,2|0,0:0|1:2,0:0:0:0:
138,65,91300,1,0,0:0:0:0:
265,152,91472,1,10,0:2:0:0:
261,46,91645,2,0,P|233:96|206:241,1,197.99999395752,2|0,0:0|1:2,0:0:0:0:
325,303,92162,1,10,0:2:0:0:
384,178,92334,2,0,P|407:107|409:60,1,98.9999969787599,2|0,0:0|1:2,0:0:0:0:
294,193,92679,2,0,L|513:204,1,197.99999395752,2|0,0:0|0:0,0:0:0:0:
262,266,93196,2,0,P|219:227|220:161,1,98.9999969787599,2|8,0:0|0:2,0:0:0:0:
326,119,93541,2,0,P|369:158|368:224,1,98.9999969787599,10|8,0:2|0:2,0:0:0:0:
437,333,93886,6,0,L|316:323,2,98.9999969787599,0|2|10,1:2|0:0|0:2,0:0:0:0:
262,266,94403,1,2,0:0:0:0:
214,341,94576,2,0,P|138:354|102:342,1,98.9999969787599,2|2,0:0|1:2,0:0:0:0:
156,160,94921,2,0,L|158:285,1,98.9999969787599,10|0,0:2|0:0,0:0:0:0:
88,95,95265,6,0,P|163:127|268:66,2,197.99999395752,2|10|2,1:2|0:2|0:0,0:0:0:0:
167,19,96128,1,0,1:2:0:0:
333,128,96300,2,0,P|391:142|448:126,1,98.9999969787599,10|0,0:2|0:0,0:0:0:0:
381,36,96645,6,0,L|379:248,1,197.99999395752,2|8,1:2|0:2,0:0:0:0:
407,339,97162,2,0,B|294:338|328:283|182:279,1,197.99999395752,2|0,0:0|1:2,0:0:0:0:
122,331,97679,2,0,B|185:300|185:300|172:152,1,197.99999395752,10|0,0:2|0:0,0:0:0:0:
67,111,98196,6,0,B|122:111|152:69|152:69|197:98|259:88,1,197.99999395752,2|0,1:2|0:0,0:0:0:0:
320,37,98714,2,0,P|368:41|411:149,1,148.49999546814,2|0,1:2|0:0,0:0:0:0:
396,196,99059,1,2,1:2:0:0:
396,196,99403,5,6,1:2:0:0:
