osu file format v14

[General]
AudioFilename: audio.mp3
AudioLeadIn: 0
PreviewTime: -1
Countdown: 1
SampleSet: Normal
StackLeniency: 0.4
Mode: 0
LetterboxInBreaks: 0
WidescreenStoryboard: 0

[Editor]
DistanceSpacing: 4
BeatDivisor: 8
GridSize: 4
TimelineZoom: 1

[Metadata]
Title:Sandblast
TitleUnicode:Sandblast
Artist:Fox Stevenson
ArtistUnicode:Fox Stevenson
Creator:Bacwux
Version:Nothing Left For Us
Source:
Tags:
BeatmapID:1362660
BeatmapSetID:642754

[Difficulty]
HPDrainRate:6
CircleSize:4
OverallDifficulty:8
ApproachRate:9.7
SliderMultiplier:1.8
SliderTickRate:1

[Events]
//Background and Video events
0,0,"wubwub6.png",0,0
//Break Periods
//Storyboard Layer 0 (Background)
//Storyboard Layer 1 (Fail)
//Storyboard Layer 2 (Pass)
//Storyboard Layer 3 (Foreground)
//Storyboard Sound Samples

[TimingPoints]
150,857.142857142857,4,1,0,50,1,0
150,-200,4,1,0,30,0,0
13864,-200,4,1,0,40,0,0
27578,-125,4,1,0,50,0,0
34435,-100,4,1,0,50,0,0
41292,-40,4,1,0,50,0,0
41721,-25,4,1,0,50,0,0
42149,-100,4,1,0,50,0,0
43007,-33.3333333333333,4,1,0,50,0,0
43864,-66.6666666666667,4,1,0,50,0,0
44721,-50,4,1,0,50,0,0
45149,-33.3333333333333,4,1,0,50,0,0
45578,-66.6666666666667,4,1,0,50,0,0
46435,-28.5714285714286,4,1,0,50,0,0
46864,-33.3333333333333,4,1,0,50,0,0
47292,-25,4,1,0,50,0,0
47828,-100,4,1,0,50,0,0
48149,-33.3333333333333,4,1,0,50,0,0
48578,-25,4,1,0,50,0,0
49007,-66.6666666666667,4,1,0,50,0,0
49864,-28.5714285714286,4,1,0,50,0,0
50292,-33.3333333333333,4,1,0,50,0,0
50721,-66.6666666666667,4,1,0,50,0,0
51578,-33.3333333333333,4,1,0,50,0,0
52007,-40,4,1,0,50,0,0
52435,-66.6666666666667,4,1,0,50,0,0
53292,-25,4,1,0,50,0,0
53614,-28.5714285714286,4,1,0,50,0,0
54149,-25,4,1,0,50,0,0
54578,-100,4,1,0,50,0,0
54792,-100,4,1,0,20,0,0
55007,-33.3333333333333,4,1,0,50,0,0
55435,-25,4,1,0,50,0,0
55864,-66.6666666666667,4,1,0,50,0,0
56721,-25,4,1,0,50,0,0
57149,-33.3333333333333,4,1,0,50,0,0
57578,-66.6666666666667,4,1,0,50,0,0
58435,-28.5714285714286,4,1,0,50,0,0
58864,-33.3333333333333,4,1,0,50,0,0
59292,-66.6666666666667,4,1,0,50,0,0
60149,-28.5714285714286,4,1,0,50,0,0
60578,-33.3333333333333,4,1,0,50,0,0
61007,-25,4,1,0,50,0,0
61542,-100,4,1,0,50,0,0
61864,-33.3333333333333,4,1,0,50,0,0
62292,-25,4,1,0,50,0,0
62721,-66.6666666666667,4,1,0,50,0,0
63578,-25,4,1,0,50,0,0
64007,-28.5714285714286,4,1,0,50,0,0
64435,-66.6666666666667,4,1,0,50,0,0
65292,-28.5714285714286,4,1,0,50,0,0
65721,-33.3333333333333,4,1,0,50,0,0
66149,-66.6666666666667,4,1,0,50,0,0
67007,-25,4,1,0,50,0,0
67328,-28.5714285714286,4,1,0,50,0,0
67864,-25,4,1,0,50,0,0
68721,-100,4,1,0,50,0,0
74721,-66.6666666666667,4,1,0,50,0,0
75578,-100,4,1,0,50,0,0
76007,-66.6666666666667,4,1,0,50,0,0
76435,-100,4,1,0,50,0,0
82435,-66.6666666666667,4,1,0,50,0,0
89292,-100,4,1,0,50,0,0
95721,-200,4,1,0,50,0,0
96149,-33.3333333333333,4,1,0,50,0,0
99578,-28.5714285714286,4,1,0,50,0,0
100007,-25,4,1,0,50,0,0
100435,-33.3333333333333,4,1,0,50,0,0
102149,-25,4,1,0,50,0,0
103007,-28.5714285714286,4,1,0,50,0,0

[Colours]
Combo1 : 255,0,0
Combo2 : 255,255,0
Combo3 : 255,128,0

[HitObjects]
136,144,150,6,0,P|140:116|132:88,1,45
156,171,1007,2,0,P|167:144|166:115,1,45
269,167,1864,6,0,P|273:195|265:223,1,45
289,140,2721,2,0,P|300:166|299:195,1,45
231,299,3578,6,0,L|183:293,1,45
254,268,4435,2,0,L|206:274,1,45
359,297,5292,6,0,P|362:254|359:234,3,45
306,135,7007,6,0,P|305:157|308:179,1,45
286,112,7864,1,0,0:0:0:0:
286,112,8292,1,0,0:0:0:0:
203,224,8721,5,0,0:0:0:0:
203,224,9149,2,0,P|241:221|263:227,1,45
226,166,10007,2,0,P|254:190|266:210,1,45
282,141,10864,2,0,P|285:179|279:200,1,45
340,164,11721,2,0,P|315:192|295:204,1,45
365,220,12578,2,0,P|327:223|305:217,1,45
203,224,13435,5,0,0:0:0:0:
146,272,13864,2,0,P|105:277|93:272,2,30
203,224,14721,2,0,P|244:219|256:224,2,30
231,335,15578,6,0,L|233:279,1,45
298,249,16435,1,0,0:0:0:0:
298,249,16542,2,0,L|316:248,2,11.25
229,210,16864,2,0,L|211:209,2,11.25
299,165,17292,6,0,L|294:108,1,45
241,70,18149,2,0,P|200:70|189:72,2,30
295,120,19007,2,0,P|332:124|366:112,1,60
388,75,19864,2,0,P|375:111|378:125,2,30
435,146,20721,6,0,P|419:164|392:176,1,45
352,203,21364,2,0,P|375:207|399:225,1,45
431,277,22007,2,0,P|428:251|431:239,1,22.5
363,314,22435,6,0,P|340:310|315:312,1,45
277,246,23292,1,0,0:0:0:0:
277,246,23399,2,0,L|277:227,2,11.25
241,320,23721,2,0,L|241:339,2,11.25
153,256,24149,6,0,P|183:251|207:258,1,45
138,270,25007,1,0,0:0:0:0:
138,270,25435,1,0,0:0:0:0:
125,192,25864,6,0,P|130:222|123:246,1,45
111,177,26722,1,0,0:0:0:0:
111,177,27150,1,0,0:0:0:0:
146,106,27364,1,0,0:0:0:0:
64,62,27578,6,0,P|68:114|77:135,2,48
146,106,28435,1,0,0:0:0:0:
225,67,28649,2,0,L|192:69,2,18
299,123,28971,1,0,0:0:0:0:
299,123,29078,1,0,0:0:0:0:
312,54,29292,2,0,P|296:103|313:152,1,72
355,214,30149,6,0,P|348:178|337:162,1,36
283,217,30471,1,0,0:0:0:0:
283,217,30578,2,0,L|278:249,2,18
200,127,31007,6,0,L|207:203,1,72
176,272,31864,1,0,0:0:0:0:
65,220,32078,1,0,0:0:0:0:
80,211,32185,1,0,0:0:0:0:
98,206,32292,1,0,0:0:0:0:
116,205,32399,1,0,0:0:0:0:
133,209,32506,1,0,0:0:0:0:
151,335,32721,6,0,P|115:306|109:267,1,72
182,224,33578,2,0,L|175:279,2,48
298,277,34435,6,0,B|265:295|248:285|248:285|268:270,1,67.5
320,201,34864,2,0,P|354:222|375:257,1,67.5
365,322,35292,1,0,0:0:0:0:
442,288,35507,1,0,0:0:0:0:
451,267,35614,1,0,0:0:0:0:
454,245,35721,1,0,0:0:0:0:
451,223,35828,1,0,0:0:0:0:
442,202,35935,1,0,0:0:0:0:
375,97,36149,6,0,B|372:131|382:157|382:157|390:144,1,67.5
416,23,36578,2,0,L|333:31,1,67.5
298,87,37007,1,0,0:0:0:0:
303,163,37221,2,0,L|304:190,4,22.5
178,141,37864,6,0,P|186:151|176:156,1,22.5
218,179,38078,2,0,P|216:191|205:188,1,22.5
219,234,38292,2,0,P|209:241|204:232,1,22.5
181,274,38507,2,0,P|168:272|171:261,1,22.5
126,275,38721,2,0,P|118:265|128:260,1,22.5
86,237,38935,2,0,P|87:224|98:227,1,22.5
85,182,39149,2,0,P|95:174|100:184,1,22.5
123,142,39364,2,0,P|135:143|132:154,1,22.5
178,141,39578,5,0,0:0:0:0:
224,220,39685,1,0,0:0:0:0:
308,248,39792,1,0,0:0:0:0:
396,228,39899,1,0,0:0:0:0:
460,164,40007,1,0,0:0:0:0:
484,252,40114,1,0,0:0:0:0:
396,228,40221,1,0,0:0:0:0:
348,152,40328,1,0,0:0:0:0:
360,64,40435,1,0,0:0:0:0:
360,64,40864,5,0,0:0:0:0:
287,96,40971,2,0,P|260:104|234:101,1,45
178,53,41292,6,0,B|151:122|193:166|193:166|162:155|111:138,1,168.75
53,157,41721,2,0,P|138:225|31:229,1,270
29,194,42149,1,0,0:0:0:0:
189,311,42364,5,0,0:0:0:0:
243,170,42471,1,0,0:0:0:0:
297,236,42578,1,0,0:0:0:0:
168,211,42685,1,0,0:0:0:0:
323,160,42792,1,0,0:0:0:0:
297,236,42899,1,0,0:0:0:0:
243,170,43007,6,0,B|229:115|257:65|257:65|319:74|348:31,1,202.500007724762
205,7,43435,2,0,B|160:77|167:146|167:146|151:112|113:99,1,202.500007724762
99,175,43864,2,0,L|100:217,1,33.7500012874604
83,317,44078,5,0,0:0:0:0:
264,351,44185,1,0,0:0:0:0:
168,211,44292,1,0,0:0:0:0:
271,363,44399,1,0,0:0:0:0:
303,196,44507,1,0,0:0:0:0:
448,234,44721,6,0,B|393:255|364:240|364:240|347:264|318:267,1,135
432,30,45149,2,0,P|470:90|354:163,1,202.500007724762
392,95,45578,2,0,P|355:105|334:117,1,33.7500012874604
257,252,45792,5,0,0:0:0:0:
333,175,45899,1,0,0:0:0:0:
173,101,46007,1,0,0:0:0:0:
250,176,46114,1,0,0:0:0:0:
65,108,46221,1,0,0:0:0:0:
277,32,46435,6,0,B|305:51|337:147|250:177|250:177|284:172|305:199,1,236.250002253056
229,251,46864,2,0,P|175:196|233:99,1,202.500007724762
372,163,47292,2,0,B|386:261|304:270|304:270|363:320|334:381,1,270
264,341,47721,5,0,0:0:0:0:
413,300,47828,2,0,L|419:349,1,45
188,312,48149,6,0,B|208:272|248:252|288:260|304:272|304:272|296:192|296:192,1,202.500007724762
248,36,48578,2,0,B|236:88|252:120|252:120|224:152|228:192|228:192|232:164|264:120|340:144,1,270
348,52,49007,2,0,P|312:72|304:88,1,33.7500012874604
304,272,49221,5,0,0:0:0:0:
384,124,49328,1,0,0:0:0:0:
348,52,49435,1,0,0:0:0:0:
376,236,49542,1,0,0:0:0:0:
428,56,49649,1,0,0:0:0:0:
348,52,49756,1,0,0:0:0:0:
304,120,49864,6,0,B|212:160|136:100|136:100|164:152|132:196,1,236.250002253056
124,284,50292,2,0,B|128:248|164:220|164:220|168:148|128:84,1,202.500007724762
88,188,50721,2,0,P|60:224|52:240,1,33.7500012874604
204,292,50935,5,0,0:0:0:0:
308,192,51042,1,0,0:0:0:0:
137,99,51149,1,0,0:0:0:0:
220,206,51257,1,0,0:0:0:0:
396,206,51364,1,0,0:0:0:0:
329,28,51578,6,0,B|307:116|307:190|307:190|287:177|284:154,1,202.500007724762
466,131,52007,2,0,P|476:199|384:186,1,168.75
329,28,52435,2,0,P|346:65|346:86,1,33.7500012874604
338,266,52649,5,0,0:0:0:0:
284,159,52757,1,0,0:0:0:0:
395,205,52864,1,0,0:0:0:0:
259,279,52971,1,0,0:0:0:0:
110,235,53078,1,0,0:0:0:0:
215,83,53292,6,0,B|206:180|181:221|181:221|176:197|150:174,1,180
93,128,53614,2,0,B|107:110|113:91|113:91|120:110|137:129,1,78.7500007510185
262,207,53828,2,0,B|241:232|236:279|236:279|209:236|174:215,1,157.500001502037
368,68,54149,6,0,B|350:181|263:207|263:207|360:229,1,270
409,180,54578,2,0,P|422:220|419:241,1,45
243,277,55007,6,0,B|288:289|288:289|333:300|333:300|360:304|386:291|386:291|421:308|472:290,1,202.500007724762
346,225,55435,2,0,B|319:217|304:193|304:193|242:188|221:139|221:139|212:208|159:238,1,270
381,123,55864,5,0,0:0:0:0:
381,123,55971,2,0,P|376:147|355:177,1,33.7500012874604
167,232,56185,1,0,0:0:0:0:
222,139,56292,1,0,0:0:0:0:
275,233,56399,1,0,0:0:0:0:
167,232,56507,2,0,L|112:229,1,33.7500012874604
98,39,56721,6,0,P|150:124|30:96,1,270
205,26,57149,2,0,B|246:102|206:172|206:172|230:158|290:154,1,202.500007724762
305,98,57578,1,0,0:0:0:0:
305,98,57685,6,0,P|329:125|333:150,1,33.7500012874604
242,269,57899,2,0,P|253:234|273:218,1,33.7500012874604
422,239,58114,1,0,0:0:0:0:
315,281,58221,1,0,0:0:0:0:
103,233,58435,6,0,B|167:228|206:170|206:170|211:241|246:277,1,236.250002253056
280,48,58864,2,0,B|263:127|205:171|205:171|253:152|282:160,1,202.500007724762
415,199,59292,1,0,0:0:0:0:
360,148,59399,6,0,P|344:140|304:132,1,33.7500012874604
239,239,59614,2,0,P|255:233|270:226,1,33.7500012874604
165,70,59828,1,0,0:0:0:0:
123,137,59935,2,0,L|125:184,1,33.7500012874604
177,343,60149,6,0,B|231:325|245:287|239:239|239:239|286:261|286:261|307:252|338:256,1,236.250002253056
163,262,60578,2,0,B|171:177|122:137|122:137|150:106|144:51,1,202.500007724762
350,149,61007,2,0,B|271:169|208:130|208:130|223:153|223:172|259:188|259:188|254:216|270:237,1,270
341,233,61435,5,0,0:0:0:0:
298,58,61542,2,0,P|291:69|279:82,2,22.5
408,192,61864,6,0,B|424:228|428:288|368:316|328:308|328:308|336:352,1,202.500007724762
341,233,62292,2,0,B|304:192|312:138|312:138|248:164|248:164|248:104|196:83,1,270
167,159,62721,2,0,P|178:201|186:215,1,33.7500012874604
231,296,62935,5,0,0:0:0:0:
249,163,63042,1,0,0:0:0:0:
39,186,63149,1,0,0:0:0:0:
177,208,63257,1,0,0:0:0:0:
128,78,63364,2,0,P|90:94|77:111,1,33.7500012874604
103,324,63578,6,0,B|178:282|177:207|177:207|253:251|323:194,1,270
115,108,64007,2,0,B|62:182|73:257|73:257|119:230|102:170,1,236.250002253056
220,127,64435,6,0,P|179:134|165:145,1,33.7500012874604
178,208,64649,1,0,0:0:0:0:
320,233,64757,2,0,P|286:208|268:206,1,33.7500012874604
254,301,64971,1,0,0:0:0:0:
414,215,65078,1,0,0:0:0:0:
267,65,65292,6,0,B|293:89|317:142|264:190|264:190|306:212|339:132,1,236.250002253056
220,125,65721,2,0,B|194:147|160:205|218:252|218:252|165:237|135:253,1,202.500007724762
253,310,66149,6,0,P|236:268|227:257,1,33.7500012874604
104,185,66364,1,0,0:0:0:0:
297,204,66471,2,0,P|255:186|241:184,1,33.7500012874604
139,306,66685,1,0,0:0:0:0:
336,280,66792,1,0,0:0:0:0:
220,125,66899,1,0,0:0:0:0:
139,306,67007,6,0,B|178:312|206:296|206:296|252:311|252:311|248:280|248:280|212:261,1,180
121,193,67328,2,0,P|100:215|104:185,1,78.7500007510185
220,125,67542,2,0,P|280:107|241:159,1,157.500001502037
171,58,67864,6,0,B|199:21|265:2|316:28|340:63|340:63|390:45|390:45|355:132|393:180,1,360
373,273,68721,6,0,B|359:266|359:266|338:291|297:290,1,67.5
279,184,69149,2,0,P|309:229|311:239,1,45
229,245,69578,1,0,0:0:0:0:
130,153,69792,1,0,0:0:0:0:
201,172,70007,1,0,0:0:0:0:
149,223,70221,1,0,0:0:0:0:
184,94,70435,6,0,P|204:90|236:96,1,45
248,79,70757,2,0,P|264:90|283:117,1,45
303,113,71078,1,0,0:0:0:0:
229,245,71292,1,0,0:0:0:0:
111,81,71721,1,0,0:0:0:0:
184,94,71935,5,0,0:0:0:0:
184,94,72042,1,0,0:0:0:0:
184,94,72149,6,0,P|185:125|162:164,1,67.5
161,171,72578,2,0,P|197:165|224:167,1,45
304,225,73007,1,0,0:0:0:0:
192,242,73221,1,0,0:0:0:0:
287,111,73435,1,0,0:0:0:0:
304,225,73649,1,0,0:0:0:0:
303,247,73756,1,0,0:0:0:0:
302,269,73864,6,0,P|338:273|370:301,1,67.5
372,298,74292,2,0,P|357:264|365:223,1,67.5
282,128,74721,2,0,P|331:128|378:160,2,101.250003862381
192,242,75578,6,0,P|199:209|187:163,1,67.5
184,106,76007,2,0,P|171:146|208:117,1,101.250003862381
257,69,76435,2,0,P|298:79|327:75,2,67.5
187,26,77185,1,0,0:0:0:0:
111,67,77292,6,0,P|96:94|91:137,1,67.5
94,147,77721,1,0,0:0:0:0:
40,190,77935,1,0,0:0:0:0:
40,190,78042,1,0,0:0:0:0:
40,190,78149,2,0,P|77:187|114:204,2,67.5
61,267,78899,1,0,0:0:0:0:
149,333,79007,6,0,L|138:260,1,67.5
143,249,79435,2,0,P|163:262|198:265,1,45
255,172,79864,2,0,P|215:175|180:201,2,67.5
333,209,80614,1,0,0:0:0:0:
333,209,80721,6,0,L|335:124,1,67.5
323,123,81149,1,0,0:0:0:0:
429,191,81364,1,0,0:0:0:0:
336,46,81578,2,0,B|312:42|286:54|286:54|283:48|274:38|260:32,1,67.5
225,94,82007,1,0,0:0:0:0:
225,94,82221,1,0,0:0:0:0:
240,191,82435,6,0,P|242:142|213:82,1,101.250003862381
113,153,82864,2,0,P|148:184|157:139,1,101.250003862381
132,78,83292,1,0,0:0:0:0:
56,245,83507,5,0,0:0:0:0:
149,274,83721,1,0,0:0:0:0:
235,228,83935,1,0,0:0:0:0:
149,274,84149,5,0,0:0:0:0:
328,256,84364,1,0,0:0:0:0:
235,228,84578,1,0,0:0:0:0:
374,342,84792,1,0,0:0:0:0:
357,163,85007,2,0,P|334:199|329:266,2,101.250003862381
428,117,85757,1,0,0:0:0:0:
360,66,85864,6,0,P|345:109|374:185,1,101.250003862381
426,275,86292,2,0,L|295:249,1,101.250003862381
306,266,86721,5,0,0:0:0:0:
215,121,86935,1,0,0:0:0:0:
251,335,87149,1,0,0:0:0:0:
289,168,87363,1,0,0:0:0:0:
289,168,87471,1,0,0:0:0:0:
289,168,87578,6,0,P|303:116|286:61,1,101.250003862381
118,99,88007,2,0,B|175:122|175:122|229:120,1,101.250003862381
64,43,88435,2,0,P|85:100|74:162,2,101.250003862381
42,239,89292,6,0,P|89:233|119:240,1,67.5
128,246,89721,1,0,0:0:0:0:
82,139,89935,1,0,0:0:0:0:
290,205,90149,6,0,P|257:224|216:232,1,67.5
220,237,90578,2,0,P|249:242|275:259,1,45
287,295,91007,6,0,P|287:256|300:217,1,67.5
294,218,91436,2,0,P|275:240|247:254,1,45
210,247,91864,6,0,P|242:266|270:297,2,67.5
121,352,92721,2,0,L|163:344,1,22.5
96,301,92935,2,0,L|138:304,1,22.5
86,246,93149,2,0,L|126:260,1,22.5
90,191,93363,2,0,L|125:215,1,22.5
109,138,93578,2,0,L|136:170,1,22.5
140,92,93792,2,0,L|158:130,1,22.5
183,55,94006,2,0,L|191:97,1,22.5
233,32,94221,2,0,L|229:74,1,22.5
287,22,94435,5,0,0:0:0:0:
308,108,94542,1,0,0:0:0:0:
368,176,94649,1,0,0:0:0:0:
448,216,94757,1,0,0:0:0:0:
368,176,94864,1,0,0:0:0:0:
280,196,94971,1,0,0:0:0:0:
224,268,95078,1,0,0:0:0:0:
280,196,95185,1,0,0:0:0:0:
396,88,95292,1,0,0:0:0:0:
396,88,95721,6,0,P|389:113|391:126,1,33.75
424,162,96149,6,0,P|347:155|277:199,1,135.000005149842
310,297,96471,2,0,P|354:233|351:151,1,135.000005149842
251,131,96792,1,0,0:0:0:0:
149,329,97007,6,0,B|168:231|168:231|154:172,1,135.000005149842
53,187,97328,2,0,B|128:252|128:252|186:269,1,135.000005149842
222,174,97649,2,0,B|174:190|174:190|152:211,1,67.5000025749208
310,297,97864,6,0,P|237:289|216:303,1,67.5000025749208
323,279,98078,2,0,P|277:221|252:216,1,67.5000025749208
344,275,98292,2,0,P|352:202|338:180,1,67.5000025749208
361,287,98507,2,0,P|418:241|423:216,1,67.5000025749208
364,307,98721,2,0,P|437:315|457:301,1,67.5000025749208
387,97,98935,5,0,0:0:0:0:
355,210,99042,1,0,0:0:0:0:
500,129,99149,1,0,0:0:0:0:
387,97,99256,1,0,0:0:0:0:
271,89,99364,2,0,P|200:100|174:97,1,67.5000025749208
120,100,99578,6,0,P|181:162|79:156,1,236.250002253056
258,170,100007,2,0,B|249:222|213:253|213:253|243:245|275:260|275:260|202:309|208:365,1,270
81,168,100435,6,0,P|128:224|122:297,1,135.000005149842
176,107,100757,2,0,P|169:179|113:227,1,135.000005149842
286,131,101078,1,0,0:0:0:0:
112,61,101292,6,0,P|176:27|217:39,1,67.5000025749208
229,207,101507,2,0,P|197:196|172:173,1,67.5000025749208
330,72,101721,2,0,B|356:80|386:139|352:175|333:192|333:192|363:185|363:185|385:200|413:199,1,202.500007724762
416,266,102149,6,0,B|456:252|470:221|476:170|440:140|440:140|492:148,1,180
452,371,102471,2,0,B|409:326|352:335|352:335|353:296|335:262,1,180
304,111,102792,2,0,P|332:210|320:238,1,90
