osu file format v14

[General]
AudioFilename: audio.mp3
AudioLeadIn: 0
PreviewTime: 175489
Countdown: 0
SampleSet: Soft
StackLeniency: 0.7
Mode: 0
LetterboxInBreaks: 0
WidescreenStoryboard: 0

[Editor]
Bookmarks: 32,21974,43917,54889,60374,63117,65860,85060,87803,109746,131689,153632,164603,170089,172832,175574,194774,197517,219460,241403,257860,263346,268832,274317,279803,285289,290774,296260,301746,307232,318203,329174,337403
DistanceSpacing: 1.1
BeatDivisor: 4
GridSize: 8
TimelineZoom: 1

[Metadata]
Title:Let This Go
TitleUnicode:Let This Go
Artist:Fox Stevenson
ArtistUnicode:Fox Stevenson
Creator:ReFaller
Version:Normal
Source:
Tags:dnb drum and bass stan sb breakcore jungle
BeatmapID:1192981
BeatmapSetID:563806

[Difficulty]
HPDrainRate:4
CircleSize:3.5
OverallDifficulty:4
ApproachRate:5
SliderMultiplier:1
SliderTickRate:1

[Events]
//Background and Video events
0,0,"space.jpg",0,0
//Break Periods
2,85260,86260
2,194975,195974
//Storyboard Layer 0 (Background)
//Storyboard Layer 1 (Fail)
//Storyboard Layer 2 (Pass)
//Storyboard Layer 3 (Foreground)
//Storyboard Sound Samples

[TimingPoints]
32,342.857142857143,4,2,1,40,1,0
21974,-133.333333333333,4,2,1,40,0,0
40832,-133.333333333333,4,2,1,5,0,0
43917,-133.333333333333,4,2,1,40,0,0
54889,-111.111111111111,4,2,1,40,0,0
65517,-111.111111111111,4,2,1,70,0,0
65860,-100,4,1,1,60,0,1
85060,-100,4,1,1,60,0,0
87460,-100,4,1,1,70,0,0
87803,-100,4,1,1,60,0,1
109746,-100,4,1,1,60,0,0
153974,-133.333333333333,4,2,1,40,0,0
164603,-111.111111111111,4,2,1,40,0,0
175232,-111.111111111111,4,2,1,70,0,0
175574,-100,4,1,1,60,0,1
194774,-100,4,1,1,60,0,0
197174,-100,4,1,1,70,0,0
197517,-100,4,1,1,60,0,1
219460,-200,4,2,1,60,0,0
219546,-200,4,2,1,20,0,0
241403,-111.111111111111,4,2,1,40,0,0
260946,-111.111111111111,4,2,1,45,0,0
261460,-111.111111111111,4,2,1,50,0,0
261974,-111.111111111111,4,2,1,55,0,0
262489,-111.111111111111,4,2,1,60,0,0
263003,-111.111111111111,4,2,1,70,0,0
263346,-100,4,2,1,60,0,0
305860,-100,4,2,1,70,0,0
305946,-100,4,2,1,15,0,0
307232,-100,4,2,1,60,0,0
307403,-100,4,2,1,40,0,0
329260,-100,4,2,1,5,0,0

[Colours]
Combo1 : 17,254,176
Combo2 : 173,255,95
Combo3 : 255,88,100
Combo4 : 255,94,55

[HitObjects]
174,40,21974,5,4,1:2:0:0:
413,102,23003,1,0,0:0:0:0:
413,102,23346,2,0,B|365:164|395:244,1,150.000005722046,2|0,0:0|0:0,0:0:0:0:
434,316,24374,1,2,0:0:0:0:
434,316,25060,2,0,B|354:276|258:324|258:324|162:372|74:324,1,375.000014305115,2|0,0:0|0:0,0:0:0:0:
256,56,28489,5,0,0:0:0:0:
204,120,28832,2,0,B|237:145|277:145|308:120,1,112.500004291535,2|2,0:0|0:0,0:0:0:0:
415,181,29860,1,2,0:0:0:0:
415,181,30546,2,0,B|336:294|180:294|95:184,1,375.000014305115,2|0,0:0|0:0,0:0:0:0:
204,60,33974,5,0,0:0:0:0:
204,60,34317,2,0,B|193:142|258:192,1,150.000005722046,2|2,0:0|0:0,0:0:0:0:
421,215,35689,2,0,B|355:164|279:195,1,150.000005722046,2|0,0:0|0:0,0:0:0:0:
178,325,37060,2,0,B|254:293|265:211,1,150.000005722046,2|0,0:0|0:0,0:0:0:0:
152,92,38432,6,0,B|200:116|257:87|257:87|315:58|368:87,1,225.000008583069,2|2,0:0|0:0,0:0:0:0:
436,192,39974,1,2,0:0:0:0:
367,297,40489,1,2,0:0:0:0:
256,192,41174,12,4,43917,1:0:0:0:
183,117,44603,6,0,L|61:102,2,112.500004291535,2|2|0,0:0|0:0|0:0,0:0:0:0:
162,196,45974,1,2,0:0:0:0:
304,280,46660,1,2,0:0:0:0:
329,117,47346,6,0,L|451:102,2,112.500004291535,2|2|2,0:0|0:0|0:0,0:0:0:0:
350,196,48717,1,2,0:0:0:0:
208,280,49403,6,0,B|149:294|149:294|54:273,1,150.000005722046,2|2,0:0|0:0,0:0:0:0:
146,133,50774,2,0,B|205:119|205:119|300:140,1,150.000005722046,2|2,0:0|0:0,0:0:0:0:
418,245,52146,2,0,B|468:181|449:97,2,150.000005722046,2|2|2,0:0|0:0|0:0,0:0:0:0:
287,345,54203,1,2,0:0:0:0:
135,283,54889,6,0,B|105:227|105:227|121:112,1,179.999994506836,0|0,1:0|1:0,0:0:0:0:
190,41,55917,1,0,1:0:0:0:
269,100,56260,2,0,B|305:129|352:119,1,89.9999972534181,0|0,1:0|1:0,0:0:0:0:
452,123,56946,2,0,B|492:150|497:196,1,89.9999972534181,0|0,1:0|1:0,0:0:0:0:
446,281,57632,6,0,B|407:300|362:277|362:277|315:253|273:277,1,179.999994506836,0|0,1:0|1:0,0:0:0:0:
190,330,58660,1,0,1:0:0:0:
104,280,59003,2,0,L|80:194,1,89.9999972534181,0|0,1:0|1:0,0:0:0:0:
163,139,59689,2,0,L|187:225,1,89.9999972534181,0|0,1:0|1:0,0:0:0:0:
273,276,60374,5,0,1:0:0:0:
371,288,60717,1,0,1:0:0:0:
383,190,61060,1,0,1:0:0:0:
285,178,61403,1,0,1:0:0:0:
193,216,61746,5,0,1:0:0:0:
95,204,62089,1,0,1:0:0:0:
107,106,62432,1,0,1:0:0:0:
205,118,62775,1,0,1:0:0:0:
285,178,63117,6,0,B|314:142|304:94,1,89.9999972534181,0|0,1:0|1:0,0:0:0:0:
224,33,63803,2,0,B|195:69|204:116,1,89.9999972534181,0|0,1:0|1:0,0:0:0:0:
194,215,64489,2,2,B|325:189|325:189|456:224,1,269.999991760254,0|4,1:0|1:2,0:0:0:0:
438,332,65860,6,0,B|386:351|346:311,1,100,0|8,0:0|0:0,0:0:0:0:
295,289,66374,2,0,L|137:321,1,150,0|8,0:0|0:0,0:0:0:0:
40,294,67232,1,0,0:0:0:0:
85,194,67574,1,8,0:0:0:0:
194,215,67917,2,0,L|292:195,1,100,0|8,0:0|0:0,0:0:0:0:
371,271,68603,6,0,B|408:225|398:172,1,100,0|8,0:0|0:0,0:0:0:0:
385,124,69117,2,0,B|326:117|296:73,1,100
260,39,69632,1,8,0:0:0:0:
152,59,69974,2,0,L|53:78,1,100,0|8,0:0|0:0,0:0:0:0:
36,187,70660,2,0,L|134:167,1,100,0|8,0:0|0:0,0:0:0:0:
242,148,71346,5,0,0:0:0:0:
205,251,71689,1,8,0:0:0:0:
205,251,71860,2,0,B|273:306|352:292,1,150,0|8,0:0|0:0,0:0:0:0:
444,249,72717,1,0,0:0:0:0:
433,358,73060,1,8,0:0:0:0:
344,293,73403,2,0,B|323:243|349:193,1,100,0|8,0:0|0:0,0:0:0:0:
442,140,74089,5,0,0:0:0:0:
346,85,74432,2,0,B|197:106,1,150,8|0,0:0|0:0,0:0:0:0:
150,134,75117,2,0,B|129:184|155:234,1,100,8|0,0:0|0:0,0:0:0:0:
239,300,75803,2,0,B|274:280|278:234,2,75,8|0|0,0:0|0:0|0:0,0:0:0:0:
194,332,76489,1,8,0:0:0:0:
153,230,76832,6,0,L|129:126,1,100,0|8,0:0|0:0,0:0:0:0:
142,78,77346,2,0,B|199:21|279:40,1,150,0|8,0:0|0:0,0:0:0:0:
371,101,78203,1,0,0:0:0:0:
475,65,78546,1,8,0:0:0:0:
383,5,78889,2,0,B|354:51|372:104,1,100,0|8,0:0|0:0,0:0:0:0:
454,173,79574,6,0,L|435:272,1,100,0|8,0:0|0:0,0:0:0:0:
418,323,80089,2,0,B|371:351|318:333,1,100
267,323,80603,1,8,0:0:0:0:
193,241,80946,2,0,L|181:142,1,100,0|8,0:0|0:0,0:0:0:0:
74,167,81632,2,0,L|86:266,1,100,0|8,0:0|0:0,0:0:0:0:
160,346,82317,5,0,0:0:0:0:
193,241,82660,1,8,0:0:0:0:
193,241,82831,2,0,B|252:183|330:198,1,150,0|8,0:0|0:0,0:0:0:0:
432,238,83689,1,0,0:0:0:0:
347,307,84032,1,8,0:0:0:0:
330,198,84375,2,0,B|321:144,2,50,0|0|8,0:0|0:0|0:0,0:0:0:0:
244,267,85060,5,0,0:0:0:0:
409,98,87460,5,4,0:2:0:0:
385,205,87803,6,0,B|332:225|293:184,1,100,4|8,0:0|0:0,0:0:0:0:
196,133,88489,2,0,L|136:144,2,50,0|0|8,0:0|0:0|0:0,0:0:0:0:
293,184,89174,2,0,L|315:284,1,100,0|8,0:0|0:0,0:0:0:0:
221,339,89860,2,0,L|200:241,1,100,0|8,0:0|0:0,0:0:0:0:
196,133,90546,5,0,0:0:0:0:
289,75,90889,1,8,0:0:0:0:
386,126,91232,2,0,L|446:115,2,50,0|0|8,0:0|0:0|0:0,0:0:0:0:
293,184,91917,2,0,B|272:233|298:284,1,100,0|8,0:0|0:0,0:0:0:0:
397,325,92603,2,0,B|417:275|393:228,1,100,0|8,0:0|0:0,0:0:0:0:
293,184,93289,5,0,0:0:0:0:
196,236,93632,1,8,0:0:0:0:
96,190,93974,2,0,L|86:132,2,50,0|0|8,0:0|0:0|0:0,0:0:0:0:
196,236,94660,2,0,B|249:243|280:291,1,100,0|8,0:0|0:0,0:0:0:0:
183,345,95346,2,0,L|125:355,2,50,0|0|8,0:0|0:0|0:0,0:0:0:0:
277,287,96032,5,0,0:0:0:0:
384,310,96374,2,0,B|452:255|426:176,1,150,8|0,0:0|0:0,0:0:0:0:
404,126,97060,2,0,L|303:113,1,100,8|0,0:0|0:0,0:0:0:0:
223,187,97746,2,0,L|135:175,2,75,8|0|0,0:0|0:0|0:0,0:0:0:0:
277,196,98432,1,8,0:0:0:0:
351,277,98774,6,0,B|389:239|386:187,1,100,0|8,0:0|0:0,0:0:0:0:
321,97,99460,2,0,L|308:34,2,50,0|0|8,0:0|0:0|0:0,0:0:0:0:
277,196,100146,1,0,0:0:0:0:
168,180,100489,1,8,0:0:0:0:
71,232,100832,2,0,B|57:284|86:327,1,100,0|8,0:0|0:0,0:0:0:0:
191,362,101517,5,0,0:0:0:0:
286,307,101860,1,8,0:0:0:0:
395,321,102203,2,0,L|457:329,2,50,0|0|8,0:0|0:0|0:0,0:0:0:0:
286,307,102889,2,0,B|248:268|251:216,1,100,0|8,0:0|0:0,0:0:0:0:
327,136,103574,2,0,B|364:174|361:226,1,100,0|8,0:0|0:0,0:0:0:0:
286,307,104260,5,0,0:0:0:0:
180,277,104603,1,8,0:0:0:0:
78,320,104946,2,0,L|63:375,2,50,0|0|8,0:0|0:0|0:0,0:0:0:0:
180,277,105632,2,0,B|212:234|200:178,1,100,0|8,0:0|0:0,0:0:0:0:
119,108,106317,2,0,L|64:93,2,50,0|0|8,0:0|0:0|0:0,0:0:0:0:
201,182,107003,5,0,0:0:0:0:
299,132,107346,2,0,B|376:102|446:167,4,150,8|8|8|8|8,0:0|0:0|0:0|0:0|0:0,0:0:0:0:
201,182,109746,5,4,0:0:0:0:
228,288,110089,1,8,0:0:0:0:
331,251,110432,2,0,B|361:242|394:251,2,50,0|0|8,0:0|0:0|0:0,0:0:0:0:
228,288,111117,1,0,0:0:0:0:
122,258,111460,1,8,0:0:0:0:
122,258,111632,2,0,B|86:217|91:165,1,100
115,116,112146,6,0,B|217:152|305:87,1,200,8|8,0:0|0:0,0:0:0:0:
412,65,113174,1,0,0:0:0:0:
443,170,113517,1,8,0:0:0:0:
336,198,113860,2,0,B|281:201|249:242,1,100,0|8,0:0|0:0,0:0:0:0:
218,287,114374,2,0,L|60:255,1,150,0|8,0:0|0:0,0:0:0:0:
56,147,115232,5,0,0:0:0:0:
139,75,115574,1,8,0:0:0:0:
246,97,115917,2,0,L|308:108,2,50,0|0|8,0:0|0:0|0:0,0:0:0:0:
173,180,116603,1,0,0:0:0:0:
279,205,116946,1,8,0:0:0:0:
279,205,117117,2,0,B|314:245|309:297,1,100
296,351,117632,6,0,B|251:377|198:351|198:351|149:325|105:346,1,200,8|8,0:0|0:0,0:0:0:0:
22,273,118660,2,0,L|9:170,1,100,0|8,0:0|0:0,0:0:0:0:
106,120,119346,2,0,L|118:219,1,100,0|8,0:0|0:0,0:0:0:0:
163,250,119860,2,0,B|244:256|296:191,1,150,0|8,0:0|0:0,0:0:0:0:
379,263,120717,5,4,0:0:0:0:
482,225,121060,1,8,0:0:0:0:
398,154,121403,2,0,L|406:103,2,50,0|0|8,0:0|0:0|0:0,0:0:0:0:
379,263,122089,1,0,0:0:0:0:
295,193,122432,1,8,0:0:0:0:
295,193,122603,2,0,L|189:208,1,100
141,212,123117,6,0,B|78:177|63:96|112:41,1,200,8|8,0:0|0:0,0:0:0:0:
193,115,124146,1,0,0:0:0:0:
278,46,124489,1,8,0:0:0:0:
381,82,124832,2,0,B|406:133|380:181,1,100,0|8,0:0|0:0,0:0:0:0:
348,222,125346,2,0,L|247:201,1,100
195,207,125860,1,8,0:0:0:0:
85,216,126203,6,0,L|69:317,1,100,0|8,0:0|0:0,0:0:0:0:
179,316,126889,2,0,L|231:324,2,50,0|0|8,0:0|0:0|0:0,0:0:0:0:
195,207,127574,1,0,0:0:0:0:
299,240,127917,1,8,0:0:0:0:
299,240,128089,2,0,B|350:265|398:239,1,100
442,212,128603,2,0,L|462:111,1,100,8|0,0:0|0:0,0:0:0:0:
351,103,129289,6,0,B|275:130|209:81,4,150,8|8|8|8|8,0:0|0:0|0:0|0:0|0:0,0:0:0:0:
460,115,131689,6,0,B|485:181|444:253|371:263,1,200,4|0,0:0|0:0,0:0:0:0:
263,235,132717,1,8,0:0:0:0:
154,254,133060,2,0,B|120:297|129:349,1,100,0|8,0:0|0:0,0:0:0:0:
240,329,133746,2,0,B|272:287|263:235,1,100,0|8,0:0|0:0,0:0:0:0:
189,152,134432,5,0,0:0:0:0:
81,171,134774,2,0,B|13:122|14:43,1,150,8|0,0:0|0:0,0:0:0:0:
59,10,135460,1,8,0:0:0:0:
163,45,135803,1,0,0:0:0:0:
189,152,136146,2,0,L|196:231,2,75,8|0|0,0:0|0:0|0:0,0:0:0:0:
228,113,136832,1,8,0:0:0:0:
334,140,137174,6,0,L|438:128,1,100,0|8,0:0|0:0,0:0:0:0:
477,229,137860,2,0,L|377:240,1,100,0|8,0:0|0:0,0:0:0:0:
300,319,138546,2,0,B|263:281|267:229,2,100,0|8|0,0:0|0:0|0:0,0:0:0:0:
377,240,139574,1,8,0:0:0:0:
334,140,139917,5,0,0:0:0:0:
225,157,140260,2,0,L|76:132,1,150,8|0,0:0|0:0,0:0:0:0:
26,154,140946,2,0,B|5:204|31:254,1,100,8|0,0:0|0:0,0:0:0:0:
115,320,141632,2,0,B|150:300|154:254,2,75,8|0|0,0:0|0:0|0:0,0:0:0:0:
70,352,142318,1,8,0:0:0:0:
29,250,142660,5,0,0:0:0:0:
97,163,143003,2,0,B|166:118|240:148,1,150,8|0,0:0|0:0,0:0:0:0:
289,171,143689,1,8,0:0:0:0:
369,246,144032,2,0,B|404:207|397:153,1,100,0|8,0:0|0:0,0:0:0:0:
289,171,144717,2,0,B|253:209|260:263,1,100,0|8,0:0|0:0,0:0:0:0:
345,334,145403,5,0,0:0:0:0:
441,280,145746,2,0,B|491:222|461:137,1,150,8|0,0:0|0:0,0:0:0:0:
407,151,146432,2,0,B|353:167|312:133,1,100,8|0,0:0|0:0,0:0:0:0:
250,43,147117,2,0,L|162:31,2,75,8|0|0,0:0|0:0|0:0,0:0:0:0:
304,50,147803,1,8,0:0:0:0:
225,127,148146,5,0,0:0:0:0:
279,222,148489,2,0,B|360:253|416:191,1,150,8|0,0:0|0:0,0:0:0:0:
452,151,149174,1,8,0:0:0:0:
398,54,149517,2,0,L|291:44,1,100,0|8,0:0|0:0,0:0:0:0:
225,127,150203,2,0,L|157:120,2,50,0|0|8,0:0|0:0|0:0,0:0:0:0:
279,222,150889,5,0,0:0:0:0:
377,172,151232,2,0,B|408:253|346:309,1,150,8|0,0:0|0:0,0:0:0:0:
294,325,151917,2,0,L|191:310,1,100,8|0,0:0|0:0,0:0:0:0:
86,334,152603,2,0,B|68:297|80:260,2,75,8|0|0,0:0|0:0|0:0,0:0:0:0:
110,383,153289,1,8,0:0:0:0:
194,311,153632,5,4,0:0:0:0:
194,311,154317,2,0,B|238:294|270:325|306:307,2,112.500004291535,2|2|0,0:0|0:0|0:0,0:0:0:0:
122,352,155689,1,2,0:0:0:0:
82,279,156032,1,2,0:0:0:0:
204,60,157060,6,0,B|237:35|277:35|308:60,1,112.500004291535,2|2,0:0|0:0,0:0:0:0:
256,124,157917,1,0,0:0:0:0:
204,188,158260,2,0,B|235:213|275:213|308:188,1,112.500004291535,2|2,0:0|0:0,0:0:0:0:
453,110,159460,5,0,0:0:0:0:
453,110,159803,2,0,L|472:193,1,75.0000028610231,2|0,0:0|0:0,0:0:0:0:
395,220,160489,2,0,L|378:146,1,75.0000028610231,2|0,0:0|0:0,0:0:0:0:
303,182,161174,2,0,L|320:256,1,75.0000028610231,2|0,0:0|0:0,0:0:0:0:
256,308,161860,6,0,B|218:323|218:323|144:312,2,112.500004291535,2|2|0,0:0|0:0|0:0,0:0:0:0:
320,256,163232,2,0,B|361:242|361:242|432:252,2,112.500004291535,2|2|2,0:0|0:0|0:0,0:0:0:0:
256,308,164603,6,0,B|191:235|209:142,1,179.999994506836,0|0,1:0|1:0,0:0:0:0:
271,64,165632,1,0,1:0:0:0:
352,119,165974,2,0,B|388:148|435:138,1,89.9999972534181,0|0,1:0|1:0,0:0:0:0:
498,59,166660,2,0,B|462:30|415:40,1,89.9999972534181,0|0,1:0|1:0,0:0:0:0:
352,119,167346,6,0,B|334:212|399:285,1,179.999994506836,0|0,1:0|1:0,0:0:0:0:
313,335,168374,1,0,1:0:0:0:
220,298,168717,2,0,B|191:262|201:215,1,89.9999972534181,0|0,1:0|1:0,0:0:0:0:
280,152,169403,2,0,B|309:188|299:235,1,89.9999972534181,0|0,1:0|1:0,0:0:0:0:
220,298,170089,5,0,1:0:0:0:
134,248,170432,1,0,1:0:0:0:
55,308,170774,1,0,1:0:0:0:
141,357,171117,1,0,1:0:0:0:
220,298,171460,5,0,1:0:0:0:
134,248,171803,1,0,1:0:0:0:
220,198,172146,1,0,1:0:0:0:
134,148,172489,1,0,1:0:0:0:
220,98,172832,6,0,L|315:88,1,89.9999972534181,0|0,1:0|1:0,0:0:0:0:
399,129,173517,2,0,B|416:174|389:218,1,89.9999972534181,0|0,1:0|1:0,0:0:0:0:
312,276,174203,2,2,B|187:199|52:250,1,269.999991760254,0|4,1:0|1:2,0:0:0:0:
27,356,175574,6,0,B|76:370|128:332,1,100,0|8,0:0|0:0,0:0:0:0:
157,294,176089,2,0,B|170:220|170:220|180:204|180:204|193:133,1,150,0|8,0:0|0:0,0:0:0:0:
80,141,176946,1,0,0:0:0:0:
104,33,177289,1,8,0:0:0:0:
213,41,177632,2,0,L|312:36,1,100,0|8,0:0|0:0,0:0:0:0:
416,73,178317,6,0,B|445:124|416:175,1,100,0|8,0:0|0:0,0:0:0:0:
392,216,178831,2,0,B|289:205,1,100
237,197,179346,1,8,0:0:0:0:
143,254,179689,2,0,L|124:353,1,100,0|8,0:0|0:0,0:0:0:0:
29,296,180375,2,0,L|49:198,1,100,0|8,0:0|0:0,0:0:0:0:
143,140,181060,5,0,0:0:0:0:
237,197,181403,1,8,0:0:0:0:
237,197,181574,2,0,B|307:156|385:186,1,150,0|8,0:0|0:0,0:0:0:0:
476,237,182432,1,0,0:0:0:0:
381,294,182775,1,8,0:0:0:0:
381,184,183118,2,0,B|381:80,1,100,0|8,0:0|0:0,0:0:0:0:
479,133,183803,5,0,0:0:0:0:
381,184,184146,2,0,B|302:205|235:156,1,150,8|0,0:0|0:0,0:0:0:0:
193,126,184832,2,0,L|91:143,1,100,8|0,0:0|0:0,0:0:0:0:
158,232,185517,2,0,L|80:244,2,75,8|0|0,0:0|0:0|0:0,0:0:0:0:
212,223,186203,1,8,0:0:0:0:
313,265,186546,5,0,0:0:0:0:
412,217,186889,1,8,0:0:0:0:
412,217,187060,2,0,B|466:155|449:77,1,150,0|8,0:0|0:0,0:0:0:0:
356,18,187917,1,0,0:0:0:0:
256,64,188260,1,8,0:0:0:0:
156,18,188603,2,0,L|56:45,1,100,0|8,0:0|0:0,0:0:0:0:
11,143,189289,6,0,B|10:197|49:231,1,100,0|8,0:0|0:0,0:0:0:0:
97,259,189804,2,0,L|196:240,1,100
246,260,190318,1,8,0:0:0:0:
349,224,190660,2,0,L|370:119,1,100,0|8,0:0|0:0,0:0:0:0:
460,188,191346,2,0,L|441:286,1,100,0|8,0:0|0:0,0:0:0:0:
341,334,192032,5,0,0:0:0:0:
250,271,192375,1,8,0:0:0:0:
250,271,192546,2,0,B|191:213|113:228,1,150,0|8,0:0|0:0,0:0:0:0:
10,268,193404,1,0,0:0:0:0:
95,337,193747,1,8,0:0:0:0:
198,297,194090,2,0,B|252:306,2,50,0|0|8,0:0|0:0|0:0,0:0:0:0:
112,228,194775,5,0,0:0:0:0:
292,106,197174,5,4,0:2:0:0:
219,188,197517,6,0,L|118:175,1,100,4|8,0:0|0:0,0:0:0:0:
37,249,198203,2,0,B|28:279|37:312,2,50,0|0|8,0:0|0:0|0:0,0:0:0:0:
119,175,198889,2,0,L|103:60,1,100,0|8,0:0|0:0,0:0:0:0:
206,31,199574,2,0,L|321:47,1,100,0|8,0:0|0:0,0:0:0:0:
343,148,200260,5,0,0:0:0:0:
451,165,200603,1,8,0:0:0:0:
383,251,200946,2,0,L|392:311,2,50,0|0|8,0:0|0:0|0:0,0:0:0:0:
343,148,201632,2,0,B|336:95|288:64,1,100,0|8,0:0|0:0,0:0:0:0:
184,92,202318,2,0,B|159:139|180:189,1,100,0|8,0:0|0:0,0:0:0:0:
278,236,203003,5,0,0:0:0:0:
343,148,203346,1,8,0:0:0:0:
383,251,203689,2,0,L|403:305,2,50,0|0|8,0:0|0:0|0:0,0:0:0:0:
450,165,204374,2,0,B|482:122|470:66,1,100,0|8,0:0|0:0,0:0:0:0:
364,40,205060,2,0,L|308:32,2,50,0|0|8,0:0|0:0|0:0,0:0:0:0:
343,148,205746,5,0,0:0:0:0:
243,102,206088,2,0,B|164:76|109:144,1,150,8|0,0:0|0:0,0:0:0:0:
92,195,206774,2,0,L|105:296,1,100,8|0,0:0|0:0,0:0:0:0:
212,318,207460,2,0,L|200:230,2,75,8|0|0,0:0|0:0|0:0,0:0:0:0:
221,372,208146,1,8,0:0:0:0:
327,344,208489,6,0,B|348:298|348:298|340:250,1,100,0|8,0:0|0:0,0:0:0:0:
274,161,209174,2,0,B|255:137|255:107,2,50,0|0|8,0:0|0:0|0:0,0:0:0:0:
383,147,209860,2,0,B|482:133,1,100,0|8,0:0|0:0,0:0:0:0:
438,235,210546,2,0,B|339:249,1,100,0|8,0:0|0:0,0:0:0:0:
229,262,211232,5,0,0:0:0:0:
134,317,211574,1,8,0:0:0:0:
38,262,211917,2,0,L|22:207,2,50,0|0|8,0:0|0:0|0:0,0:0:0:0:
134,206,212603,2,0,B|171:165|158:113,1,100,0|8,0:0|0:0,0:0:0:0:
74,41,213289,2,0,B|37:82|50:134,1,100,0|8,0:0|0:0,0:0:0:0:
134,206,213974,5,0,0:0:0:0:
239,173,214317,1,8,0:0:0:0:
346,196,214660,2,0,L|401:175,2,50,0|0|8,0:0|0:0|0:0,0:0:0:0:
310,300,215346,2,0,B|258:314|216:279,1,100,0|8,0:0|0:0,0:0:0:0:
134,206,216032,2,0,L|79:227,2,50,0|0|8,0:0|0:0|0:0,0:0:0:0:
239,173,216717,5,0,0:0:0:0:
184,78,217060,2,0,B|255:38|327:78,4,150,8|8|8|8|8,0:0|0:0|0:0|0:0|0:0,0:0:0:0:
136,176,219460,6,0,B|194:213|258:189|316:163|380:191,1,250,4|0,1:0|0:0,0:0:0:0:
380,356,222203,2,0,B|322:393|258:369|200:343|135:371,1,250,2|0,0:0|0:0,0:0:0:0:
135,370,224946,6,0,L|115:270,1,100,2|0,0:0|0:0,0:0:0:0:
223,249,226317,2,0,L|220:147,1,100,2|0,0:0|0:0,0:0:0:0:
329,161,227689,1,2,0:0:0:0:
412,89,228374,1,0,0:0:0:0:
511,139,229060,1,2,0:0:0:0:
376,312,230432,6,0,B|256:360|128:312,1,250,2|0,0:0|0:0,0:0:0:0:
131,148,233174,2,0,B|255:101|375:149,1,250,2|0,0:0|0:0,0:0:0:0:
375,149,235917,6,0,B|350:195|372:245,1,100,2|0,0:0|0:0,0:0:0:0:
470,296,237289,2,0,B|494:249|472:199,1,100,2|0,0:0|0:0,0:0:0:0:
375,149,238660,1,2,0:0:0:0:
277,199,239346,1,0,0:0:0:0:
178,149,240032,1,2,0:0:0:0:
381,65,241403,5,4,1:0:0:0:
381,65,241746,2,0,B|405:136|343:185,2,134.999995880127,2|2|0,0:3|0:3|1:0,0:0:0:0:
288,100,243117,6,0,L|189:90,1,89.9999972534181,2|2,0:3|0:0,0:0:0:0:
155,116,243632,2,0,B|184:182|147:245,1,134.999995880127,2|0,0:3|1:0,0:0:0:0:
67,303,244489,2,0,B|38:237|74:173,2,134.999995880127,2|2|0,0:3|0:3|1:0,0:0:0:0:
147,245,245860,2,0,L|290:233,1,134.999995880127,2|2,0:3|0:3,0:0:0:0:
420,287,246889,5,0,1:0:0:0:
420,287,247232,2,0,B|456:223|427:157,1,134.999995880127,2|2,0:3|0:3,0:0:0:0:
378,159,247917,2,0,B|330:166|295:131,1,89.9999972534181,0|0,0:0|1:0,0:0:0:0:
213,76,248603,2,0,L|79:94,1,134.999995880127,2|2,0:3|0:3,0:0:0:0:
36,120,249289,2,0,B|70:154|63:202,1,89.9999972534181,0|0,0:0|1:0,0:0:0:0:
34,297,249974,6,0,L|167:278,2,134.999995880127,2|2|0,0:3|0:3|1:0,0:0:0:0:
63,202,251346,2,0,L|196:183,2,134.999995880127,2|2|0,0:3|0:3|1:0,0:0:0:0:
92,107,252717,6,0,L|181:94,1,89.9999972534181,2|2,0:3|0:0,0:0:0:0:
230,86,253232,2,0,B|296:117|294:194,1,134.999995880127,2|0,0:3|1:0,0:0:0:0:
196,183,254089,2,0,B|194:260|260:291,1,134.999995880127,2|2,0:3|0:3,0:0:0:0:
390,219,255117,5,0,1:0:0:0:
294,194,255460,2,0,L|149:205,1,134.999995880127,2|2,0:3|0:3,0:0:0:0:
79,329,256489,1,0,1:0:0:0:
175,354,256832,2,0,L|320:343,1,134.999995880127,2|2,0:3|0:3,0:0:0:0:
450,298,257860,5,0,1:0:0:0:
390,219,258203,2,0,L|397:129,1,89.9999972534181,2|2,0:3|0:0,0:0:0:0:
414,82,258717,2,0,B|361:85|361:85|285:53,1,134.999995880127,2|0,0:3|1:0,0:0:0:0:
202,107,259574,2,0,L|112:119,1,89.9999972534181,2|2,0:3|0:0,0:0:0:0:
72,149,260089,2,0,B|64:196|99:231,1,89.9999972534181,2|0,0:3|0:0,0:0:0:0:
135,264,260603,5,0,1:0:0:0:
229,293,260946,2,0,L|277:218,1,89.9999972534181,2|2,0:3|0:0,0:0:0:0:
320,192,261460,2,0,L|456:192,3,134.999995880127,2|8|8|4,0:3|0:1|0:1|1:2,0:0:0:0:
408,91,263346,5,4,1:0:0:0:
305,49,263689,1,8,1:2:0:0:
305,49,263860,2,0,B|286:103|229:104,1,100,0|8,0:0|1:2,0:0:0:0:
174,99,264374,2,0,L|101:171,1,100,2|0,0:0|1:0,0:0:0:0:
181,248,265060,6,0,L|331:248,2,150,8|8|0,1:2|1:2|1:0,0:0:0:0:
206,355,266432,1,8,1:2:0:0:
206,355,266603,2,0,L|306:355,1,100,0|8,0:0|1:2,0:0:0:0:
361,355,267117,1,2,0:0:0:0:
331,248,267460,1,8,1:2:0:0:
331,248,267974,6,0,B|381:229|406:184,2,100,0|0|0,1:0|1:0|1:0,0:0:0:0:
277,263,268832,1,4,1:0:0:0:
212,174,269174,6,0,B|240:127|228:78,1,100,8|2,1:2|0:0,0:0:0:0:
173,87,269689,2,0,L|20:68,1,150,8|0,1:2|1:0,0:0:0:0:
35,178,270546,2,0,L|134:190,1,100,8|2,1:2|0:0,0:0:0:0:
185,209,271060,2,0,B|229:286|186:356,1,150,8|0,1:2|1:0,0:0:0:0:
105,279,271917,2,0,B|61:202|104:132,1,150,8|8,1:2|1:2,0:0:0:0:
286,49,274317,5,4,1:0:0:0:
286,49,274660,2,0,B|273:97|273:97|285:151,1,100,8|2,1:2|0:0,0:0:0:0:
322,185,275174,2,0,B|248:152|175:179,1,150,8|0,1:2|1:0,0:0:0:0:
119,273,276032,6,0,B|166:296|216:280,1,100,8|2,1:2|0:0,0:0:0:0:
260,313,276546,2,0,B|240:241|240:241|258:160,1,150,8|0,1:2|1:0,0:0:0:0:
343,99,277403,2,0,B|362:171|362:171|344:252,1,150,8|8,1:2|1:2,0:0:0:0:
392,275,278089,2,0,B|490:257,2,100,2|8|0,0:0|1:2|0:0,0:0:0:0:
346,244,278946,5,0,1:0:0:0:
237,263,279289,1,0,1:0:0:0:
128,282,279632,1,0,1:0:0:0:
128,282,279803,1,4,1:0:0:0:
168,179,280146,6,0,B|203:108|165:33,1,150,8|8,1:2|1:2,0:0:0:0:
218,41,280832,2,0,L|316:22,1,100,2|0,0:0|1:0,0:0:0:0:
391,101,281517,2,0,L|362:248,1,150,8|8,1:2|1:2,0:0:0:0:
355,303,282203,2,0,L|453:284,2,100,0|0|8,0:0|1:0|1:2,0:0:0:0:
256,248,283232,1,2,0:0:0:0:
256,248,283403,2,0,B|221:177|258:102,1,150,8|8,1:2|1:2,0:0:0:0:
257,103,284432,5,0,1:0:0:0:
147,99,284774,1,0,1:0:0:0:
37,95,285117,1,0,1:0:0:0:
37,95,285289,6,0,L|18:193,2,100,4|8|2,1:0|1:2|0:0,0:0:0:0:
82,63,286146,2,0,B|140:124|217:108,1,150,8|0,1:2|1:0,0:0:0:0:
318,63,287003,2,0,L|337:161,1,100,8|2,1:2|0:0,0:0:0:0:
339,216,287517,2,0,B|397:155|474:170,1,150,8|0,1:2|1:0,0:0:0:0:
434,273,288374,6,0,B|376:334|298:318,1,150,8|8,1:2|1:2,0:0:0:0:
251,289,289060,2,0,L|270:191,1,100,2|8,0:0|1:2,0:0:0:0:
194,110,289746,1,0,0:0:0:0:
194,110,289917,2,0,L|96:129,2,100,0|0|0,1:0|1:0|1:0,0:0:0:0:
234,147,290774,5,4,1:0:0:0:
311,68,291117,2,0,L|462:38,2,150,8|8|0,1:2|1:2|1:0,0:0:0:0:
378,155,292489,2,0,B|390:204|362:251,1,100,8|2,1:2|0:0,0:0:0:0:
314,279,293003,2,0,B|243:237|169:255,1,150,8|0,1:2|1:0,0:0:0:0:
82,322,293860,6,0,B|40:251|58:178,2,150,8|8|8,1:2|1:2|1:2,0:0:0:0:
169,255,295232,1,0,0:0:0:0:
169,255,295403,2,0,B|154:202|178:158,2,100,0|0|0,1:0|1:0|1:0,0:0:0:0:
194,303,296260,1,4,1:0:0:0:
297,265,296603,6,0,L|446:252,2,150,8|8|0,1:2|1:2|1:0,0:0:0:0:
194,303,297974,2,0,L|45:316,2,150,8|8|0,1:2|1:2|1:0,0:0:0:0:
213,194,299346,6,0,B|188:149|203:97,1,100,8|2,1:2|0:0,0:0:0:0:
256,112,299860,2,0,L|405:99,1,150,8|8,1:2|1:2,0:0:0:0:
392,208,300717,1,0,0:0:0:0:
392,208,300889,2,0,L|292:216,2,100,0|0|0,1:0|1:0|1:0,0:0:0:0:
440,235,301746,5,4,1:0:0:0:
440,235,302089,2,0,B|478:165|456:89,2,150,8|8|0,1:2|1:2|1:0,0:0:0:0:
332,213,303460,2,0,B|293:282|315:358,2,150,8|8|0,1:2|1:2|1:0,0:0:0:0:
256,132,304832,2,0,L|107:123,1,150,8|8,1:2|1:2,0:0:0:0:
63,157,305517,1,0,0:0:0:0:
61,267,305860,6,0,B|146:327|349:201|451:267,1,400,12|4,1:2|1:0,0:0:0:0:
508,173,307574,6,0,L|483:20,1,150,8|8,1:2|1:2,0:0:0:0:
355,128,308603,1,0,1:0:0:0:
355,128,308946,2,0,L|379:276,1,150,8|8,1:2|1:2,0:0:0:0:
226,231,309974,5,0,1:0:0:0:
226,231,310317,2,0,L|200:78,2,150,8|8|8,1:2|1:2|1:2,0:0:0:0:
112,351,311860,1,0,1:0:0:0:
220,333,312202,1,0,1:0:0:0:
329,316,312545,1,0,1:0:0:0:
329,316,312717,5,0,1:0:0:0:
437,337,313060,2,0,B|475:267|453:191,2,150,8|8|0,1:2|1:2|1:0,0:0:0:0:
329,316,314432,2,0,L|173:338,2,150,8|8|0,1:2|1:2|1:0,0:0:0:0:
437,337,315803,2,0,B|462:290|448:240,1,100,8|2,1:2|0:0,0:0:0:0:
395,222,316317,2,0,B|356:152|378:76,1,150,8|8,1:2|1:2,0:0:0:0:
378,76,317346,5,0,1:0:0:0:
269,93,317689,1,0,1:0:0:0:
161,111,318031,1,0,1:0:0:0:
161,111,318203,6,0,L|176:213,1,100,4|8,1:0|1:2,0:0:0:0:
99,289,318889,1,2,0:0:0:0:
99,289,319060,2,0,B|135:325|194:332|236:300,1,150,8|0,1:2|1:0,0:0:0:0:
285,202,319917,2,0,L|383:187,1,100,8|2,1:2|0:0,0:0:0:0:
437,201,320432,2,0,B|388:141|406:60,1,150,8|0,1:2|0:0,0:0:0:0:
297,75,321289,6,0,L|138:50,2,150,8|8|8,1:2|1:2|1:2,0:0:0:0:
297,75,322832,1,0,1:0:0:0:
313,183,323174,1,0,1:0:0:0:
329,291,323517,1,0,1:0:0:0:
329,291,323689,5,0,1:0:0:0:
227,249,324032,2,0,L|79:268,1,150,8|8,1:2|1:2,0:0:0:0:
89,158,324889,1,0,0:0:0:0:
89,158,325060,2,0,L|188:145,1,100,0|10,1:0|1:2,0:0:0:0:
242,157,325574,2,0,L|254:57,1,100,0|8,1:0|1:2,0:0:0:0:
418,32,326432,6,0,L|405:131,1,100,0|8,1:0|1:2,0:0:0:0:
399,186,326946,2,0,L|498:173,1,100,0|8,1:0|1:2,0:0:0:0:
494,228,327460,2,0,L|481:327,1,100,2|12,0:0|1:2,0:0:0:0:
325,270,328317,2,0,L|225:257,2,100,0|0|0,1:0|1:0|1:0,0:0:0:0:
364,309,329174,5,4,1:0:0:0:
256,192,329346,12,0,337403,0:0:0:0:
