osu file format v14

[General]
AudioFilename: audio.mp3
AudioLeadIn: 0
PreviewTime: 93264
Countdown: 0
SampleSet: Soft
StackLeniency: 0.5
Mode: 0
LetterboxInBreaks: 0
WidescreenStoryboard: 0

[Editor]
Bookmarks: 85121,87864,109807
DistanceSpacing: 0.9
BeatDivisor: 4
GridSize: 4
TimelineZoom: 1

[Metadata]
Title:Let This Go
TitleUnicode:Let This Go
Artist:Fox Stevenson
ArtistUnicode:Fox Stevenson
Creator:Apo11o
Version:Expectations
Source:
Tags:
BeatmapID:2107452
BeatmapSetID:1006953

[Difficulty]
HPDrainRate:5
CircleSize:4.2
OverallDifficulty:8.6
ApproachRate:9
SliderMultiplier:1.8
SliderTickRate:1

[Events]
//Background and Video events
0,0,"45d98f9c34b1674ffd97b34b06c04119.jpg",0,0
//Break Periods
//Storyboard Layer 0 (Background)
//Storyboard Layer 1 (Fail)
//Storyboard Layer 2 (Pass)
//Storyboard Layer 3 (Foreground)
//Storyboard Sound Samples

[TimingPoints]
93,342.857142857143,4,2,0,60,1,0
22035,-185.185185185185,4,2,0,60,0,0
43978,-135.135135135135,4,2,0,60,0,0
54950,-119.047619047619,4,2,0,60,0,0
60778,-96.1538461538461,4,2,0,60,0,0
65921,-96.1538461538461,4,2,0,60,0,1
66093,-96.1538461538461,4,2,0,60,0,0
87864,-80.6451612903226,4,2,0,60,0,1
109807,-80.6451612903226,4,2,0,60,0,0

[Colours]
Combo1 : 253,236,115
Combo2 : 245,162,99

[HitObjects]
256,192,19293,12,0,21864,0:0:0:0:
375,153,22035,6,0,B|333:145|333:145|230:149|230:149|187:142|187:142|133:144,1,243.000005932617
39,207,23064,2,0,P|23:154|36:99,2,97.2000023730469
110,362,24093,1,0,0:0:0:0:
110,362,24435,6,0,P|177:329|305:368,2,194.400004746094
260,247,26150,6,0,L|252:145,1,97.2000023730469
133,144,26835,2,0,L|141:42,1,97.2000023730469
241,9,27521,5,0,0:0:0:0:
241,9,28550,2,0,L|301:15,1,48.6000011865235
363,78,28893,2,0,L|273:89,2,72.9000017797852
436,28,29578,1,0,0:0:0:0:
436,28,29921,6,0,P|449:64|478:232,2,194.400004746094
351,144,31635,6,0,P|310:162|242:158,1,97.2000023730469
98,145,32321,2,0,P|139:127|207:131,1,97.2000023730469
256,242,33007,5,0,0:0:0:0:
256,242,34035,6,0,L|250:304,1,48.6000011865235
337,276,34378,2,0,L|336:340,1,48.6000011865235
422,306,34721,2,0,L|428:368,1,48.6000011865235
337,276,35064,2,0,P|332:225|389:129,1,145.80000355957
462,105,35750,6,0,P|390:110|326:76,1,145.80000355957
225,7,36435,2,0,P|153:1|89:35,1,145.80000355957
227,108,37121,2,0,P|180:76|136:140,1,145.80000355957
214,225,37807,1,0,0:0:0:0:
214,225,38493,6,0,P|190:280|175:377,2,145.80000355957
42,252,39864,5,0,0:0:0:0:
55,322,40035,2,0,P|102:294|87:197,1,145.80000355957
42,252,41235,5,0,0:0:0:0:
256,192,41407,12,0,43807,0:0:0:0:
151,288,43978,6,0,B|186:242|186:242|153:96,1,199.80000487793
251,26,44664,2,0,P|298:24|391:55,1,133.200003251953
402,245,45178,2,0,P|423:182|424:116,2,133.200003251953
286,293,46035,2,0,P|280:241|288:205,1,66.6000016259766
206,111,46378,2,0,P|212:163|204:199,1,66.6000016259766
151,288,46721,5,0,0:0:0:0:
151,288,47235,1,0,0:0:0:0:
256,366,47407,2,0,L|394:361,1,133.200003251953
441,167,47921,2,0,L|446:305,1,133.200003251953
309,235,48435,1,0,0:0:0:0:
309,235,48607,2,0,L|313:147,1,66.6000016259766
437,82,48950,1,0,0:0:0:0:
297,24,49121,1,0,0:0:0:0:
297,24,49464,5,0,0:0:0:0:
297,24,49807,2,0,P|226:43|171:28,1,99.9000024389649
178,32,50150,2,0,P|128:30|81:47,1,99.9000024389649
66,65,50493,2,0,B|60:115|60:115|73:189,1,99.9000024389649
71,286,50835,6,0,B|79:237|79:237|73:187,1,99.9000024389649
68,163,51178,2,0,P|116:153|181:165,1,99.9000024389649
188,169,51521,2,0,P|237:175|285:165,1,99.9000024389649
306,152,51864,1,0,0:0:0:0:
306,152,52207,6,0,P|327:211|303:296,1,133.200003251953
454,106,52721,2,0,P|433:165|457:250,1,133.200003251953
496,373,53235,2,0,L|503:294,1,66.6000016259766
356,345,53578,6,0,P|310:323|207:348,1,133.200003251953
28,349,54093,2,0,P|74:371|177:346,1,133.200003251953
167,209,54607,1,0,0:0:0:0:
167,209,54950,6,0,L|172:117,1,75.5999976928712
28,138,55293,2,0,L|23:46,1,75.5999976928712
171,36,55635,2,0,P|219:30|304:54,2,113.399996539307
101,150,56321,1,0,0:0:0:0:
101,150,56493,2,0,P|98:233|106:314,1,151.199995385742
231,365,57007,2,0,P|301:349|412:345,1,151.199995385742
502,286,57521,1,0,0:0:0:0:
379,187,57693,6,0,L|371:281,1,75.5999976928712
499,151,58035,1,0,0:0:0:0:
480,282,58207,1,0,0:0:0:0:
425,123,58378,2,0,P|423:67|433:11,2,113.399996539307
337,230,59064,1,0,0:0:0:0:
337,230,59235,2,0,P|282:212|184:204,1,151.199995385742
46,152,59750,2,0,L|36:248,1,75.5999976928712
168,37,60093,2,0,L|178:133,1,75.5999976928712
261,234,60435,5,0,0:0:0:0:
118,162,60607,1,0,0:0:0:0:
297,113,60778,2,0,L|399:109,1,93.5999994287109
190,278,61121,2,0,L|186:184,1,93.5999994287109
330,276,61464,1,0,0:0:0:0:
106,285,61635,1,0,0:0:0:0:
363,197,61807,6,0,P|401:229|413:292,1,93.5999994287109
186,366,62150,1,0,0:0:0:0:
260,147,62321,1,0,0:0:0:0:
364,361,62493,1,0,0:0:0:0:
134,292,62664,1,0,0:0:0:0:
346,174,62835,1,0,0:0:0:0:
269,372,63007,2,0,L|261:310,1,46.7999997143555
116,213,63178,5,0,0:0:0:0:
117,177,63263,1,0,0:0:0:0:
119,142,63349,1,0,0:0:0:0:
121,107,63435,1,0,0:0:0:0:
97,83,63522,1,0,0:0:0:0:
132,84,63607,1,0,0:0:0:0:
167,86,63693,1,0,0:0:0:0:
202,88,63779,1,0,0:0:0:0:
228,111,63864,5,0,0:0:0:0:
263,112,63949,1,0,0:0:0:0:
298,114,64035,1,0,0:0:0:0:
333,116,64121,1,0,0:0:0:0:
362,97,64207,1,0,0:0:0:0:
397,98,64292,1,0,0:0:0:0:
432,100,64378,1,0,0:0:0:0:
467,102,64464,1,0,0:0:0:0:
502,104,64550,5,0,0:0:0:0:
506,161,64635,1,0,0:0:0:0:
476,210,64721,1,0,0:0:0:0:
422,232,64807,1,0,0:0:0:0:
367,218,64893,1,0,0:0:0:0:
311,206,64978,1,0,0:0:0:0:
261,234,65064,1,0,0:0:0:0:
244,289,65150,1,0,0:0:0:0:
268,341,65235,5,0,0:0:0:0:
224,289,65320,1,0,0:0:0:0:
156,281,65406,1,0,0:0:0:0:
100,321,65492,1,0,0:0:0:0:
87,388,65577,1,0,0:0:0:0:
12,287,65750,2,0,L|14:233,1,46.7999997143555
72,203,65921,6,0,L|64:78,1,93.5999994287109
246,59,66264,1,0,0:0:0:0:
3,40,66435,2,0,P|66:19|162:102,1,187.199998857422
283,231,66950,2,0,L|291:132,1,93.5999994287109
448,37,67293,5,0,0:0:0:0:
380,201,67464,1,0,0:0:0:0:
295,40,67635,1,0,0:0:0:0:
475,133,67807,1,0,0:0:0:0:
496,160,67892,1,0,0:0:0:0:
508,193,67978,1,0,0:0:0:0:
508,228,68064,1,0,0:0:0:0:
496,261,68149,1,0,0:0:0:0:
303,312,68321,2,0,L|403:316,1,93.5999994287109
237,228,68664,6,0,L|137:232,1,93.5999994287109
13,325,69007,1,0,0:0:0:0:
72,158,69178,1,0,0:0:0:0:
72,158,69264,1,0,0:0:0:0:
72,158,69350,1,0,0:0:0:0:
203,282,69521,1,0,0:0:0:0:
0,239,69693,2,0,L|93:235,1,93.5999994287109
150,363,70035,6,0,L|243:366,1,93.5999994287109
475,319,70378,1,0,0:0:0:0:
325,372,70550,2,0,L|322:316,1,46.7999997143555
381,270,70721,1,0,0:0:0:0:
382,246,70806,1,0,0:0:0:0:
383,223,70892,1,0,0:0:0:0:
312,92,71064,2,0,L|318:215,1,93.5999994287109
497,20,71407,6,0,P|405:3|313:19,1,187.199998857422
143,38,71921,1,0,0:0:0:0:
174,53,72006,1,0,0:0:0:0:
197,79,72092,1,0,0:0:0:0:
208,112,72178,1,0,0:0:0:0:
205,147,72263,1,0,0:0:0:0:
58,221,72435,2,0,L|47:117,1,93.5999994287109
190,257,72778,6,0,L|201:153,1,93.5999994287109
48,113,73121,1,0,0:0:0:0:
219,75,73293,2,0,L|267:80,2,46.7999997143555
47,39,73635,1,0,0:0:0:0:
126,187,73807,1,0,0:0:0:0:
203,7,73978,1,0,0:0:0:0:
317,170,74150,6,0,P|382:174|437:60,1,187.199998857422
276,89,74664,1,0,0:0:0:0:
276,89,74750,1,0,0:0:0:0:
276,89,74835,1,0,0:0:0:0:
458,244,75007,1,0,0:0:0:0:
357,99,75178,1,0,0:0:0:0:
285,247,75350,1,0,0:0:0:0:
469,147,75521,5,0,0:0:0:0:
378,301,75693,1,0,0:0:0:0:
275,159,75864,2,0,L|162:152,1,93.5999994287109
119,202,76121,1,0,0:0:0:0:
119,202,76207,1,0,0:0:0:0:
205,309,76378,1,0,0:0:0:0:
40,365,76550,2,0,L|153:358,1,93.5999994287109
275,159,76893,6,0,L|268:272,1,93.5999994287109
334,360,77235,1,0,0:0:0:0:
451,221,77407,1,0,0:0:0:0:
452,256,77492,1,0,0:0:0:0:
454,291,77578,1,0,0:0:0:0:
455,326,77664,1,0,0:0:0:0:
457,361,77749,1,0,0:0:0:0:
356,244,77921,2,0,L|361:136,1,93.5999994287109
286,8,78264,5,0,0:0:0:0:
471,33,78435,1,0,0:0:0:0:
287,91,78607,2,0,P|237:78|205:36,1,93.5999994287109
144,21,78864,1,0,0:0:0:0:
144,21,78950,1,0,0:0:0:0:
0,135,79121,1,0,0:0:0:0:
209,81,79293,1,0,0:0:0:0:
23,59,79464,1,0,0:0:0:0:
213,172,79635,6,0,P|153:150|81:240,1,187.199998857422
190,361,80150,1,0,0:0:0:0:
191,337,80235,1,0,0:0:0:0:
192,314,80321,1,0,0:0:0:0:
47,309,80493,1,0,0:0:0:0:
245,247,80664,2,0,P|294:239|343:242,1,93.5999994287109
489,338,81007,6,0,P|440:346|391:343,1,93.5999994287109
485,216,81350,1,0,0:0:0:0:
326,321,81521,2,0,L|322:367,2,46.7999997143555
239,143,81864,1,0,0:0:0:0:
377,248,82035,1,0,0:0:0:0:
466,107,82207,1,0,0:0:0:0:
246,164,82378,6,0,P|180:168|104:69,1,187.199998857422
317,79,82893,1,0,0:0:0:0:
340,104,82978,1,0,0:0:0:0:
353,137,83064,1,0,0:0:0:0:
355,172,83150,1,0,0:0:0:0:
345,205,83235,1,0,0:0:0:0:
153,243,83407,2,0,P|201:234|269:271,1,93.5999994287109
67,304,83750,6,0,L|57:184,1,93.5999994287109
130,49,84093,2,0,L|122:142,1,93.5999994287109
49,140,84350,1,0,0:0:0:0:
49,140,84435,1,0,0:0:0:0:
227,93,84607,1,0,0:0:0:0:
44,218,84778,1,0,0:0:0:0:
292,227,84950,1,0,0:0:0:0:
130,49,85121,5,0,0:0:0:0:
130,49,85635,1,0,0:0:0:0:
130,49,86150,1,0,0:0:0:0:
130,49,86664,1,0,0:0:0:0:
130,49,87178,1,0,0:0:0:0:
172,62,87521,5,0,0:0:0:0:
223,152,87864,6,0,B|190:188|190:188|201:319,1,167.399993358765
188,326,88207,2,0,P|252:307|327:315,1,111.59999557251
362,349,88464,1,0,0:0:0:0:
362,349,88550,1,0,0:0:0:0:
424,150,88721,1,0,0:0:0:0:
231,235,88893,1,0,0:0:0:0:
461,219,89064,6,0,P|499:169|465:84,1,111.59999557251
244,76,89407,1,0,0:0:0:0:
349,244,89578,1,0,0:0:0:0:
403,41,89750,1,0,0:0:0:0:
403,41,89835,1,0,0:0:0:0:
403,41,89921,1,0,0:0:0:0:
242,154,90093,1,0,0:0:0:0:
91,24,90264,6,0,P|53:74|87:159,1,111.59999557251
203,238,90607,1,0,0:0:0:0:
137,91,90778,1,0,0:0:0:0:
31,231,90950,1,0,0:0:0:0:
242,154,91121,1,0,0:0:0:0:
283,149,91206,1,0,0:0:0:0:
324,155,91292,1,0,0:0:0:0:
362,172,91378,1,0,0:0:0:0:
395,199,91463,1,0,0:0:0:0:
280,359,91635,1,0,0:0:0:0:
203,238,91807,6,0,B|256:226|256:226|439:244,1,223.19999114502
280,359,92321,2,0,L|138:371,1,111.59999557251
101,335,92578,1,0,0:0:0:0:
101,335,92664,1,0,0:0:0:0:
303,252,92835,1,0,0:0:0:0:
13,255,93007,1,0,0:0:0:0:
200,302,93178,1,0,0:0:0:0:
82,70,93350,6,0,P|71:141|87:199,1,111.59999557251
281,221,93693,1,0,0:0:0:0:
240,64,93864,2,0,L|244:4,2,55.799997786255
152,227,94207,1,0,0:0:0:0:
310,130,94378,2,0,P|371:119|446:122,1,111.59999557251
490,295,94721,6,0,P|489:239|478:184,1,111.59999557251
362,30,95064,1,0,0:0:0:0:
241,172,95235,1,0,0:0:0:0:
231,212,95320,1,0,0:0:0:0:
228,254,95406,1,0,0:0:0:0:
230,296,95492,1,0,0:0:0:0:
238,337,95577,1,0,0:0:0:0:
468,309,95750,2,0,L|353:291,1,111.59999557251
130,335,96093,6,0,L|15:353,1,111.59999557251
132,188,96435,1,0,0:0:0:0:
238,337,96607,2,0,L|353:355,1,111.59999557251
228,139,96950,1,0,0:0:0:0:
117,321,97121,2,0,L|2:339,1,111.59999557251
242,146,97464,5,0,0:0:0:0:
263,337,97635,1,0,0:0:0:0:
152,116,97807,1,0,0:0:0:0:
98,305,97978,1,0,0:0:0:0:
98,305,98064,1,0,0:0:0:0:
98,305,98150,1,0,0:0:0:0:
225,46,98321,1,0,0:0:0:0:
281,338,98493,1,0,0:0:0:0:
9,222,98664,1,0,0:0:0:0:
319,121,98835,6,0,L|441:128,1,111.59999557251
195,28,99178,2,0,L|73:35,1,111.59999557251
18,78,99435,1,0,0:0:0:0:
18,78,99521,2,0,P|8:141|16:190,1,111.59999557251
218,268,99864,1,0,0:0:0:0:
116,117,100035,6,0,L|111:228,1,111.59999557251
315,308,100378,2,0,L|310:196,1,111.59999557251
488,156,100721,1,0,0:0:0:0:
495,115,100806,1,0,0:0:0:0:
489,73,100892,1,0,0:0:0:0:
470,36,100978,1,0,0:0:0:0:
440,8,101063,1,0,0:0:0:0:
243,92,101235,1,0,0:0:0:0:
389,221,101407,1,0,0:0:0:0:
282,20,101578,6,0,P|230:11|168:59,1,111.59999557251
169,237,101921,1,0,0:0:0:0:
308,143,102093,2,0,L|365:141,2,55.799997786255
75,165,102435,1,0,0:0:0:0:
215,338,102607,1,0,0:0:0:0:
133,85,102778,6,0,L|121:314,1,223.19999114502
301,366,103293,1,0,0:0:0:0:
404,245,103464,1,0,0:0:0:0:
404,245,103550,1,0,0:0:0:0:
404,245,103635,1,0,0:0:0:0:
222,257,103807,1,0,0:0:0:0:
461,305,103978,2,0,P|486:249|454:189,1,111.59999557251
211,171,104321,6,0,L|363:171,1,111.59999557251
480,78,104664,1,0,0:0:0:0:
276,33,104835,1,0,0:0:0:0:
276,33,104921,1,0,0:0:0:0:
276,33,105007,1,0,0:0:0:0:
427,199,105178,1,0,0:0:0:0:
389,2,105350,1,0,0:0:0:0:
269,163,105521,1,0,0:0:0:0:
150,25,105693,6,0,L|126:145,1,111.59999557251
278,286,106035,2,0,L|256:176,1,111.59999557251
177,233,106293,1,0,0:0:0:0:
177,233,106378,2,0,L|153:353,1,111.59999557251
301,363,106721,1,0,0:0:0:0:
301,363,107064,5,0,0:0:0:0:
387,133,107235,1,0,0:0:0:0:
126,201,107407,1,0,0:0:0:0:
419,259,107578,1,0,0:0:0:0:
231,57,107750,1,0,0:0:0:0:
166,328,107921,1,0,0:0:0:0:
329,74,108093,2,0,L|343:229,1,111.59999557251
140,346,108435,5,0,0:0:0:0:
106,67,108607,1,0,0:0:0:0:
239,288,108778,1,0,0:0:0:0:
273,9,108950,1,0,0:0:0:0:
96,242,109121,1,0,0:0:0:0:
341,128,109293,1,0,0:0:0:0:
0,177,109464,1,0,0:0:0:0:
0,177,109807,1,0,0:0:0:0:
256,192,109893,12,0,115293,0:0:0:0:
