osu file format v14

[General]
AudioFilename: 18-Knowhow.mp3
AudioLeadIn: 0
PreviewTime: 87458
Countdown: 0
SampleSet: Normal
StackLeniency: 0.2
Mode: 0
LetterboxInBreaks: 0
WidescreenStoryboard: 1

[Editor]
Bookmarks: 10679,41697,66383,88326,99297,110269,132212
DistanceSpacing: 1.5
BeatDivisor: 4
GridSize: 16
TimelineZoom: 2

[Metadata]
Title:Knowhow
TitleUnicode:Knowhow
Artist:Fox Stevenson
ArtistUnicode:Fox Stevenson
Creator:GenDoNL
Version:Insane
Source:
Tags:Liquicity Rampage Stan SB dnb drum and bass
BeatmapID:1189095
BeatmapSetID:560704

[Difficulty]
HPDrainRate:6
CircleSize:4
OverallDifficulty:8.5
ApproachRate:9.1
SliderMultiplier:1.7
SliderTickRate:1

[Events]
//Background and Video events
0,0,"bg.jpg",0,0
//Break Periods
2,1621,5638
2,7279,10095
//Storyboard Layer 0 (Background)
//Storyboard Layer 1 (Fail)
//Storyboard Layer 2 (Pass)
//Storyboard Layer 3 (Foreground)
//Storyboard Sound Samples

[TimingPoints]
51,342.857142857143,4,1,1,40,1,0
51,-166.666666666667,4,1,1,40,0,0
10679,-166.666666666667,4,1,1,60,0,0
13422,-300,4,1,1,60,0,0
13765,-166.666666666667,4,1,1,60,0,0
16165,-300,4,1,1,60,0,0
16508,-166.666666666667,4,1,1,60,0,0
18908,-300,4,1,1,60,0,0
19251,-166.666666666667,4,1,1,60,0,0
21993,-133.333333333333,4,1,1,70,0,0
27479,-133.333333333333,4,1,1,70,0,0
43593,-200,4,1,1,80,0,0
43936,-100,4,1,1,80,0,0
46336,-200,4,1,1,80,0,0
46679,-100,4,1,1,80,0,0
49079,-200,4,1,1,80,0,0
49422,-100,4,1,1,80,0,0
51822,-200,4,1,1,80,0,0
52165,-100,4,1,1,80,0,0
54565,-200,4,1,1,80,0,0
54908,-100,4,1,1,80,0,0
57308,-200,4,1,1,80,0,0
57651,-100,4,1,1,80,0,0
60051,-200,4,1,1,80,0,0
60393,-100,4,1,1,80,0,0
62793,-200,4,1,1,80,0,0
65879,-100,4,1,1,80,0,1
66565,-133.333333333333,4,1,1,80,0,1
67251,-100,4,1,1,80,0,1
67936,-133.333333333333,4,1,1,80,0,1
68622,-100,4,1,1,80,0,1
69308,-133.333333333333,4,1,1,80,0,1
69993,-100,4,1,1,80,0,1
70679,-133.333333333333,4,1,1,80,0,1
71365,-100,4,1,1,80,0,1
72051,-133.333333333333,4,1,1,80,0,1
72736,-100,4,1,1,80,0,1
73422,-133.333333333333,4,1,1,80,0,1
74108,-100,4,1,1,80,0,1
74793,-133.333333333333,4,1,1,80,0,1
75479,-100,4,1,1,80,0,1
76336,-80,4,1,1,80,0,1
76508,-80,4,1,1,80,0,0
76851,-100,4,1,1,80,0,1
78908,-133.333333333333,4,1,1,80,0,1
79593,-100,4,1,1,80,0,1
81651,-133.333333333333,4,1,1,80,0,1
82336,-100,4,1,1,80,0,1
84393,-133.333333333333,4,1,1,80,0,1
85079,-100,4,1,1,80,0,1
87136,-100,4,1,1,80,0,0
87822,-100,4,1,1,80,0,1
107022,-100,4,1,1,80,0,0
109422,-200,4,1,1,80,0,0
109765,-100,4,1,1,80,0,0
112165,-200,4,1,1,80,0,0
112508,-100,4,1,1,80,0,0
114908,-200,4,1,1,80,0,0
115251,-100,4,1,1,80,0,0
117651,-200,4,1,1,80,0,0
117993,-100,4,1,1,80,0,0
120393,-200,4,1,1,80,0,0
120736,-100,4,1,1,80,0,0
123136,-200,4,1,1,80,0,0
123479,-100,4,1,1,80,0,0
125879,-200,4,1,1,80,0,0
126222,-100,4,1,1,80,0,0
128622,-200,4,1,1,60,0,0

[Colours]
Combo1 : 187,214,3
Combo2 : 139,0,159
Combo3 : 33,53,239
Combo4 : 231,11,255

[HitObjects]
184,261,1079,6,0,P|180:226|172:192,2,50.9999984436036
294,40,6222,6,0,P|303:87|303:99,1,50.9999984436036
388,101,6565,2,0,P|372:146|366:156,1,50.9999984436036
438,200,6908,2,0,P|401:231|391:237,1,50.9999984436036
205,157,10679,5,0,0:0:0:0:
152,231,11022,2,0,P|204:248|254:235,1,101.999996887207
315,173,11536,2,0,P|367:156|417:169,1,101.999996887207
462,243,12051,1,0,0:0:0:0:
501,160,12222,1,0,0:0:0:0:
376,286,12393,6,0,P|369:262|371:237,1,50.9999984436036
279,241,12736,2,0,P|278:215|286:191,1,50.9999984436036
196,171,13079,2,0,P|202:146|215:124,1,50.9999984436036
312,69,13422,6,0,L|363:71,1,42.5
439,53,13765,6,0,L|318:51,1,101.999996887207
297,169,14279,2,0,L|176:171,1,101.999996887207
129,235,14793,6,0,P|126:270|134:298,1,50.9999984436036
218,280,15136,2,0,P|224:314|239:339,1,50.9999984436036
315,300,15479,2,0,P|329:331|350:352,1,50.9999984436036
399,259,15822,1,0,0:0:0:0:
323,222,15993,1,0,0:0:0:0:
475,333,16165,6,0,L|477:282,1,42.5
459,206,16508,6,0,L|457:327,1,101.999996887207
371,121,17022,2,0,L|373:242,1,101.999996887207
418,309,17536,1,0,0:0:0:0:
459,206,17708,1,0,0:0:0:0:
336,343,17879,6,0,P|329:319|331:294,1,50.9999984436036
239,298,18222,2,0,P|238:272|246:248,1,50.9999984436036
156,228,18565,2,0,P|162:203|175:181,1,50.9999984436036
380,123,18908,6,0,L|328:123,1,42.5
256,136,19251,6,0,L|377:138,1,101.999996887207
322,260,19765,2,0,L|423:258,1,101.999996887207
272,323,20279,2,0,L|209:330,1,50.9999984436036
347,343,20622,5,0,0:0:0:0:
353,168,20793,1,0,0:0:0:0:
357,347,20965,2,0,L|420:354,1,50.9999984436036
474,252,21308,2,0,L|411:259,1,50.9999984436036
357,157,21651,2,0,L|420:164,1,50.9999984436036
170,232,21993,6,0,B|198:209|230:209|230:209|265:224|304:216,1,127.500004863739,4|8,0:0|0:0,0:0:0:0:
363,163,22508,1,2,0:0:0:0:
363,163,22593,1,2,0:0:0:0:
363,163,22679,1,2,0:0:0:0:
279,128,22851,1,8,0:0:0:0:
364,254,23022,1,8,0:0:0:0:
424,113,23193,1,0,0:0:0:0:
290,218,23365,6,8,B|290:256|267:288|267:288|263:325|282:353,1,127.500004863739
364,309,23879,1,2,0:0:0:0:
364,309,23965,1,2,0:0:0:0:
364,309,24051,1,2,0:0:0:0:
204,229,24222,1,8,0:0:0:0:
352,132,24393,1,8,0:0:0:0:
364,309,24565,1,0,0:0:0:0:
250,133,24736,5,0,0:0:0:0:
246,141,24908,1,0,0:0:0:0:
204,229,25079,1,8,0:0:0:0:
208,237,25251,1,0,0:0:0:0:
271,307,25422,1,0,0:0:0:0:
267,315,25593,1,8,0:0:0:0:
181,346,25765,2,0,L|253:345,1,63.7500024318696,8|0,0:0|0:0,0:0:0:0:
92,314,26108,5,0,0:0:0:0:
88,306,26279,1,0,0:0:0:0:
151,236,26451,1,8,0:0:0:0:
155,228,26622,1,0,0:0:0:0:
113,140,26793,1,0,0:0:0:0:
109,132,26965,1,8,0:0:0:0:
195,101,27136,2,0,L|123:102,1,63.7500024318696,8|0,0:0|0:0,0:0:0:0:
260,167,27479,6,0,B|307:175|338:150|338:150|370:143|405:155,1,127.500004863739,0|8,0:0|0:0,0:0:0:0:
279,86,27993,1,2,0:0:0:0:
279,86,28079,1,2,0:0:0:0:
279,86,28165,1,2,0:0:0:0:
226,232,28336,1,8,0:0:0:0:
382,149,28508,1,8,0:0:0:0:
195,101,28679,1,0,0:0:0:0:
372,64,28851,6,0,B|393:48|393:48|381:157,1,127.500004863739,0|8,0:0|0:0,0:0:0:0:
347,238,29365,1,2,0:0:0:0:
347,238,29451,1,2,0:0:0:0:
347,238,29536,1,2,0:0:0:0:
292,112,29708,1,8,0:0:0:0:
437,215,29879,1,8,0:0:0:0:
264,267,30051,1,0,0:0:0:0:
386,137,30222,5,0,0:0:0:0:
391,127,30393,1,0,0:0:0:0:
277,194,30565,1,8,0:0:0:0:
272,184,30736,1,0,0:0:0:0:
386,251,30908,1,0,0:0:0:0:
391,241,31079,1,8,0:0:0:0:
242,312,31251,2,0,L|312:312,1,63.7500024318696,8|0,0:0|0:0,0:0:0:0:
163,241,31593,5,0,0:0:0:0:
158,251,31765,1,0,0:0:0:0:
272,184,31936,1,8,0:0:0:0:
277,194,32108,1,0,0:0:0:0:
163,127,32279,1,0,0:0:0:0:
158,137,32451,1,8,0:0:0:0:
307,66,32622,2,0,L|237:66,1,63.7500024318696,8|0,0:0|0:0,0:0:0:0:
413,68,32965,6,0,P|405:104|383:135,1,63.7500024318696,8|0,0:0|0:0,0:0:0:0:
450,187,33308,2,0,P|418:206|381:213,1,63.7500024318696,8|0,0:0|0:0,0:0:0:0:
392,297,33651,2,0,P|356:288|324:267,1,63.7500024318696,8|0,0:0|0:0,0:0:0:0:
262,195,33993,5,2,0:0:0:0:
392,297,34165,1,2,0:0:0:0:
148,327,34336,6,0,P|156:291|178:260,1,63.7500024318696,8|0,0:0|0:0,0:0:0:0:
111,208,34679,2,0,P|142:188|179:181,1,63.7500024318696,8|0,0:0|0:0,0:0:0:0:
169,98,35022,2,0,P|204:106|236:128,1,63.7500024318696,8|0,0:0|0:0,0:0:0:0:
269,251,35365,5,2,0:0:0:0:
169,98,35536,1,2,0:0:0:0:
359,253,35708,6,0,P|351:217|329:186,1,63.7500024318696,8|0,0:0|0:0,0:0:0:0:
396,134,36051,2,0,P|365:114|328:107,1,63.7500024318696,8|0,0:0|0:0,0:0:0:0:
338,24,36393,2,0,P|303:32|271:54,1,63.7500024318696,8|0,0:0|0:0,0:0:0:0:
251,141,36736,5,10,0:0:0:0:
338,24,36908,1,2,0:0:0:0:
169,98,37079,6,0,P|158:132|161:171,1,63.7500024318696,8|0,0:0|0:0,0:0:0:0:
225,217,37422,2,0,P|241:248|271:273,1,63.7500024318696,8|0,0:0|0:0,0:0:0:0:
355,271,37765,2,0,P|389:281|428:278,1,63.7500024318696,8|0,0:0|0:0,0:0:0:0:
479,203,38108,5,2,0:0:0:0:
474,207,38279,1,2,0:0:0:0:
469,211,38451,5,2,0:0:0:0:
301,218,38622,1,2,0:0:0:0:
431,278,38793,5,2,0:0:0:0:
268,146,38965,1,2,0:0:0:0:
418,155,39136,5,2,0:0:0:0:
229,208,39308,1,2,0:0:0:0:
378,222,39479,5,2,0:0:0:0:
196,138,39651,1,2,0:0:0:0:
343,150,39822,5,2,0:0:0:0:
181,268,39993,1,2,0:0:0:0:
341,287,40165,5,2,0:0:0:0:
145,196,40336,1,2,0:0:0:0:
299,221,40508,5,2,0:0:0:0:
99,256,40679,1,2,0:0:0:0:
268,146,40851,5,2,0:0:0:0:
130,329,41022,1,2,0:0:0:0:
206,91,41193,5,8,0:0:0:0:
231,72,41279,1,8,0:0:0:0:
262,65,41365,1,8,0:0:0:0:
293,69,41451,1,8,0:0:0:0:
321,85,41536,1,8,0:0:0:0:
341,110,41622,1,8,0:0:0:0:
349,140,41708,1,8,0:0:0:0:
347,172,41793,1,8,0:0:0:0:
332,200,41879,5,8,0:0:0:0:
317,228,41965,1,8,0:0:0:0:
315,260,42051,1,8,0:0:0:0:
323,290,42136,1,8,0:0:0:0:
343,315,42222,1,8,0:0:0:0:
371,331,42308,1,8,0:0:0:0:
402,335,42393,1,8,0:0:0:0:
433,328,42479,1,8,0:0:0:0:
458,310,42565,1,8,0:0:0:0:
475,280,42651,1,8,0:0:0:0:
474,248,42736,1,8,0:0:0:0:
458,220,42822,1,8,0:0:0:0:
430,203,42908,5,8,0:0:0:0:
343,315,43079,1,10,0:0:0:0:
391,58,43251,1,12,0:0:0:0:
237,240,43593,6,0,L|237:177,1,63.75,8|0,0:0|0:0,0:0:0:0:
191,109,43936,6,0,B|215:75|215:75|218:232,1,170,4|8,0:0|0:0,0:0:0:0:
140,321,44451,1,2,0:0:0:0:
119,325,44536,1,2,0:0:0:0:
98,322,44622,1,2,0:0:0:0:
80,311,44708,1,2,0:0:0:0:
68,294,44793,1,10,0:0:0:0:
129,124,44965,1,8,0:0:0:0:
212,299,45136,1,0,0:0:0:0:
65,195,45308,6,0,B|107:228|159:215|159:215|202:188|249:208,1,170,0|8,0:0|0:0,0:0:0:0:
383,236,45822,1,2,0:0:0:0:
404,240,45908,1,2,0:0:0:0:
425,237,45993,1,2,0:0:0:0:
443,226,46079,1,2,0:0:0:0:
455,209,46165,1,10,0:0:0:0:
386,65,46336,6,0,P|389:111|393:136,1,63.75,8|0,0:0|0:0,0:0:0:0:
350,187,46679,6,0,B|378:237|378:237|392:193|361:128|377:95,1,170,4|8,0:0|0:0,0:0:0:0:
309,12,47193,1,2,0:0:0:0:
309,12,47279,1,2,0:0:0:0:
309,12,47365,2,0,P|276:7|257:9,1,42.5,2|2,0:0|0:0,0:0:0:0:
195,106,47536,2,0,P|169:111|146:108,1,42.5,10|0,0:0|0:0,0:0:0:0:
84,18,47708,1,8,0:0:0:0:
284,98,47879,1,0,0:0:0:0:
145,202,48051,6,0,B|185:191|223:204|223:204|280:185|282:110,1,170,0|8,0:0|0:0,0:0:0:0:
386,30,48565,1,2,0:0:0:0:
386,30,48651,1,2,0:0:0:0:
386,30,48736,2,0,P|385:72|397:94,1,42.5,2|2,0:0|0:0,0:0:0:0:
456,157,48908,2,0,P|462:182|458:206,1,42.5,10|0,0:0|0:0,0:0:0:0:
399,298,49079,6,0,L|318:297,1,63.75,8|0,0:0|0:0,0:0:0:0:
248,287,49422,6,0,B|214:311|214:311|368:315,1,170,4|8,0:0|0:0,0:0:0:0:
477,234,49936,1,2,0:0:0:0:
479,213,50022,1,2,0:0:0:0:
477,192,50108,1,2,0:0:0:0:
468,172,50193,1,2,0:0:0:0:
455,156,50279,1,10,0:0:0:0:
308,59,50451,1,8,0:0:0:0:
385,215,50622,1,0,0:0:0:0:
440,141,50793,6,0,P|355:129|293:212,1,170,0|8,0:0|0:0,0:0:0:0:
226,338,51308,1,2,0:0:0:0:
205,342,51393,1,2,0:0:0:0:
183,342,51479,1,2,0:0:0:0:
163,338,51565,1,2,0:0:0:0:
143,330,51651,1,10,0:0:0:0:
82,159,51822,6,0,P|118:161|160:167,1,63.75,8|0,0:0|0:0,0:0:0:0:
191,226,52165,6,0,B|228:194|228:194|157:178|108:188,1,170,4|8,0:0|0:0,0:0:0:0:
5,103,52679,1,2,0:0:0:0:
5,103,52765,1,2,0:0:0:0:
5,103,52851,2,0,P|0:140|1:163,1,42.5,2|2,0:0|0:0,0:0:0:0:
55,243,53022,2,0,P|60:278|58:301,1,42.5,10|0,0:0|0:0,0:0:0:0:
0,384,53193,1,8,0:0:0:0:
82,159,53365,1,0,0:0:0:0:
146,257,53536,5,8,0:0:0:0:
32,53,53708,1,8,0:0:0:0:
246,189,53879,2,0,P|191:183|166:184,1,42.5,8|0,0:0|0:0,0:0:0:0:
82,159,54051,1,2,0:0:0:0:
59,181,54136,1,2,0:0:0:0:
49,211,54222,1,2,0:0:0:0:
53,242,54308,1,2,0:0:0:0:
71,268,54393,1,2,0:0:0:0:
289,266,54565,6,0,P|234:260|212:261,1,63.75,8|0,0:0|0:0,0:0:0:0:
173,199,54908,6,0,B|134:218|134:218|284:230,1,170,4|8,0:0|0:0,0:0:0:0:
449,200,55422,1,2,0:0:0:0:
459,181,55508,1,2,0:0:0:0:
464,161,55593,1,2,0:0:0:0:
464,139,55679,1,2,0:0:0:0:
458,119,55765,1,10,0:0:0:0:
265,31,55936,1,8,0:0:0:0:
381,152,56108,1,0,0:0:0:0:
207,186,56279,6,0,B|226:169|256:166|278:173|278:173|305:202|350:202|372:182,1,170,0|8,0:0|0:0,0:0:0:0:
478,267,56793,1,2,0:0:0:0:
488,285,56879,1,2,0:0:0:0:
494,305,56965,1,2,0:0:0:0:
495,326,57051,1,2,0:0:0:0:
490,347,57136,1,10,0:0:0:0:
241,308,57308,6,0,P|275:305|316:306,1,63.75,8|0,0:0|0:0,0:0:0:0:
403,370,57651,6,0,B|411:319|411:319|359:348|305:316|268:336,1,170,4|8,0:0|0:0,0:0:0:0:
116,331,58165,1,2,0:0:0:0:
116,331,58251,1,2,0:0:0:0:
116,331,58336,2,0,P|104:288|104:256,1,42.5,2|2,0:0|0:0,0:0:0:0:
204,178,58508,2,0,P|200:133|184:104,1,42.5,10|0,0:0|0:0,0:0:0:0:
88,60,58679,1,8,0:0:0:0:
228,250,58851,1,0,0:0:0:0:
70,225,59022,6,0,B|109:211|141:225|141:225|173:259|216:260|229:249,1,170,0|8,0:0|0:0,0:0:0:0:
319,344,59536,1,0,0:0:0:0:
319,344,59622,1,0,0:0:0:0:
319,344,59708,2,0,P|362:356|380:353,1,42.5,2|2,0:0|0:0,0:0:0:0:
413,254,59879,2,0,P|456:242|494:246,1,42.5,10|2,0:0|0:0,0:0:0:0:
489,110,60051,6,0,P|480:147|484:186,1,63.75,8|0,0:0|0:0,0:0:0:0:
413,254,60393,6,0,B|431:286|431:286|458:211|442:132,1,170,4|8,0:0|0:0,0:0:0:0:
353,48,60908,1,2,0:0:0:0:
333,39,60993,1,2,0:0:0:0:
312,36,61079,1,2,0:0:0:0:
291,37,61165,1,2,0:0:0:0:
271,44,61251,1,10,0:0:0:0:
190,259,61422,1,8,0:0:0:0:
301,117,61593,1,0,0:0:0:0:
87,121,61765,6,0,B|61:180|101:232|101:232|108:278|80:307,1,170,0|8,0:0|0:0,0:0:0:0:
194,369,62279,1,2,0:0:0:0:
214,375,62365,1,2,0:0:0:0:
235,378,62451,1,2,0:0:0:0:
256,377,62536,1,2,0:0:0:0:
277,373,62622,1,10,0:0:0:0:
376,234,62793,6,0,L|379:163,1,63.75,8|0,0:0|0:0,0:0:0:0:
320,302,63136,2,0,P|368:321|415:315,1,85,4|0,0:0|0:0,0:0:0:0:
232,304,63822,2,0,P|252:351|289:380,1,85,4|0,0:0|0:0,0:0:0:0:
169,244,64508,2,0,P|149:292|156:339,1,85,4|0,0:0|0:0,0:0:0:0:
184,148,65022,5,8,0:0:0:0:
178,155,65108,1,8,0:0:0:0:
173,162,65193,2,0,P|148:163|115:155,2,42.5,8|8|8,0:0|0:0|0:0,0:0:0:0:
291,85,65879,6,0,L|296:224,1,127.5,4|0,0:0|0:0,0:0:0:0:
275,240,66222,1,0,0:0:0:0:
380,320,66393,1,0,0:0:0:0:
176,281,66565,2,0,P|171:234|180:202,1,63.7500024318696,2|0,0:0|0:0,0:0:0:0:
152,147,66822,2,0,P|157:100|148:68,1,63.7500024318696,2|0,0:0|0:0,0:0:0:0:
27,115,67079,5,0,0:0:0:0:
9,134,67165,1,0,0:0:0:0:
1,162,67251,2,0,P|6:209|12:231,1,42.5,2|0,0:0|0:0,0:0:0:0:
70,256,67422,2,0,P|97:294|114:310,1,42.5,2|0,0:0|0:0,0:0:0:0:
176,302,67593,2,0,P|219:321|241:326,1,42.5,2|0,0:0|0:0,0:0:0:0:
291,289,67765,2,0,P|338:283|359:278,1,42.5,2|0,0:0|0:0,0:0:0:0:
443,237,67936,6,0,P|414:234|371:208,1,63.7500024318696,2|0,0:0|0:0,0:0:0:0:
311,169,68193,2,0,P|282:172|239:198,1,63.7500024318696,2|0,0:0|0:0,0:0:0:0:
176,302,68451,1,2,0:0:0:0:
194,311,68536,1,2,0:0:0:0:
214,319,68622,6,0,B|263:338|263:338|357:331,1,127.5,6|0,0:0|0:0,0:0:0:0:
362,329,68965,1,0,0:0:0:0:
243,207,69136,1,0,0:0:0:0:
396,188,69308,6,0,P|353:193|314:178,1,63.7500024318696,2|0,0:0|0:0,0:0:0:0:
275,126,69565,2,0,P|232:121|193:136,1,63.7500024318696,2|0,0:0|0:0,0:0:0:0:
149,206,69822,1,2,0:0:0:0:
116,211,69908,1,2,0:0:0:0:
86,206,69993,6,0,P|77:171|80:134,1,42.5,2|0,0:0|0:0,0:0:0:0:
139,118,70165,2,0,P|148:83|169:52,1,42.5,2|0,0:0|0:0,0:0:0:0:
228,68,70336,2,0,P|253:42|287:26,1,42.5,2|0,0:0|0:0,0:0:0:0:
330,69,70508,2,0,P|365:59|402:62,1,42.5,2|0,0:0|0:0,0:0:0:0:
488,151,70679,6,0,P|459:150|420:138,1,63.7500024318696,2|0,0:0|0:0,0:0:0:0:
358,186,70936,2,0,P|329:187|290:199,1,63.7500024318696,2|0,0:0|0:0,0:0:0:0:
228,266,71193,1,2,0:0:0:0:
217,297,71279,1,2,0:0:0:0:
211,328,71365,6,0,B|240:318|264:335|264:335|290:344|317:344|337:329,1,127.5,6|0,0:0|0:0,0:0:0:0:
400,273,71708,2,0,P|438:275|460:281,1,42.5,2|0,0:0|0:0,0:0:0:0:
331,213,71879,2,0,P|359:187|381:177,1,42.5,2|0,0:0|0:0,0:0:0:0:
284,123,72051,6,0,P|238:124|197:146,1,63.7500024318696,2|0,0:0|0:0,0:0:0:0:
159,180,72308,2,0,P|113:179|72:157,1,63.7500024318696,2|0,0:0|0:0,0:0:0:0:
25,85,72565,1,2,0:0:0:0:
14,97,72651,1,2,0:0:0:0:
7,114,72736,6,0,P|0:164|1:184,1,42.5,2|0,0:0|0:0,0:0:0:0:
94,325,72908,2,0,P|101:275|98:255,1,42.5,2|0,0:0|0:0,0:0:0:0:
23,134,73079,2,0,P|16:184|21:214,1,42.5,2|0,0:0|0:0,0:0:0:0:
74,299,73251,2,0,P|81:249|78:222,1,42.5,2|0,0:0|0:0,0:0:0:0:
133,104,73422,6,0,P|171:89|216:94,1,63.7500024318696,2|0,0:0|0:0,0:0:0:0:
271,114,73679,2,0,P|302:111|331:98,1,63.7500024318696,2|0,0:0|0:0,0:0:0:0:
419,33,73936,1,2,0:0:0:0:
443,17,74022,1,2,0:0:0:0:
467,0,74108,2,0,L|458:149,1,127.5,6|0,0:0|0:0,0:0:0:0:
400,200,74451,2,0,P|413:249|421:271,1,42.5,2|0,0:0|0:0,0:0:0:0:
342,291,74622,2,0,P|377:326|395:341,1,42.5,2|0,0:0|0:0,0:0:0:0:
276,362,74793,6,0,P|226:353|206:333,1,63.7500024318696,2|0,0:0|0:0,0:0:0:0:
136,329,75051,2,0,P|108:313|76:312,1,63.7500024318696,2|0,0:0|0:0,0:0:0:0:
38,176,75308,1,2,0:0:0:0:
36,155,75393,1,2,0:0:0:0:
42,137,75479,6,0,P|92:130|116:133,1,42.5,10|0,0:0|0:0,0:0:0:0:
234,264,75651,2,0,P|184:271|158:267,1,42.5,2|0,0:0|0:0,0:0:0:0:
84,162,75822,2,0,P|134:155|158:157,1,42.5,10|0,0:0|0:0,0:0:0:0:
192,241,75993,2,0,P|142:248|119:247,1,42.5,2|0,0:0|0:0,0:0:0:0:
208,117,76165,5,10,0:0:0:0:
241,114,76251,1,2,0:0:0:0:
271,123,76336,2,0,P|294:156|293:202,1,53.125,10|0,0:0|0:0,0:0:0:0:
277,362,76508,1,8,0:0:0:0:
400,242,76851,6,0,B|339:264|339:264|222:264,1,170,4|0,0:0|0:0,0:0:0:0:
111,175,77365,1,2,0:0:0:0:
105,143,77450,1,2,0:0:0:0:
113,113,77536,1,2,0:0:0:0:
132,88,77622,1,2,0:0:0:0:
160,72,77708,1,10,0:0:0:0:
281,193,77879,1,8,0:0:0:0:
368,49,78051,1,2,0:0:0:0:
386,65,78136,1,2,0:0:0:0:
394,88,78222,6,0,P|395:131|390:152,1,42.5,2|0,0:0|0:0,0:0:0:0:
408,211,78393,2,0,P|378:242|359:253,1,42.5,2|0,0:0|0:0,0:0:0:0:
330,307,78565,2,0,P|287:308|266:303,1,42.5,2|0,0:0|0:0,0:0:0:0:
206,319,78736,2,0,P|174:289|163:270,1,42.5,2|0,0:0|0:0,0:0:0:0:
124,205,78908,6,0,P|92:201|61:206,1,63.7500024318696,2|0,0:0|0:0,0:0:0:0:
178,127,79165,2,0,P|221:131|257:123,1,63.7500024318696,2|0,0:0|0:0,0:0:0:0:
333,111,79422,1,2,0:0:0:0:
344,91,79508,1,2,0:0:0:0:
348,70,79593,6,0,B|377:91|410:90|445:66|445:66|483:56|536:77,1,170,4|8,0:0|0:0,0:0:0:0:
487,237,80108,1,2,0:0:0:0:
479,267,80193,1,2,0:0:0:0:
459,292,80279,1,2,0:0:0:0:
432,308,80365,1,2,0:0:0:0:
401,312,80451,1,10,0:0:0:0:
348,70,80622,1,8,0:0:0:0:
238,258,80793,1,2,0:0:0:0:
221,237,80879,1,2,0:0:0:0:
212,211,80965,6,0,P|215:181|238:143,1,42.5,2|0,0:0|0:0,0:0:0:0:
165,114,81136,2,0,P|188:94|231:84,1,42.5,2|0,0:0|0:0,0:0:0:0:
224,15,81308,2,0,P|254:17|292:40,1,42.5,2|0,0:0|0:0,0:0:0:0:
340,2,81479,2,0,P|359:25|369:68,1,42.5,2|0,0:0|0:0,0:0:0:0:
406,110,81651,6,0,P|406:171|419:198,1,63.7500024318696,2|0,0:0|0:0,0:0:0:0:
460,231,81908,2,0,P|465:262|460:293,1,63.7500024318696,2|0,0:0|0:0,0:0:0:0:
361,349,82165,1,2,0:0:0:0:
327,350,82251,1,2,0:0:0:0:
300,339,82336,6,0,B|261:307|211:331|211:331|163:354|123:328,1,170,4|8,0:0|0:0,0:0:0:0:
58,250,82851,1,2,0:0:0:0:
58,250,82936,1,2,0:0:0:0:
58,250,83022,2,0,P|44:209|44:174,1,42.5,2|0,0:0|0:0,0:0:0:0:
148,162,83193,2,0,P|160:124|164:88,1,42.5,10|0,0:0|0:0,0:0:0:0:
48,65,83365,1,8,0:0:0:0:
138,246,83536,1,2,0:0:0:0:
156,261,83622,1,2,0:0:0:0:
175,273,83708,6,0,P|221:279|248:276,1,42.5,2|0,0:0|0:0,0:0:0:0:
382,250,83879,2,0,P|336:256|312:253,1,42.5,2|0,0:0|0:0,0:0:0:0:
207,170,84051,2,0,P|253:176|281:174,1,42.5,2|0,0:0|0:0,0:0:0:0:
379,102,84222,2,0,P|333:108|307:103,1,42.5,2|0,0:0|0:0,0:0:0:0:
244,62,84393,6,0,P|198:68|158:62,1,63.7500024318696,2|0,0:0|0:0,0:0:0:0:
123,114,84651,2,0,P|95:113|58:122,1,63.7500024318696,2|0,0:0|0:0,0:0:0:0:
22,211,84908,1,2,0:0:0:0:
24,234,84993,1,2,0:0:0:0:
29,257,85079,6,0,P|116:290|194:253,1,170,6|8,0:0|0:0,0:0:0:0:
278,173,85593,1,2,0:0:0:0:
278,173,85679,1,2,0:0:0:0:
278,173,85765,2,0,P|318:169|352:178,1,42.5,2|2,0:0|0:0,0:0:0:0:
379,266,85936,2,0,P|401:266|422:263,1,42.5,10|2,0:0|0:0,0:0:0:0:
435,63,86108,1,8,0:0:0:0:
229,106,86279,1,2,0:0:0:0:
214,124,86365,1,2,0:0:0:0:
202,143,86451,6,0,P|196:189|197:211,1,42.5,2|0,0:0|0:0,0:0:0:0:
123,221,86622,2,0,P|151:257|167:272,1,42.5,2|0,0:0|0:0,0:0:0:0:
122,332,86793,2,0,P|167:337|189:336,1,42.5,2|0,0:0|0:0,0:0:0:0:
237,276,86965,2,0,P|257:271|278:270,1,42.5,2|0,0:0|0:0,0:0:0:0:
384,336,87136,1,0,0:0:0:0:
340,104,87822,6,0,P|248:74|179:110,1,170,4|0,0:0|0:0,0:0:0:0:
127,223,88336,1,2,0:0:0:0:
137,242,88421,1,2,0:0:0:0:
151,258,88507,1,2,0:0:0:0:
167,271,88593,1,2,0:0:0:0:
187,280,88678,1,10,0:0:0:0:
261,161,88851,1,8,0:0:0:0:
38,281,89022,1,0,0:0:0:0:
228,352,89193,6,0,B|264:323|264:323|276:178,1,170,0|8,0:0|0:0,0:0:0:0:
322,34,89708,1,2,0:0:0:0:
341,26,89793,1,2,0:0:0:0:
362,24,89879,1,2,0:0:0:0:
383,30,89965,1,2,0:0:0:0:
401,41,90050,1,10,0:0:0:0:
358,213,90222,1,8,0:0:0:0:
230,92,90393,1,0,0:0:0:0:
353,135,90565,5,2,0:0:0:0:
365,132,90736,1,2,0:0:0:0:
197,209,90908,1,10,0:0:0:0:
184,207,91079,1,2,0:0:0:0:
345,299,91251,1,2,0:0:0:0:
356,294,91422,1,10,0:0:0:0:
254,94,91593,1,8,0:0:0:0:
228,352,91765,1,0,0:0:0:0:
365,132,91936,5,2,0:0:0:0:
367,119,92108,1,2,0:0:0:0:
282,235,92279,1,10,0:0:0:0:
280,248,92451,1,2,0:0:0:0:
187,132,92622,1,2,0:0:0:0:
185,119,92793,1,10,0:0:0:0:
284,69,92965,1,8,0:0:0:0:
165,291,93136,1,0,0:0:0:0:
104,222,93308,6,0,B|152:192|202:211|202:211|250:231|300:209,1,170,4|8,0:0|0:0,0:0:0:0:
424,152,93822,1,2,0:0:0:0:
429,131,93907,1,2,0:0:0:0:
430,110,93993,1,2,0:0:0:0:
424,89,94079,1,2,0:0:0:0:
414,71,94164,1,10,0:0:0:0:
254,134,94336,1,8,0:0:0:0:
394,235,94508,1,0,0:0:0:0:
238,310,94679,6,0,B|275:334|275:334|432:334,1,170,0|8,0:0|0:0,0:0:0:0:
480,224,95193,1,2,0:0:0:0:
475,203,95278,1,2,0:0:0:0:
466,184,95364,1,2,0:0:0:0:
453,167,95450,1,2,0:0:0:0:
436,154,95535,1,10,0:0:0:0:
300,253,95708,1,8,0:0:0:0:
476,312,95879,1,0,0:0:0:0:
353,178,96051,5,2,0:0:0:0:
342,166,96222,1,2,0:0:0:0:
374,312,96393,1,10,0:0:0:0:
369,327,96564,1,2,0:0:0:0:
478,224,96736,1,2,0:0:0:0:
493,220,96907,1,10,0:0:0:0:
342,166,97079,1,8,0:0:0:0:
493,332,97251,1,0,0:0:0:0:
405,211,97422,5,2,0:0:0:0:
411,198,97593,1,2,0:0:0:0:
293,307,97765,1,10,0:0:0:0:
287,320,97936,1,2,0:0:0:0:
181,211,98108,1,2,0:0:0:0:
175,198,98279,1,10,0:0:0:0:
205,384,98451,1,8,0:0:0:0:
295,158,98622,1,0,0:0:0:0:
127,133,98793,6,0,B|185:103|231:141|231:141|271:147|324:121,1,170,4|8,0:0|0:0,0:0:0:0:
451,87,99308,1,2,0:0:0:0:
467,99,99393,1,2,0:0:0:0:
480,116,99479,1,2,0:0:0:0:
488,136,99565,1,2,0:0:0:0:
490,157,99650,1,10,0:0:0:0:
474,297,99822,1,8,0:0:0:0:
407,156,99993,1,0,0:0:0:0:
402,353,100165,6,0,B|346:371|346:371|217:371,1,170,0|8,0:0|0:0,0:0:0:0:
86,317,100679,1,2,0:0:0:0:
76,298,100764,1,2,0:0:0:0:
71,277,100850,1,2,0:0:0:0:
71,256,100936,1,2,0:0:0:0:
76,235,101021,1,10,0:0:0:0:
239,116,101193,1,8,0:0:0:0:
154,266,101365,1,0,0:0:0:0:
144,164,101536,5,2,0:0:0:0:
132,153,101708,1,2,0:0:0:0:
299,188,101879,1,10,0:0:0:0:
314,187,102051,1,0,0:0:0:0:
169,273,102221,1,2,0:0:0:0:
157,284,102393,1,10,0:0:0:0:
239,116,102565,1,8,0:0:0:0:
249,372,102736,1,0,0:0:0:0:
416,239,102908,5,2,0:0:0:0:
428,228,103080,1,2,0:0:0:0:
261,263,103251,1,10,0:0:0:0:
246,262,103423,1,0,0:0:0:0:
391,348,103593,1,2,0:0:0:0:
403,359,103765,1,10,0:0:0:0:
369,169,103936,1,8,0:0:0:0:
282,384,104108,1,0,0:0:0:0:
181,213,104279,6,0,B|221:187|221:187|373:187,1,170,4|8,0:0|0:0,0:0:0:0:
465,109,104793,1,2,0:0:0:0:
468,88,104878,1,2,0:0:0:0:
465,67,104964,1,2,0:0:0:0:
455,48,105050,1,2,0:0:0:0:
440,33,105136,1,10,0:0:0:0:
309,118,105308,1,8,0:0:0:0:
437,199,105479,1,0,0:0:0:0:
288,270,105651,6,0,B|328:296|366:279|366:279|395:240|447:239,1,170,0|8,0:0|0:0,0:0:0:0:
500,352,106165,1,2,0:0:0:0:
482,363,106250,1,2,0:0:0:0:
462,372,106336,1,2,0:0:0:0:
442,376,106422,1,2,0:0:0:0:
420,377,106508,1,10,0:0:0:0:
331,212,106679,1,8,0:0:0:0:
241,371,106851,1,0,0:0:0:0:
154,130,107022,1,10,0:0:0:0:
256,192,107108,12,8,109079,0:0:0:0:
186,148,109422,6,0,P|167:192|167:216,1,63.75,8|0,0:0|0:0,0:0:0:0:
228,271,109765,6,0,B|204:306|204:306|160:235|201:183,1,170,4|8,0:0|0:0,0:0:0:0:
325,91,110279,1,2,0:0:0:0:
345,87,110364,1,2,0:0:0:0:
367,88,110450,1,2,0:0:0:0:
387,94,110536,1,2,0:0:0:0:
405,105,110621,1,10,0:0:0:0:
341,246,110793,1,8,0:0:0:0:
264,35,110965,1,0,0:0:0:0:
391,179,111136,6,0,B|335:136|283:199|215:168,1,170,0|8,0:0|0:0,0:0:0:0:
111,245,111651,1,2,0:0:0:0:
91,249,111736,1,2,0:0:0:0:
69,248,111822,1,2,0:0:0:0:
49,242,111908,1,2,0:0:0:0:
31,231,111993,1,10,0:0:0:0:
143,91,112165,6,0,P|149:135|157:161,1,63.75,8|0,0:0|0:0,0:0:0:0:
86,194,112508,6,0,B|114:244|114:244|150:181|106:128|114:103,1,170,4|8,0:0|0:0,0:0:0:0:
18,50,113022,1,2,0:0:0:0:
18,50,113108,1,2,0:0:0:0:
17,50,113193,2,0,P|62:43|86:49,1,42.5,2|2,0:0|0:0,0:0:0:0:
171,92,113365,2,0,P|191:95|213:93,1,42.5,10|0,0:0|0:0,0:0:0:0:
303,16,113536,1,8,0:0:0:0:
280,202,113708,1,0,0:0:0:0:
101,213,113879,6,0,B|127:202|159:210|183:235|183:235|227:248|263:222,1,170,0|8,0:0|0:0,0:0:0:0:
332,113,114393,1,2,0:0:0:0:
332,113,114479,1,2,0:0:0:0:
332,113,114565,2,0,P|328:154|334:184,1,42.5,2|2,0:0|0:0,0:0:0:0:
383,249,114736,2,0,P|387:290|381:320,1,42.5,10|2,0:0|0:0,0:0:0:0:
275,356,114908,6,0,P|244:359|212:359,1,63.75,8|0,0:0|0:0,0:0:0:0:
142,284,115251,6,0,B|134:335|134:335|188:299|226:336|277:306,1,170,4|8,0:0|0:0,0:0:0:0:
383,248,115765,1,2,0:0:0:0:
393,229,115850,1,2,0:0:0:0:
398,209,115936,1,2,0:0:0:0:
397,188,116022,1,2,0:0:0:0:
389,168,116108,1,10,0:0:0:0:
240,98,116279,1,8,0:0:0:0:
267,258,116451,1,0,0:0:0:0:
383,150,116622,6,0,B|341:163|341:163|212:145,1,170,0|8,0:0|0:0,0:0:0:0:
44,160,117136,1,2,0:0:0:0:
30,176,117221,1,2,0:0:0:0:
21,195,117307,1,2,0:0:0:0:
17,216,117393,1,2,0:0:0:0:
18,237,117478,1,10,0:0:0:0:
269,268,117651,6,0,L|188:269,1,63.75,8|0,0:0|0:0,0:0:0:0:
153,325,117993,6,0,B|119:301|119:301|264:298,1,170,4|8,0:0|0:0,0:0:0:0:
394,288,118508,1,2,0:0:0:0:
394,288,118594,1,2,0:0:0:0:
394,288,118680,2,0,P|399:251|398:228,1,42.5,2|2,0:0|0:0,0:0:0:0:
344,148,118851,2,0,P|339:113|341:90,1,42.5,10|0,0:0|0:0,0:0:0:0:
399,7,119022,1,8,0:0:0:0:
317,232,119194,1,0,0:0:0:0:
253,134,119365,5,8,0:0:0:0:
367,338,119537,1,8,0:0:0:0:
148,217,119708,2,0,P|203:223|226:223,1,42.5,8|0,0:0|0:0,0:0:0:0:
317,232,119880,1,2,0:0:0:0:
340,210,119965,1,2,0:0:0:0:
350,180,120051,1,2,0:0:0:0:
346,149,120137,1,2,0:0:0:0:
328,123,120222,1,2,0:0:0:0:
103,105,120393,6,0,P|158:99|180:100,1,63.75,8|0,0:0|0:0,0:0:0:0:
219,38,120736,6,0,B|258:57|258:57|108:69,1,170,4|8,0:0|0:0,0:0:0:0:
34,176,121251,1,2,0:0:0:0:
27,196,121336,1,2,0:0:0:0:
26,217,121422,1,2,0:0:0:0:
29,238,121508,1,2,0:0:0:0:
37,258,121593,1,10,0:0:0:0:
119,149,121765,1,8,0:0:0:0:
26,343,121936,1,0,0:0:0:0:
131,255,122108,6,0,B|154:240|179:235|207:240|207:240|249:264|282:259|316:235,1,170,0|8,0:0|0:0,0:0:0:0:
368,128,122622,1,2,0:0:0:0:
388,132,122707,1,2,0:0:0:0:
407,142,122793,1,2,0:0:0:0:
422,157,122879,1,2,0:0:0:0:
431,176,122964,1,10,0:0:0:0:
323,317,123136,6,0,P|364:319|397:318,1,63.75,8|0,0:0|0:0,0:0:0:0:
472,355,123479,6,0,B|496:330|496:330|456:292|356:299,1,170,4|8,0:0|0:0,0:0:0:0:
263,249,123993,1,2,0:0:0:0:
263,249,124079,1,2,0:0:0:0:
263,249,124165,2,0,P|219:245|188:248,1,42.5,2|2,0:0|0:0,0:0:0:0:
137,316,124336,2,0,P|93:320|62:317,1,42.5,10|2,0:0|0:0,0:0:0:0:
62,214,124508,1,8,0:0:0:0:
205,361,124679,1,0,0:0:0:0:
336,207,124851,6,0,B|303:173|303:173|159:168,1,170,0|8,0:0|0:0,0:0:0:0:
123,70,125365,1,2,0:0:0:0:
123,70,125451,1,2,0:0:0:0:
123,70,125536,2,0,P|166:82|200:79,1,42.5,2|2,0:0|0:0,0:0:0:0:
283,40,125708,2,0,P|326:28|360:31,1,42.5,10|2,0:0|0:0,0:0:0:0:
453,32,125879,6,0,P|459:56|466:95,1,63.75,8|0,0:0|0:0,0:0:0:0:
416,197,126222,6,0,B|451:215|451:215|465:163|440:66,1,170,4|8,0:0|0:0,0:0:0:0:
283,40,126736,1,2,0:0:0:0:
261,39,126821,1,2,0:0:0:0:
240,43,126907,1,2,0:0:0:0:
221,53,126993,1,2,0:0:0:0:
204,65,127078,1,10,0:0:0:0:
175,254,127251,1,8,0:0:0:0:
306,175,127422,1,0,0:0:0:0:
122,159,127593,6,0,B|108:195|112:222|130:249|130:249|141:292|107:332,1,170,0|8,0:0|0:0,0:0:0:0:
233,358,128108,1,2,0:0:0:0:
252,366,128193,1,2,0:0:0:0:
273,371,128279,1,2,0:0:0:0:
294,372,128365,1,2,0:0:0:0:
315,370,128450,1,10,0:0:0:0:
295,229,128622,6,2,L|288:296,1,63.75,8|2,0:0|0:0,0:0:0:0:
369,200,128965,6,0,P|304:151|247:167,1,127.5,8|0,0:0|0:0,0:0:0:0:
202,223,129651,1,0,0:0:0:0:
56,278,129993,5,0,0:0:0:0:
187,145,130165,1,0,0:0:0:0:
6,140,130336,1,0,0:0:0:0:
11,152,130508,1,0,0:0:0:0:
17,164,130679,2,0,P|64:170|72:170,1,42.5
80,267,131022,2,0,P|123:249|130:245,1,42.5
186,325,131365,2,0,P|214:288|218:281,1,42.5
256,189,131708,5,4,0:0:0:0:
