osu file format v14

[General]
AudioFilename: audio.mp3
AudioLeadIn: 0
PreviewTime: 88170
Countdown: 0
SampleSet: Normal
StackLeniency: 0.7
Mode: 1
LetterboxInBreaks: 0
WidescreenStoryboard: 1

[Editor]
Bookmarks: 138342,140239,140907
DistanceSpacing: 0.1
BeatDivisor: 4
GridSize: 32
TimelineZoom: 1.8

[Metadata]
Title:Good Time
TitleUnicode:Good Time
Artist:Fox Stevenson
ArtistUnicode:Fox Stevenson
Creator:freestyler
Version:Cry's Oni
Source:
Tags:[-E S I A-] E_S_I_A [-E_S_I_A-] ESIA [-ESIA-] zhuosh cryceptio english dnb drum n bass & electronic and male vocals vocalist stan sb
BeatmapID:4425359
BeatmapSetID:2077412

[Difficulty]
HPDrainRate:5
CircleSize:4
OverallDifficulty:5
ApproachRate:9.2
SliderMultiplier:1.4
SliderTickRate:1

[Events]
//Background and Video events
0,0,"72189536_p1 (1).jpg",0,-65
//Break Periods
2,11559,12858
2,14318,15100
2,17077,18376
2,19835,20617
2,22594,23893
2,25352,26134
2,28111,29410
//Storyboard Layer 0 (Background)
//Storyboard Layer 1 (Fail)
//Storyboard Layer 2 (Pass)
//Storyboard Layer 3 (Foreground)
//Storyboard Layer 4 (Overlay)
//Storyboard Sound Samples

[TimingPoints]
11015,344.827586206897,4,1,0,50,1,0
11015,-132.890365448505,4,1,0,50,0,0
11186,-132.843509098098,4,1,0,50,0,0
11358,-132.775051035893,4,1,0,50,0,0
12393,-132.192324461294,4,1,0,50,0,0
13427,-131.453756201464,4,1,0,50,0,0
13600,-131.320041597357,4,1,0,50,0,0
13772,-131.18468831639,4,1,0,50,0,0
13945,-131.046257560311,4,1,0,50,0,0
14117,-130.906470999516,4,1,0,50,0,0
15151,-130.026425291868,4,1,0,50,0,0
15669,-129.563618267515,4,1,0,50,0,0
15841,-129.40715342087,4,1,0,50,0,0
16014,-129.248469337332,4,1,0,50,0,0
16531,-128.766928534267,4,1,0,50,0,0
16703,-128.60444761305,4,1,0,50,0,0
16876,-128.439947321412,4,1,0,50,0,0
17910,-127.436415902135,4,1,0,50,0,0
18945,-126.402197292442,4,1,0,50,0,0
19117,-126.227883728352,4,1,0,50,0,0
19289,-126.052941235038,4,1,0,50,0,0
19462,-125.876370824512,4,1,0,50,0,0
19634,-125.700236500038,4,1,0,50,0,0
20669,-124.629243035726,4,1,0,50,0,0
21186,-124.088004063023,4,1,0,50,0,0
21358,-123.907135412602,4,1,0,50,0,0
21531,-123.724837875428,4,1,0,50,0,0
21876,-123.360230528986,4,1,0,50,0,0
22048,-123.177955529902,4,1,0,50,0,0
22220,-122.995367746603,4,1,0,50,0,0
22393,-122.811417347168,4,1,0,50,0,0
23427,-121.706434893124,4,1,0,50,0,0
24462,-120.592841479588,4,1,0,50,0,0
24634,-120.407223197287,4,1,0,50,0,0
24807,-120.220393826381,4,1,0,50,0,0
24979,-120.034523256889,4,1,0,50,0,0
25151,-119.848541661572,4,1,0,50,0,0
26186,-118.727586914661,4,1,0,50,0,0
26703,-118.16687644071,4,1,0,50,0,0
26876,-117.979190065217,4,1,0,50,0,0
27048,-117.792571785105,4,1,0,50,0,0
27393,-117.418229772614,4,1,0,50,0,0
27565,-117.231605645303,4,1,0,50,0,0
27738,-117.043908944484,4,1,0,50,0,0
27910,-116.857316486812,4,1,0,50,0,0
28945,-115.735284005488,4,1,0,50,0,0
29979,-114.616624858947,4,1,0,50,0,0
30151,-114.430850741035,4,1,0,50,0,0
30324,-114.244099526495,4,1,0,50,0,0
30496,-114.058535253277,4,1,0,50,0,0
30669,-113.8720051972,4,1,0,50,0,0
30841,-113.68667063572,4,1,0,50,0,0
31703,-112.759768095816,4,1,0,50,0,0
33083,-111.28466587972,4,1,0,60,0,0
33255,-111.100365484519,4,1,0,60,0,0
33427,-110.917309832028,4,1,0,60,0,0
33600,-110.733373892877,4,1,0,60,0,0
33945,-110.367129833851,4,1,0,60,0,0
34117,-110.184826175106,4,1,0,60,0,0
34289,-110.002718165815,4,1,0,60,0,0
34462,-109.819751917747,4,1,0,60,0,0
34634,-109.638045733673,4,1,0,60,0,0
34807,-109.4554897962,4,1,0,60,0,0
35496,-108.730546685294,4,1,0,60,0,0
35841,-108.368858538256,4,1,0,60,0,0
36014,-108.187828667244,4,1,0,60,0,0
36186,-108.008072702541,4,1,0,60,0,0
36358,-107.828546055589,4,1,0,60,0,0
36703,-107.469150013467,4,1,0,60,0,0
36876,-107.289288089615,4,1,0,60,0,0
37048,-107.110705266361,4,1,0,60,0,0
37220,-106.932363413719,4,1,0,60,0,0
37393,-106.753229964442,4,1,0,60,0,0
37565,-106.57537796301,4,1,0,60,0,0
38255,-105.864408820413,4,1,0,60,0,0
38600,-105.510456865831,4,1,0,60,0,0
38772,-105.334382101535,4,1,0,60,0,0
38945,-105.157546633512,4,1,0,60,0,0
39117,-104.981996541572,4,1,0,60,0,0
39462,-104.630673639126,4,1,0,60,0,0
39634,-104.455922429239,4,1,0,60,0,0
39807,-104.280426558842,4,1,0,60,0,0
39979,-104.106216424897,4,1,0,60,0,0
40151,-103.932278315359,4,1,0,60,0,0
40324,-103.757604816636,4,1,0,60,0,0
41014,-103.063710835718,4,1,0,60,0,0
41358,-102.719449197641,4,1,0,60,0,0
41531,-102.546744455951,4,1,0,60,0,0
41703,-102.375322800658,4,1,0,60,0,0
41876,-102.203192131056,4,1,0,60,0,0
42220,-101.861782295038,4,1,0,60,0,0
42393,-101.690520377945,4,1,0,60,0,0
42565,-101.52053873092,4,1,0,60,0,0
42738,-101.3498618463,4,1,0,60,0,0
42910,-101.180463853926,4,1,0,60,0,0
43082,-101.011358290731,4,1,0,60,0,0
43772,-100.335927564023,4,1,0,60,0,0
44118,-100,4,1,0,70,0,0
49635,-100,4,1,0,70,0,0
49807,-99.6744324578392,4,1,0,70,0,0
49979,-99.2051295581877,4,1,0,70,0,0
50151,-98.6625199736493,4,1,0,70,0,0
50324,-98.0652871436095,4,1,0,70,0,0
50496,-97.4327866369924,4,1,0,70,0,0
50669,-96.7659810953672,4,1,0,70,0,0
50841,-96.0785794559498,4,1,0,70,0,0
51014,-95.3672438711112,4,1,0,70,0,0
51186,-94.6438932475828,4,1,0,70,0,0
51358,-93.9074924074114,4,1,0,70,0,0
51531,-93.1562090919723,4,1,0,70,0,0
51703,-92.4008987889842,4,1,0,70,0,0
51876,-91.634662439794,4,1,0,70,0,0
52048,-90.867982663206,4,1,0,70,0,0
52220,-90.0978623513239,4,1,0,70,0,0
52393,-89.3210527991212,4,1,0,70,0,0
52479,-88.934419047153,4,1,0,70,0,0
52565,-88.5476409668536,4,1,0,70,0,0
52738,-87.7696227458403,4,1,0,70,0,0
52910,-86.9968653221753,4,1,0,70,0,0
52996,-86.6110179291206,4,1,0,70,0,0
53082,-86.2256447348602,4,1,0,70,0,0
53169,-85.836358551191,4,1,0,70,0,0
53255,-85.4521884349627,4,1,0,70,0,0
53427,-84.6860576850403,4,1,0,70,0,0
53600,-83.9189016129297,4,1,0,70,0,0
53686,-83.5389771908175,4,1,0,70,0,0
53773,-83.1600831600832,4,1,0,50,0,0
54118,-92.440990555951,4,1,0,50,0,0
54807,-89.2742606536632,4,1,0,50,0,0
55152,-82.9875518672199,4,1,0,85,0,1
55325,-90.4977375565611,4,1,0,85,0,0
56876,-90.4977375565611,4,1,0,85,0,0
57048,-89.7679256824054,4,1,0,85,0,0
57134,-89.2683023438288,4,1,0,85,0,0
57220,-88.7216741837054,4,1,0,85,0,0
57307,-88.1325820548238,4,1,0,85,0,0
57393,-87.5222447267972,4,1,0,85,0,0
57565,-86.2389011595907,4,1,0,85,0,0
57738,-84.8884124514838,4,1,0,85,0,0
57824,-84.2016036541118,4,1,0,85,0,0
57911,-83.5073068893528,4,1,0,85,0,1
58083,-91.1161731207289,4,1,0,85,0,0
59634,-91.1161731207289,4,1,0,85,0,0
59807,-90.2721082325182,4,1,0,85,0,0
59893,-89.6989463403414,4,1,0,85,0,0
59979,-89.0731469255231,4,1,0,85,0,0
60065,-88.4080126500302,4,1,0,85,0,0
60151,-87.7123968955841,4,1,0,85,0,0
60324,-86.2453556955546,4,1,0,85,0,0
60496,-84.7256464438932,4,1,0,85,0,0
60582,-83.9508124227765,4,1,0,85,0,0
60670,-83.1600831600832,4,1,0,85,0,1
60842,-91.1161731207289,4,1,0,85,0,0
62393,-91.1161731207289,4,1,0,85,0,0
62565,-90.336747250966,4,1,0,85,0,0
62651,-89.8036022503388,4,1,0,85,0,0
62738,-89.2136947161459,4,1,0,85,0,0
62824,-88.5930214859327,4,1,0,85,0,0
62910,-87.9432214111116,4,1,0,85,0,0
63082,-86.5786466882717,4,1,0,85,0,0
63255,-85.1452271628614,4,1,0,85,0,0
63341,-84.4172438322347,4,1,0,85,0,0
63428,-83.6820083682008,4,1,0,85,0,1
63601,-91.1161731207289,4,1,0,85,0,0
65151,-91.1161731207289,4,1,0,85,0,0
65324,-90.3119470348835,4,1,0,85,0,0
65410,-89.7654328774991,4,1,0,85,0,0
65496,-89.1683541533527,4,1,0,85,0,0
65669,-87.8608283037332,4,1,0,85,0,0
65755,-87.1725032372844,4,1,0,85,0,0
65841,-86.4654606125878,4,1,0,85,0,0
66014,-85.0009694019054,4,1,0,85,0,0
66187,-83.5073068893528,4,1,0,50,0,0
66876,-86.2649550955595,4,1,0,50,0,0
67048,-87.2315110850912,4,1,0,50,0,0
67393,-89.4210121609185,4,1,0,50,0,0
67565,-90.634663992219,4,1,0,50,0,0
67738,-91.9378214821979,4,1,0,50,0,0
68082,-94.7823422746537,4,1,0,50,0,0
68255,-96.3460734181017,4,1,0,50,0,0
68427,-97.9942067842789,4,1,0,50,0,0
68601,-99.7506237305217,4,1,0,50,0,0
68946,-83.5073068893528,4,1,0,85,0,1
69118,-91.1161731207289,4,1,0,85,0,0
70669,-91.1161731207289,4,1,0,85,0,0
70841,-90.257559444035,4,1,0,85,0,0
70927,-89.6711146471912,4,1,0,85,0,0
71014,-89.0230511628113,4,1,0,85,0,0
71186,-87.6302408383687,4,1,0,85,0,0
71358,-86.1386825218023,4,1,0,85,0,0
71445,-85.3591552067026,4,1,0,85,0,0
71531,-84.5767746730433,4,1,0,85,0,0
71617,-83.7854521204119,4,1,0,85,0,0
71704,-82.9875518672199,4,1,0,85,0,1
71877,-90.9090909090909,4,1,0,85,0,0
73427,-90.9090909090909,4,1,0,85,0,0
73600,-90.0886660410704,4,1,0,85,0,0
73686,-89.5313312609681,4,1,0,85,0,0
73772,-88.9226039385466,4,1,0,85,0,0
73858,-88.2753760556351,4,1,0,85,0,0
73945,-87.5902003412991,4,1,0,85,0,0
74117,-86.1692387094414,4,1,0,85,0,0
74289,-84.687686401337,4,1,0,85,0,0
74376,-83.9229766987814,4,1,0,85,0,0
74463,-83.1600831600832,4,1,0,85,0,1
74635,-90.7414470812985,4,1,0,85,0,0
74979,-90.2024150476209,4,1,0,85,0,0
75065,-89.8999088729918,4,1,0,85,0,0
75151,-89.5808453670349,4,1,0,85,0,0
75324,-88.8987542895782,4,1,0,85,0,0
75410,-88.5432665522561,4,1,0,85,0,0
75496,-88.1787165334055,4,1,0,85,0,0
75669,-87.4222106642518,4,1,0,85,0,0
75842,-86.6451007438075,4,1,0,80,0,0
75927,-86.2489618640156,4,1,0,80,0,0
76015,-85.8438703732644,4,1,0,75,0,0
76187,-85.0321529492467,4,1,0,70,0,0
76359,-84.2089287582379,4,1,0,65,0,0
76445,-83.7891120480498,4,1,0,65,0,0
76532,-83.3723110597602,4,1,0,60,0,0
76617,-82.9540120307838,4,1,0,60,0,0
76704,-82.5344922586377,4,1,0,55,0,0
76877,-81.6878979459058,4,1,0,50,0,0
77049,-80.8441648055343,4,1,0,45,0,0
77221,-80,4,1,0,95,0,1
88256,-80.1603206412826,4,1,0,85,0,1
96532,-79.8403193612775,4,1,0,65,0,0
97048,-83.0141367494715,4,1,0,65,0,0
97220,-84.5350877228171,4,1,0,65,0,0
97393,-86.2495907543707,4,1,0,65,0,0
97738,-90.2262260497828,4,1,0,65,0,0
97910,-92.5015097743334,4,1,0,65,0,0
98082,-94.9884196793968,4,1,0,65,0,0
98427,-100.688119549833,4,1,0,65,0,0
98772,-107.502391726161,4,1,0,65,0,0
98946,-111.42061345159,4,1,0,65,0,0
99290,-100,4,1,0,75,0,0
109289,-100,4,1,0,75,0,0
109634,-96.5845946781943,4,1,0,75,0,0
109807,-94.3415035629603,4,1,0,75,0,0
109893,-93.1762543013841,4,1,0,75,0,0
109979,-91.99031410432,4,1,0,75,0,0
110151,-89.582743239579,4,1,0,75,0,0
110325,-87.1459694989107,4,1,0,75,0,0
110497,-100.25062657016,4,1,0,75,0,0
118600,-100.250626566416,4,1,0,75,0,0
118772,-99.0868683810068,4,1,0,75,0,0
118945,-97.4225954481763,4,1,0,75,0,0
119289,-93.5748213010971,4,1,0,75,0,0
119462,-91.5146817104028,4,1,0,75,0,0
119548,-90.4771431073953,4,1,0,75,0,0
119634,-89.4351734552309,4,1,0,75,0,0
119808,-87.3362445414847,4,1,0,75,0,0
119980,-100,4,1,0,60,0,0
121359,-111.284219897618,4,1,0,60,0,0
121531,-111.100365484519,4,1,0,60,0,0
121703,-110.917309832028,4,1,0,60,0,0
121876,-110.733373892877,4,1,0,60,0,0
122221,-110.367129833851,4,1,0,60,0,0
122393,-110.184826175106,4,1,0,60,0,0
122565,-110.002718165815,4,1,0,60,0,0
122738,-109.819751917747,4,1,0,60,0,0
122910,-109.638045733673,4,1,0,60,0,0
123083,-109.4554897962,4,1,0,60,0,0
123772,-108.730546685294,4,1,0,60,0,0
124117,-108.368858538256,4,1,0,60,0,0
124290,-108.187828667244,4,1,0,60,0,0
124462,-108.008072702541,4,1,0,60,0,0
124634,-107.828546055589,4,1,0,60,0,0
124979,-107.469150013467,4,1,0,60,0,0
125152,-107.289288089615,4,1,0,60,0,0
125324,-107.110705266361,4,1,0,60,0,0
125496,-106.932363413719,4,1,0,60,0,0
125669,-106.753229964442,4,1,0,60,0,0
125841,-106.57537796301,4,1,0,60,0,0
126531,-105.864408820413,4,1,0,60,0,0
126876,-105.510456865831,4,1,0,60,0,0
127048,-105.334382101535,4,1,0,60,0,0
127221,-105.157546633512,4,1,0,60,0,0
127393,-104.981996541572,4,1,0,60,0,0
127738,-104.630673639126,4,1,0,60,0,0
127910,-104.455922429239,4,1,0,60,0,0
128083,-104.280426558842,4,1,0,60,0,0
128255,-104.106216424897,4,1,0,60,0,0
128427,-103.932278315359,4,1,0,60,0,0
128600,-103.757604816636,4,1,0,60,0,0
129290,-103.063710835718,4,1,0,60,0,0
129634,-102.719449197641,4,1,0,60,0,0
129807,-102.546744455951,4,1,0,60,0,0
129979,-102.375322800658,4,1,0,60,0,0
130152,-102.203192131056,4,1,0,60,0,0
130496,-101.861782295038,4,1,0,60,0,0
130669,-101.690520377945,4,1,0,60,0,0
130841,-101.52053873092,4,1,0,60,0,0
131014,-101.3498618463,4,1,0,60,0,0
131186,-101.180463853926,4,1,0,60,0,0
131358,-101.011358290731,4,1,0,60,0,0
132048,-100.335927564023,4,1,0,60,0,0
132394,-100,4,1,0,70,0,0
137911,-100,4,1,0,70,0,0
138083,-99.6744324578392,4,1,0,70,0,0
138255,-99.2051295581877,4,1,0,70,0,0
138427,-98.6625199736493,4,1,0,70,0,0
138600,-98.0652871436095,4,1,0,70,0,0
138772,-97.4327866369924,4,1,0,70,0,0
138945,-96.7659810953672,4,1,0,70,0,0
139117,-96.0785794559498,4,1,0,70,0,0
139290,-95.3672438711112,4,1,0,70,0,0
139462,-94.6438932475828,4,1,0,70,0,0
139634,-93.9074924074114,4,1,0,70,0,0
139807,-93.1562090919723,4,1,0,70,0,0
139979,-92.4008987889842,4,1,0,70,0,0
140152,-91.634662439794,4,1,0,70,0,0
140324,-90.867982663206,4,1,0,70,0,0
140496,-90.0978623513239,4,1,0,70,0,0
140669,-89.3210527991212,4,1,0,70,0,0
140755,-88.934419047153,4,1,0,70,0,0
140841,-88.5476409668536,4,1,0,70,0,0
141014,-87.7696227458403,4,1,0,70,0,0
141186,-86.9968653221753,4,1,0,70,0,0
141272,-86.6110179291206,4,1,0,70,0,0
141358,-86.2256447348602,4,1,0,70,0,0
141445,-85.836358551191,4,1,0,70,0,0
141531,-85.4521884349627,4,1,0,70,0,0
141703,-84.6860576850403,4,1,0,70,0,0
141876,-83.9189016129297,4,1,0,70,0,0
141962,-83.5389771908175,4,1,0,70,0,0
142049,-83.1600831600832,4,1,0,50,0,0
142394,-92.440990555951,4,1,0,50,0,0
143083,-89.2742606536632,4,1,0,50,0,0
143428,-82.9875518672199,4,1,0,85,0,1
143601,-90.4977375565611,4,1,0,85,0,0
145152,-90.4977375565611,4,1,0,85,0,0
145324,-89.7679256824054,4,1,0,85,0,0
145410,-89.2683023438288,4,1,0,85,0,0
145496,-88.7216741837054,4,1,0,85,0,0
145583,-88.1325820548238,4,1,0,85,0,0
145669,-87.5222447267972,4,1,0,85,0,0
145841,-86.2389011595907,4,1,0,85,0,0
146014,-84.8884124514838,4,1,0,85,0,0
146100,-84.2016036541118,4,1,0,85,0,0
146187,-83.5073068893528,4,1,0,85,0,1
146359,-91.1161731207289,4,1,0,85,0,0
147910,-91.1161731207289,4,1,0,85,0,0
148083,-90.2721082325182,4,1,0,85,0,0
148169,-89.6989463403414,4,1,0,85,0,0
148255,-89.0731469255231,4,1,0,85,0,0
148341,-88.4080126500302,4,1,0,85,0,0
148427,-87.7123968955841,4,1,0,85,0,0
148600,-86.2453556955546,4,1,0,85,0,0
148772,-84.7256464438932,4,1,0,85,0,0
148858,-83.9508124227765,4,1,0,85,0,0
148946,-83.1600831600832,4,1,0,85,0,1
149118,-91.1161731207289,4,1,0,85,0,0
150669,-91.1161731207289,4,1,0,85,0,0
150841,-90.336747250966,4,1,0,85,0,0
150927,-89.8036022503388,4,1,0,85,0,0
151014,-89.2136947161459,4,1,0,85,0,0
151100,-88.5930214859327,4,1,0,85,0,0
151186,-87.9432214111116,4,1,0,85,0,0
151358,-86.5786466882717,4,1,0,85,0,0
151531,-85.1452271628614,4,1,0,85,0,0
151617,-84.4172438322347,4,1,0,85,0,0
151704,-83.6820083682008,4,1,0,85,0,1
151877,-91.1161731207289,4,1,0,85,0,0
153427,-91.1161731207289,4,1,0,85,0,0
153600,-90.3119470348835,4,1,0,85,0,0
153686,-89.7654328774991,4,1,0,85,0,0
153772,-89.1683541533527,4,1,0,85,0,0
153945,-87.8608283037332,4,1,0,85,0,0
154031,-87.1725032372844,4,1,0,85,0,0
154117,-86.4654606125878,4,1,0,85,0,0
154290,-85.0009694019054,4,1,0,85,0,0
154463,-83.5073068893528,4,1,0,50,0,0
155152,-86.2649550955595,4,1,0,50,0,0
155324,-87.2315110850912,4,1,0,50,0,0
155669,-89.4210121609185,4,1,0,50,0,0
155841,-90.634663992219,4,1,0,50,0,0
156014,-91.9378214821979,4,1,0,50,0,0
156358,-94.7823422746537,4,1,0,50,0,0
156531,-96.3460734181017,4,1,0,50,0,0
156703,-97.9942067842789,4,1,0,50,0,0
156877,-99.7506237305217,4,1,0,50,0,0
157221,-83.1600831549306,4,1,0,50,0,0
157394,-91.1161731207289,4,1,0,85,0,0
158945,-91.1161731207289,4,1,0,85,0,0
159117,-90.257559444035,4,1,0,85,0,0
159203,-89.6711146471912,4,1,0,85,0,0
159290,-89.0230511628113,4,1,0,85,0,0
159462,-87.6302408383687,4,1,0,85,0,0
159634,-86.1386825218023,4,1,0,85,0,0
159721,-85.3591552067026,4,1,0,85,0,0
159807,-84.5767746730433,4,1,0,85,0,0
159893,-83.7854521204119,4,1,0,85,0,0
159980,-82.9875518672199,4,1,0,85,0,1
160152,-90.9090909090909,4,1,0,85,0,0
161703,-90.9090909090909,4,1,0,85,0,0
161876,-90.0886660410704,4,1,0,85,0,0
161962,-89.5313312609681,4,1,0,85,0,0
162048,-88.9226039385466,4,1,0,85,0,0
162134,-88.2753760556351,4,1,0,85,0,0
162221,-87.5902003412991,4,1,0,85,0,0
162393,-86.1692387094414,4,1,0,85,0,0
162565,-84.687686401337,4,1,0,85,0,0
162652,-83.9229766987814,4,1,0,85,0,0
162739,-83.1600831600832,4,1,0,85,0,1
162911,-90.7414470812985,4,1,0,85,0,0
163255,-90.2024150476209,4,1,0,85,0,0
163341,-89.8999088729918,4,1,0,85,0,0
163427,-89.5808453670349,4,1,0,85,0,0
163600,-88.8987542895782,4,1,0,85,0,0
163686,-88.5432665522561,4,1,0,85,0,0
163772,-88.1787165334055,4,1,0,85,0,0
163945,-87.4222106642518,4,1,0,85,0,0
164118,-86.6451007438075,4,1,0,80,0,0
164203,-86.2489618640156,4,1,0,80,0,0
164291,-85.8438703732644,4,1,0,75,0,0
164463,-85.0321529492467,4,1,0,70,0,0
164635,-84.2089287582379,4,1,0,65,0,0
164721,-83.7891120480498,4,1,0,65,0,0
164808,-83.3723110597602,4,1,0,60,0,0
164893,-82.9540120307838,4,1,0,60,0,0
164980,-82.5344922586377,4,1,0,55,0,0
165153,-81.6878979459058,4,1,0,50,0,0
165325,-80.8441648055343,4,1,0,45,0,0
165497,-80,4,1,0,95,0,1
176532,-79.6812749003984,4,1,0,85,0,1
186187,-80.1603206412826,4,1,0,90,0,1
188773,-79.8403193612775,4,1,0,95,0,1
188945,-79.8403193612775,4,1,0,95,0,1
189117,-79.4103339340388,4,1,0,95,0,1
189289,-78.7898438111301,4,1,0,95,0,1
189462,-78.0725491969502,4,1,0,95,0,1
189634,-77.2979270326433,4,1,0,95,0,1
189807,-76.4746854218436,4,1,0,95,0,1
189979,-75.6240682289016,4,1,0,95,0,1
190151,-74.7499187890316,4,1,0,95,0,1
190325,-73.8535228618846,4,1,0,100,0,1
190496,-72.9504201569688,4,1,0,100,0,1
190669,-72.0343342207222,4,1,0,100,0,1
190841,-71.1193037675006,4,1,0,100,0,1
191014,-70.1975783615685,4,1,0,100,0,1
191186,-69.2822158290058,4,1,0,100,0,1
191358,-68.369902243435,4,1,0,100,0,1
191445,-67.9101540709133,4,1,0,100,0,1
191531,-67.4570780530473,4,1,0,100,0,1
191617,-67.0055541876197,4,1,0,100,0,1
191704,-66.5557404326123,4,1,0,75,0,0
208256,-100,4,1,0,60,0,0

[HitObjects]
448,320,11015,5,12,0:0:0:0:
224,128,11187,1,0,0:0:0:0:
448,64,11359,1,8,0:0:0:0:
224,128,13428,5,0,0:0:0:0:
224,128,13601,1,0,0:0:0:0:
448,64,13773,1,8,0:0:0:0:
224,128,13946,1,0,0:0:0:0:
448,64,14118,1,8,0:0:0:0:
448,64,15670,5,8,0:0:0:0:
448,64,15842,1,8,0:0:0:0:
224,128,16015,1,0,0:0:0:0:
448,64,16532,1,8,0:0:0:0:
224,128,16704,1,0,0:0:0:0:
448,64,16877,1,8,0:0:0:0:
224,128,18946,5,0,0:0:0:0:
224,128,19118,1,0,0:0:0:0:
448,64,19290,1,8,0:0:0:0:
448,64,19463,1,8,0:0:0:0:
224,128,19635,1,0,0:0:0:0:
448,64,21187,5,8,0:0:0:0:
448,64,21359,1,8,0:0:0:0:
224,128,21532,1,0,0:0:0:0:
224,128,21877,1,0,0:0:0:0:
448,64,22049,1,8,0:0:0:0:
224,128,22221,1,0,0:0:0:0:
448,64,22394,1,8,0:0:0:0:
224,128,24463,5,0,0:0:0:0:
224,128,24635,1,0,0:0:0:0:
448,64,24808,1,8,0:0:0:0:
224,128,24980,1,0,0:0:0:0:
448,64,25152,1,8,0:0:0:0:
448,64,26704,5,8,0:0:0:0:
448,64,26877,1,8,0:0:0:0:
224,128,27049,1,0,0:0:0:0:
224,128,27394,1,0,0:0:0:0:
448,64,27566,1,8,0:0:0:0:
224,128,27739,1,0,0:0:0:0:
448,64,27911,1,8,0:0:0:0:
224,128,29980,5,0,0:0:0:0:
224,128,30152,1,0,0:0:0:0:
448,64,30325,1,8,0:0:0:0:
448,64,30497,1,8,0:0:0:0:
224,128,30670,1,0,0:0:0:0:
256,192,30842,12,0,31704,0:0:0:0:
448,320,33083,5,12,0:0:0:0:
224,128,33256,1,0,0:0:0:0:
224,128,33428,1,0,0:0:0:0:
448,64,33601,1,8,0:0:0:0:
224,128,33946,1,0,0:0:0:0:
448,64,34118,1,8,0:0:0:0:
448,64,34290,1,8,0:0:0:0:
224,128,34635,1,0,0:0:0:0:
448,64,34808,1,8,0:0:0:0:
448,64,35497,1,8,0:0:0:0:
448,64,35842,1,8,0:0:0:0:
448,64,36015,1,8,0:0:0:0:
224,128,36187,1,0,0:0:0:0:
224,128,36359,1,0,0:0:0:0:
448,64,36704,1,8,0:0:0:0:
224,128,36877,1,0,0:0:0:0:
448,64,37049,1,8,0:0:0:0:
224,128,37394,1,0,0:0:0:0:
224,128,37566,1,0,0:0:0:0:
448,64,38256,1,8,0:0:0:0:
448,64,38601,1,8,0:0:0:0:
224,128,38773,1,0,0:0:0:0:
224,128,38946,1,0,0:0:0:0:
448,64,39118,1,8,0:0:0:0:
224,128,39463,1,0,0:0:0:0:
448,64,39635,1,8,0:0:0:0:
448,64,39808,1,8,0:0:0:0:
224,128,40152,1,0,0:0:0:0:
448,64,40325,1,8,0:0:0:0:
448,64,41015,1,8,0:0:0:0:
448,64,41359,1,8,0:0:0:0:
448,64,41532,1,8,0:0:0:0:
224,128,41704,1,0,0:0:0:0:
224,128,41877,1,0,0:0:0:0:
224,128,42221,1,0,0:0:0:0:
448,64,42394,1,8,0:0:0:0:
224,128,42566,1,0,0:0:0:0:
224,128,42911,1,0,0:0:0:0:
224,128,43083,1,0,0:0:0:0:
448,64,43773,1,8,0:0:0:0:
448,64,44118,1,8,0:0:0:0:
224,128,44290,1,0,0:0:0:0:
224,128,44463,1,0,0:0:0:0:
448,64,44635,1,8,0:0:0:0:
224,128,44980,1,0,0:0:0:0:
224,128,45152,1,0,0:0:0:0:
448,64,45325,1,8,0:0:0:0:
224,128,45670,1,0,0:0:0:0:
448,64,45842,1,8,0:0:0:0:
448,64,46187,1,8,0:0:0:0:
224,128,46532,1,0,0:0:0:0:
448,64,46877,1,8,0:0:0:0:
224,128,47049,1,0,0:0:0:0:
448,64,47221,1,8,0:0:0:0:
224,128,47394,1,0,0:0:0:0:
448,64,47739,1,8,0:0:0:0:
448,64,47911,1,8,0:0:0:0:
224,128,48083,1,0,0:0:0:0:
224,128,48428,1,0,0:0:0:0:
448,64,48601,1,8,0:0:0:0:
224,128,48946,1,0,0:0:0:0:
448,64,49290,1,8,0:0:0:0:
448,64,49635,1,8,0:0:0:0:
224,128,49808,1,0,0:0:0:0:
448,64,49980,1,8,0:0:0:0:
224,128,50152,1,0,0:0:0:0:
448,64,50325,1,8,0:0:0:0:
224,128,50497,1,0,0:0:0:0:
448,64,50670,1,8,0:0:0:0:
448,64,50842,1,8,0:0:0:0:
224,128,51015,1,0,0:0:0:0:
448,64,51187,1,8,0:0:0:0:
448,64,51359,1,8,0:0:0:0:
224,128,51532,1,0,0:0:0:0:
448,64,51704,1,8,0:0:0:0:
224,128,51877,1,0,0:0:0:0:
448,64,52049,1,8,0:0:0:0:
224,128,52221,1,0,0:0:0:0:
448,64,52394,1,8,0:0:0:0:
224,128,52480,1,0,0:0:0:0:
448,64,52566,1,8,0:0:0:0:
224,128,52739,1,0,0:0:0:0:
448,64,52911,1,8,0:0:0:0:
448,64,52997,1,8,0:0:0:0:
224,128,53083,1,0,0:0:0:0:
224,128,53170,1,0,0:0:0:0:
448,64,53256,1,8,0:0:0:0:
448,64,53428,1,8,0:0:0:0:
224,128,53601,1,0,0:0:0:0:
224,128,53687,1,0,0:0:0:0:
448,64,53773,1,8,0:0:0:0:
224,128,54635,1,0,0:0:0:0:
448,64,54808,1,8,0:0:0:0:
448,320,55152,1,12,0:0:0:0:
448,64,55497,1,8,0:0:0:0:
224,128,55670,1,0,0:0:0:0:
224,128,55756,1,0,0:0:0:0:
224,128,55842,1,0,0:0:0:0:
448,64,56015,1,8,0:0:0:0:
448,64,56187,1,8,0:0:0:0:
224,128,56359,1,0,0:0:0:0:
224,128,56446,1,0,0:0:0:0:
448,64,56532,1,8,0:0:0:0:
224,128,56704,1,0,0:0:0:0:
448,64,56877,1,8,0:0:0:0:
224,128,57049,1,0,0:0:0:0:
224,128,57135,1,0,0:0:0:0:
448,64,57221,1,8,0:0:0:0:
448,64,57308,1,8,0:0:0:0:
224,128,57394,1,0,0:0:0:0:
448,64,57566,1,8,0:0:0:0:
448,64,57739,1,8,0:0:0:0:
448,64,57825,1,8,0:0:0:0:
64,320,57911,1,4,0:0:0:0:
448,64,58256,1,8,0:0:0:0:
448,64,58428,1,8,0:0:0:0:
224,128,58515,1,0,0:0:0:0:
448,64,58601,1,8,0:0:0:0:
224,128,58773,1,0,0:0:0:0:
448,64,58946,1,8,0:0:0:0:
448,64,59118,1,8,0:0:0:0:
224,128,59204,1,0,0:0:0:0:
448,64,59290,1,8,0:0:0:0:
224,128,59463,1,0,0:0:0:0:
448,64,59635,1,8,0:0:0:0:
448,64,59808,1,8,0:0:0:0:
224,128,59894,1,0,0:0:0:0:
224,128,59980,1,0,0:0:0:0:
224,128,60066,1,0,0:0:0:0:
224,128,60152,1,0,0:0:0:0:
448,64,60325,1,8,0:0:0:0:
224,128,60497,1,0,0:0:0:0:
224,128,60583,1,0,0:0:0:0:
448,320,60670,1,12,0:0:0:0:
448,64,61015,1,8,0:0:0:0:
224,128,61187,1,0,0:0:0:0:
224,128,61273,1,0,0:0:0:0:
224,128,61359,1,0,0:0:0:0:
448,64,61532,1,8,0:0:0:0:
448,64,61704,1,8,0:0:0:0:
224,128,61877,1,0,0:0:0:0:
224,128,61963,1,0,0:0:0:0:
448,64,62049,1,8,0:0:0:0:
224,128,62221,1,0,0:0:0:0:
448,64,62394,1,8,0:0:0:0:
224,128,62566,1,0,0:0:0:0:
224,128,62652,1,0,0:0:0:0:
448,64,62739,1,8,0:0:0:0:
448,64,62825,1,8,0:0:0:0:
224,128,62911,1,0,0:0:0:0:
448,64,63083,1,8,0:0:0:0:
448,64,63256,1,8,0:0:0:0:
448,64,63342,1,8,0:0:0:0:
64,320,63428,1,4,0:0:0:0:
448,64,63773,1,8,0:0:0:0:
448,64,63946,1,8,0:0:0:0:
448,64,64032,1,8,0:0:0:0:
224,128,64118,1,0,0:0:0:0:
448,64,64290,1,8,0:0:0:0:
448,64,64463,1,8,0:0:0:0:
224,128,64635,1,0,0:0:0:0:
224,128,64721,1,0,0:0:0:0:
224,128,64808,1,0,0:0:0:0:
448,64,64980,1,8,0:0:0:0:
448,64,65152,1,8,0:0:0:0:
224,128,65325,1,0,0:0:0:0:
224,128,65411,1,0,0:0:0:0:
448,64,65497,1,8,0:0:0:0:
224,128,65670,1,0,0:0:0:0:
224,128,65756,1,0,0:0:0:0:
448,64,65842,1,8,0:0:0:0:
448,64,66015,1,8,0:0:0:0:
64,320,66187,1,4,0:0:0:0:
448,64,66877,1,8,0:0:0:0:
224,128,67049,1,0,0:0:0:0:
224,128,67394,1,0,0:0:0:0:
448,64,67566,1,8,0:0:0:0:
224,128,67739,1,0,0:0:0:0:
224,128,68083,1,0,0:0:0:0:
448,64,68256,1,8,0:0:0:0:
224,128,68428,1,0,0:0:0:0:
448,320,68946,1,12,0:0:0:0:
448,64,69290,1,8,0:0:0:0:
448,64,69463,1,8,0:0:0:0:
224,128,69549,1,0,0:0:0:0:
448,64,69635,1,8,0:0:0:0:
224,128,69808,1,0,0:0:0:0:
448,64,69980,1,8,0:0:0:0:
224,128,70066,1,0,0:0:0:0:
448,64,70152,1,8,0:0:0:0:
448,64,70239,1,8,0:0:0:0:
224,128,70325,1,0,0:0:0:0:
448,64,70497,1,8,0:0:0:0:
448,64,70670,1,8,0:0:0:0:
224,128,70842,1,0,0:0:0:0:
224,128,70928,1,0,0:0:0:0:
448,64,71015,1,8,0:0:0:0:
224,128,71187,1,0,0:0:0:0:
448,64,71359,1,8,0:0:0:0:
224,128,71446,1,0,0:0:0:0:
448,64,71532,1,8,0:0:0:0:
448,64,71618,1,8,0:0:0:0:
64,320,71704,1,4,0:0:0:0:
448,64,72049,1,8,0:0:0:0:
448,64,72221,1,8,0:0:0:0:
224,128,72308,1,0,0:0:0:0:
448,64,72394,1,8,0:0:0:0:
224,128,72566,1,0,0:0:0:0:
448,64,72739,1,8,0:0:0:0:
448,64,72911,1,8,0:0:0:0:
224,128,72997,1,0,0:0:0:0:
448,64,73083,1,8,0:0:0:0:
448,64,73256,1,8,0:0:0:0:
448,64,73428,1,8,0:0:0:0:
448,64,73601,1,8,0:0:0:0:
224,128,73687,1,0,0:0:0:0:
448,64,73773,1,8,0:0:0:0:
224,128,73859,1,0,0:0:0:0:
448,64,73946,1,8,0:0:0:0:
448,64,74118,1,8,0:0:0:0:
448,64,74290,1,8,0:0:0:0:
448,64,74377,1,8,0:0:0:0:
64,320,74463,1,4,0:0:0:0:
448,64,74808,1,8,0:0:0:0:
448,64,74980,1,8,0:0:0:0:
448,64,75066,1,8,0:0:0:0:
224,128,75152,1,0,0:0:0:0:
448,64,75325,1,8,0:0:0:0:
224,128,75411,1,0,0:0:0:0:
448,64,75497,1,8,0:0:0:0:
224,128,75670,1,0,0:0:0:0:
448,64,75842,1,8,0:0:0:0:
448,64,75928,1,8,0:0:0:0:
448,64,76015,1,8,0:0:0:0:
224,128,76187,1,0,0:0:0:0:
224,128,76359,1,0,0:0:0:0:
224,128,76446,1,0,0:0:0:0:
448,64,76532,1,8,0:0:0:0:
448,64,76618,1,8,0:0:0:0:
224,128,76704,1,0,0:0:0:0:
448,64,76877,1,8,0:0:0:0:
224,128,77049,1,0,0:0:0:0:
448,320,77221,1,12,0:0:0:0:
224,128,77566,1,0,0:0:0:0:
448,64,77739,1,8,0:0:0:0:
224,128,77825,1,0,0:0:0:0:
448,64,77911,1,8,0:0:0:0:
448,64,78083,1,8,0:0:0:0:
224,128,78256,1,0,0:0:0:0:
448,64,78428,1,8,0:0:0:0:
448,64,78515,1,8,0:0:0:0:
224,128,78601,1,0,0:0:0:0:
224,128,78687,1,0,0:0:0:0:
448,64,78773,1,8,0:0:0:0:
224,128,78946,1,0,0:0:0:0:
448,64,79118,1,8,0:0:0:0:
448,64,79204,1,8,0:0:0:0:
224,128,79290,1,0,0:0:0:0:
448,64,79463,1,8,0:0:0:0:
448,64,79635,1,8,0:0:0:0:
224,128,79808,1,0,0:0:0:0:
224,128,79894,1,0,0:0:0:0:
448,64,79980,1,8,0:0:0:0:
224,128,80325,1,0,0:0:0:0:
448,64,80497,1,8,0:0:0:0:
224,128,80583,1,0,0:0:0:0:
448,64,80670,1,8,0:0:0:0:
448,64,80842,1,8,0:0:0:0:
224,128,81015,1,0,0:0:0:0:
448,64,81187,1,8,0:0:0:0:
448,64,81273,1,8,0:0:0:0:
224,128,81359,1,0,0:0:0:0:
224,128,81446,1,0,0:0:0:0:
448,64,81532,1,8,0:0:0:0:
224,128,81704,1,0,0:0:0:0:
448,64,81877,1,8,0:0:0:0:
448,64,81963,1,8,0:0:0:0:
224,128,82049,1,0,0:0:0:0:
448,64,82221,1,8,0:0:0:0:
448,64,82394,1,8,0:0:0:0:
224,128,82566,1,0,0:0:0:0:
224,128,82652,1,0,0:0:0:0:
448,320,82739,1,12,0:0:0:0:
224,128,83083,1,0,0:0:0:0:
448,64,83256,1,8,0:0:0:0:
224,128,83342,1,0,0:0:0:0:
448,64,83428,1,8,0:0:0:0:
448,64,83601,1,8,0:0:0:0:
224,128,83773,1,0,0:0:0:0:
448,64,83946,1,8,0:0:0:0:
448,64,84032,1,8,0:0:0:0:
224,128,84118,1,0,0:0:0:0:
224,128,84204,1,0,0:0:0:0:
448,64,84290,1,8,0:0:0:0:
224,128,84463,1,0,0:0:0:0:
448,64,84635,1,8,0:0:0:0:
448,64,84721,1,8,0:0:0:0:
224,128,84808,1,0,0:0:0:0:
448,64,84980,1,8,0:0:0:0:
448,64,85152,1,8,0:0:0:0:
224,128,85325,1,0,0:0:0:0:
224,128,85411,1,0,0:0:0:0:
448,320,85497,1,12,0:0:0:0:
448,64,85842,1,8,0:0:0:0:
448,64,86015,1,8,0:0:0:0:
224,128,86101,1,0,0:0:0:0:
448,64,86187,1,8,0:0:0:0:
448,64,86359,1,8,0:0:0:0:
224,128,86532,1,0,0:0:0:0:
448,64,86704,1,8,0:0:0:0:
448,64,86790,1,8,0:0:0:0:
224,128,86877,1,0,0:0:0:0:
224,128,86963,1,0,0:0:0:0:
448,64,87049,1,8,0:0:0:0:
224,128,87221,1,0,0:0:0:0:
448,64,87394,1,8,0:0:0:0:
448,64,87480,1,8,0:0:0:0:
224,128,87567,1,0,0:0:0:0:
448,64,87739,1,8,0:0:0:0:
448,64,87911,1,8,0:0:0:0:
224,128,88083,1,0,0:0:0:0:
448,320,88256,1,12,0:0:0:0:
224,128,88601,1,0,0:0:0:0:
448,64,88773,1,8,0:0:0:0:
448,64,88859,1,8,0:0:0:0:
224,128,88946,1,0,0:0:0:0:
224,128,89118,1,0,0:0:0:0:
448,64,89290,1,8,0:0:0:0:
224,128,89377,1,0,0:0:0:0:
224,128,89463,1,0,0:0:0:0:
224,128,89549,1,0,0:0:0:0:
448,64,89635,1,8,0:0:0:0:
224,128,89808,1,0,0:0:0:0:
224,128,89894,1,0,0:0:0:0:
448,64,89980,1,8,0:0:0:0:
448,64,90152,1,8,0:0:0:0:
224,128,90325,1,0,0:0:0:0:
448,64,90411,1,8,0:0:0:0:
224,128,90497,1,0,0:0:0:0:
224,128,90583,1,0,0:0:0:0:
448,64,90670,1,8,0:0:0:0:
64,64,90842,1,0,0:0:0:0:
448,320,91015,1,12,0:0:0:0:
224,128,91359,1,0,0:0:0:0:
448,64,91532,1,8,0:0:0:0:
224,128,91618,1,0,0:0:0:0:
448,64,91704,1,8,0:0:0:0:
448,64,91877,1,8,0:0:0:0:
224,128,92049,1,0,0:0:0:0:
448,64,92221,1,8,0:0:0:0:
448,64,92308,1,8,0:0:0:0:
224,128,92394,1,0,0:0:0:0:
224,128,92480,1,0,0:0:0:0:
448,64,92566,1,8,0:0:0:0:
224,128,92739,1,0,0:0:0:0:
448,64,92911,1,8,0:0:0:0:
448,64,92997,1,8,0:0:0:0:
224,128,93083,1,0,0:0:0:0:
448,64,93256,1,8,0:0:0:0:
448,64,93428,1,8,0:0:0:0:
224,128,93601,1,0,0:0:0:0:
224,128,93687,1,0,0:0:0:0:
448,320,93773,1,12,0:0:0:0:
224,128,94118,1,0,0:0:0:0:
448,64,94290,1,8,0:0:0:0:
448,64,94377,1,8,0:0:0:0:
224,128,94463,1,0,0:0:0:0:
224,128,94635,1,0,0:0:0:0:
448,64,94808,1,8,0:0:0:0:
224,128,94894,1,0,0:0:0:0:
224,128,94980,1,0,0:0:0:0:
224,128,95066,1,0,0:0:0:0:
448,64,95152,1,8,0:0:0:0:
224,128,95325,1,0,0:0:0:0:
224,128,95411,1,0,0:0:0:0:
448,64,95497,1,8,0:0:0:0:
448,64,95670,1,8,0:0:0:0:
224,128,95842,1,0,0:0:0:0:
224,128,96015,1,0,0:0:0:0:
224,128,96101,1,0,0:0:0:0:
448,64,96187,1,8,0:0:0:0:
448,64,96359,1,8,0:0:0:0:
64,320,96532,1,4,0:0:0:0:
224,128,97049,1,0,0:0:0:0:
224,128,97221,1,0,0:0:0:0:
448,64,97394,1,8,0:0:0:0:
448,64,97739,1,8,0:0:0:0:
448,64,98083,1,8,0:0:0:0:
448,64,98428,1,8,0:0:0:0:
224,128,98773,1,0,0:0:0:0:
448,320,99290,1,12,0:0:0:0:
224,128,99463,1,0,0:0:0:0:
448,64,99635,1,8,0:0:0:0:
448,64,99980,1,8,0:0:0:0:
224,128,100152,1,0,0:0:0:0:
448,64,100325,1,8,0:0:0:0:
224,128,100411,1,0,0:0:0:0:
224,128,100497,1,0,0:0:0:0:
448,64,100583,1,8,0:0:0:0:
224,128,100670,1,0,0:0:0:0:
448,64,101015,1,8,0:0:0:0:
448,64,101359,1,8,0:0:0:0:
224,128,101532,1,0,0:0:0:0:
224,128,101618,1,0,0:0:0:0:
448,64,101704,1,8,0:0:0:0:
224,128,101877,1,0,0:0:0:0:
448,64,102049,1,8,0:0:0:0:
224,128,102221,1,0,0:0:0:0:
448,64,102394,1,8,0:0:0:0:
448,64,102739,1,8,0:0:0:0:
224,128,102911,1,0,0:0:0:0:
448,64,103083,1,8,0:0:0:0:
224,128,103170,1,0,0:0:0:0:
448,64,103256,1,8,0:0:0:0:
224,128,103342,1,0,0:0:0:0:
224,128,103428,1,0,0:0:0:0:
448,64,103773,1,8,0:0:0:0:
224,128,104118,1,0,0:0:0:0:
224,128,104290,1,0,0:0:0:0:
224,128,104377,1,0,0:0:0:0:
448,64,104463,1,8,0:0:0:0:
224,128,104635,1,0,0:0:0:0:
448,64,104808,1,8,0:0:0:0:
224,128,104980,1,0,0:0:0:0:
448,64,105152,1,8,0:0:0:0:
448,64,105497,1,8,0:0:0:0:
224,128,105670,1,0,0:0:0:0:
448,64,105842,1,8,0:0:0:0:
224,128,105928,1,0,0:0:0:0:
224,128,106015,1,0,0:0:0:0:
448,64,106101,1,8,0:0:0:0:
224,128,106187,1,0,0:0:0:0:
448,64,106532,1,8,0:0:0:0:
448,64,106877,1,8,0:0:0:0:
224,128,107049,1,0,0:0:0:0:
224,128,107135,1,0,0:0:0:0:
448,64,107221,1,8,0:0:0:0:
224,128,107394,1,0,0:0:0:0:
448,64,107566,1,8,0:0:0:0:
448,64,107739,1,8,0:0:0:0:
448,64,107911,1,8,0:0:0:0:
224,128,108256,1,0,0:0:0:0:
224,128,108428,1,0,0:0:0:0:
224,128,108515,1,0,0:0:0:0:
448,64,108601,1,8,0:0:0:0:
224,128,108773,1,0,0:0:0:0:
224,128,108946,1,0,0:0:0:0:
448,64,109118,1,8,0:0:0:0:
224,128,109463,1,0,0:0:0:0:
448,64,109635,1,8,0:0:0:0:
224,128,109808,1,0,0:0:0:0:
224,128,109894,1,0,0:0:0:0:
448,64,109980,1,8,0:0:0:0:
224,128,110152,1,0,0:0:0:0:
448,320,110325,1,12,0:0:0:0:
224,128,110497,1,0,0:0:0:0:
448,64,110670,1,8,0:0:0:0:
448,64,111015,1,8,0:0:0:0:
224,128,111187,1,0,0:0:0:0:
448,64,111359,1,8,0:0:0:0:
224,128,111446,1,0,0:0:0:0:
224,128,111532,1,0,0:0:0:0:
224,128,111618,1,0,0:0:0:0:
448,64,111704,1,8,0:0:0:0:
448,64,112049,1,8,0:0:0:0:
448,64,112394,1,8,0:0:0:0:
224,128,112566,1,0,0:0:0:0:
224,128,112652,1,0,0:0:0:0:
448,64,112739,1,8,0:0:0:0:
224,128,112911,1,0,0:0:0:0:
448,64,113083,1,8,0:0:0:0:
224,128,113256,1,0,0:0:0:0:
448,64,113428,1,8,0:0:0:0:
448,64,113773,1,8,0:0:0:0:
224,128,113946,1,0,0:0:0:0:
448,64,114118,1,8,0:0:0:0:
224,128,114204,1,0,0:0:0:0:
224,128,114290,1,0,0:0:0:0:
224,128,114377,1,0,0:0:0:0:
448,64,114463,1,8,0:0:0:0:
448,64,114808,1,8,0:0:0:0:
224,128,114980,1,0,0:0:0:0:
448,64,115152,1,8,0:0:0:0:
224,128,115325,1,0,0:0:0:0:
224,128,115411,1,0,0:0:0:0:
448,64,115497,1,8,0:0:0:0:
224,128,115670,1,0,0:0:0:0:
448,64,115842,1,8,0:0:0:0:
224,128,116015,1,0,0:0:0:0:
448,64,116187,1,8,0:0:0:0:
448,64,116532,1,8,0:0:0:0:
224,128,116704,1,0,0:0:0:0:
448,64,116877,1,8,0:0:0:0:
448,64,116963,1,8,0:0:0:0:
224,128,117049,1,0,0:0:0:0:
224,128,117135,1,0,0:0:0:0:
448,64,117221,1,8,0:0:0:0:
448,64,117566,1,8,0:0:0:0:
448,64,117911,1,8,0:0:0:0:
224,128,118083,1,0,0:0:0:0:
224,128,118170,1,0,0:0:0:0:
448,64,118256,1,8,0:0:0:0:
64,64,118428,1,0,0:0:0:0:
448,64,118601,1,8,0:0:0:0:
448,64,118773,1,8,0:0:0:0:
224,128,118946,1,0,0:0:0:0:
224,128,119290,1,0,0:0:0:0:
448,64,119463,1,8,0:0:0:0:
448,64,119549,1,8,0:0:0:0:
64,64,119635,1,0,0:0:0:0:
448,320,119808,1,12,0:0:0:0:
256,192,119980,12,0,121015,0:0:0:0:
448,320,121359,5,12,0:0:0:0:
224,128,121532,1,0,0:0:0:0:
224,128,121704,1,0,0:0:0:0:
448,64,121877,1,8,0:0:0:0:
224,128,122222,1,0,0:0:0:0:
448,64,122394,1,8,0:0:0:0:
448,64,122566,1,8,0:0:0:0:
224,128,122911,1,0,0:0:0:0:
448,64,123084,1,8,0:0:0:0:
448,64,123773,1,8,0:0:0:0:
448,64,124118,1,8,0:0:0:0:
448,64,124291,1,8,0:0:0:0:
224,128,124463,1,0,0:0:0:0:
224,128,124635,1,0,0:0:0:0:
448,64,124980,1,8,0:0:0:0:
224,128,125153,1,0,0:0:0:0:
448,64,125325,1,8,0:0:0:0:
224,128,125670,1,0,0:0:0:0:
224,128,125842,1,0,0:0:0:0:
448,64,126532,1,8,0:0:0:0:
448,64,126877,1,8,0:0:0:0:
224,128,127049,1,0,0:0:0:0:
224,128,127222,1,0,0:0:0:0:
448,64,127394,1,8,0:0:0:0:
224,128,127739,1,0,0:0:0:0:
448,64,127911,1,8,0:0:0:0:
448,64,128084,1,8,0:0:0:0:
224,128,128428,1,0,0:0:0:0:
448,64,128601,1,8,0:0:0:0:
448,64,129291,1,8,0:0:0:0:
448,64,129635,1,8,0:0:0:0:
448,64,129808,1,8,0:0:0:0:
224,128,129980,1,0,0:0:0:0:
64,64,130152,1,0,0:0:0:0:
448,64,130497,1,8,0:0:0:0:
224,128,130670,1,0,0:0:0:0:
448,64,130842,1,8,0:0:0:0:
224,128,131187,1,0,0:0:0:0:
224,128,131359,1,0,0:0:0:0:
448,64,132049,1,8,0:0:0:0:
448,64,132394,1,8,0:0:0:0:
224,128,132566,1,0,0:0:0:0:
224,128,132739,1,0,0:0:0:0:
448,64,132911,1,8,0:0:0:0:
224,128,133256,1,0,0:0:0:0:
224,128,133428,1,0,0:0:0:0:
448,64,133601,1,8,0:0:0:0:
224,128,133946,1,0,0:0:0:0:
448,64,134118,1,8,0:0:0:0:
448,64,134463,1,8,0:0:0:0:
224,128,134808,1,0,0:0:0:0:
448,64,135153,1,8,0:0:0:0:
224,128,135325,1,0,0:0:0:0:
448,64,135497,1,8,0:0:0:0:
224,128,135670,1,0,0:0:0:0:
448,64,136015,1,8,0:0:0:0:
448,64,136187,1,8,0:0:0:0:
224,128,136359,1,0,0:0:0:0:
224,128,136704,1,0,0:0:0:0:
448,64,136877,1,8,0:0:0:0:
224,128,137222,1,0,0:0:0:0:
448,64,137566,1,8,0:0:0:0:
448,64,137911,1,8,0:0:0:0:
224,128,138084,1,0,0:0:0:0:
448,64,138256,1,8,0:0:0:0:
224,128,138428,1,0,0:0:0:0:
448,64,138601,1,8,0:0:0:0:
224,128,138773,1,0,0:0:0:0:
448,64,138946,1,8,0:0:0:0:
448,64,139118,1,8,0:0:0:0:
224,128,139291,1,0,0:0:0:0:
448,64,139463,1,8,0:0:0:0:
448,64,139635,1,8,0:0:0:0:
224,128,139808,1,0,0:0:0:0:
448,64,139980,1,8,0:0:0:0:
224,128,140153,1,0,0:0:0:0:
448,64,140325,1,8,0:0:0:0:
224,128,140497,1,0,0:0:0:0:
448,64,140670,1,8,0:0:0:0:
224,128,140756,1,0,0:0:0:0:
448,64,140842,1,8,0:0:0:0:
224,128,141015,1,0,0:0:0:0:
448,64,141187,1,8,0:0:0:0:
448,64,141273,1,8,0:0:0:0:
224,128,141359,1,0,0:0:0:0:
224,128,141446,1,0,0:0:0:0:
448,64,141532,1,8,0:0:0:0:
448,64,141704,1,8,0:0:0:0:
224,128,141877,1,0,0:0:0:0:
224,128,141963,1,0,0:0:0:0:
448,64,142049,1,8,0:0:0:0:
224,128,142394,1,0,0:0:0:0:
224,128,142739,1,0,0:0:0:0:
224,128,142911,1,0,0:0:0:0:
448,64,143084,1,8,0:0:0:0:
448,320,143428,1,12,0:0:0:0:
448,64,143773,1,8,0:0:0:0:
224,128,143946,1,0,0:0:0:0:
224,128,144032,1,0,0:0:0:0:
224,128,144118,1,0,0:0:0:0:
448,64,144291,1,8,0:0:0:0:
448,64,144463,1,8,0:0:0:0:
224,128,144635,1,0,0:0:0:0:
224,128,144722,1,0,0:0:0:0:
448,64,144808,1,8,0:0:0:0:
224,128,144980,1,0,0:0:0:0:
448,64,145153,1,8,0:0:0:0:
224,128,145325,1,0,0:0:0:0:
224,128,145411,1,0,0:0:0:0:
448,64,145497,1,8,0:0:0:0:
448,64,145584,1,8,0:0:0:0:
224,128,145670,1,0,0:0:0:0:
448,64,145842,1,8,0:0:0:0:
448,64,146015,1,8,0:0:0:0:
448,64,146101,1,8,0:0:0:0:
64,320,146187,1,4,0:0:0:0:
448,64,146532,1,8,0:0:0:0:
448,64,146704,1,8,0:0:0:0:
64,64,146791,1,0,0:0:0:0:
448,64,146877,1,8,0:0:0:0:
224,128,147049,1,0,0:0:0:0:
448,64,147222,1,8,0:0:0:0:
448,64,147394,1,8,0:0:0:0:
224,128,147480,1,0,0:0:0:0:
448,64,147566,1,8,0:0:0:0:
224,128,147739,1,0,0:0:0:0:
448,64,147911,1,8,0:0:0:0:
448,64,148084,1,8,0:0:0:0:
224,128,148170,1,0,0:0:0:0:
224,128,148256,1,0,0:0:0:0:
224,128,148342,1,0,0:0:0:0:
224,128,148428,1,0,0:0:0:0:
448,64,148601,1,8,0:0:0:0:
224,128,148773,1,0,0:0:0:0:
224,128,148859,1,0,0:0:0:0:
448,320,148946,1,12,0:0:0:0:
448,64,149291,1,8,0:0:0:0:
224,128,149463,1,0,0:0:0:0:
224,128,149549,1,0,0:0:0:0:
224,128,149635,1,0,0:0:0:0:
448,64,149808,1,8,0:0:0:0:
448,64,149980,1,8,0:0:0:0:
224,128,150153,1,0,0:0:0:0:
224,128,150239,1,0,0:0:0:0:
448,64,150325,1,8,0:0:0:0:
224,128,150497,1,0,0:0:0:0:
448,64,150670,1,8,0:0:0:0:
224,128,150842,1,0,0:0:0:0:
224,128,150928,1,0,0:0:0:0:
448,64,151015,1,8,0:0:0:0:
448,64,151101,1,8,0:0:0:0:
224,128,151187,1,0,0:0:0:0:
448,64,151359,1,8,0:0:0:0:
448,64,151532,1,8,0:0:0:0:
448,64,151618,1,8,0:0:0:0:
64,320,151704,1,4,0:0:0:0:
448,64,152049,1,8,0:0:0:0:
448,64,152222,1,8,0:0:0:0:
448,64,152308,1,8,0:0:0:0:
224,128,152394,1,0,0:0:0:0:
448,64,152566,1,8,0:0:0:0:
64,64,152652,1,0,0:0:0:0:
448,64,152739,1,8,0:0:0:0:
224,128,152911,1,0,0:0:0:0:
224,128,152997,1,0,0:0:0:0:
224,128,153084,1,0,0:0:0:0:
448,64,153256,1,8,0:0:0:0:
448,64,153428,1,8,0:0:0:0:
224,128,153601,1,0,0:0:0:0:
224,128,153687,1,0,0:0:0:0:
448,64,153773,1,8,0:0:0:0:
224,128,153946,1,0,0:0:0:0:
224,128,154032,1,0,0:0:0:0:
448,64,154118,1,8,0:0:0:0:
448,64,154291,1,8,0:0:0:0:
64,320,154463,1,4,0:0:0:0:
448,64,155153,1,8,0:0:0:0:
224,128,155325,1,0,0:0:0:0:
224,128,155670,1,0,0:0:0:0:
448,64,155842,1,8,0:0:0:0:
224,128,156015,1,0,0:0:0:0:
224,128,156359,1,0,0:0:0:0:
448,64,156532,1,8,0:0:0:0:
224,128,156704,1,0,0:0:0:0:
448,320,157222,1,12,0:0:0:0:
448,64,157566,1,8,0:0:0:0:
448,64,157739,1,8,0:0:0:0:
224,128,157825,1,0,0:0:0:0:
448,64,157911,1,8,0:0:0:0:
224,128,158084,1,0,0:0:0:0:
448,64,158256,1,8,0:0:0:0:
224,128,158342,1,0,0:0:0:0:
448,64,158428,1,8,0:0:0:0:
448,64,158515,1,8,0:0:0:0:
224,128,158601,1,0,0:0:0:0:
448,64,158773,1,8,0:0:0:0:
448,64,158946,1,8,0:0:0:0:
448,64,159032,1,8,0:0:0:0:
224,128,159118,1,0,0:0:0:0:
224,128,159204,1,0,0:0:0:0:
448,64,159291,1,8,0:0:0:0:
224,128,159463,1,0,0:0:0:0:
448,64,159635,1,8,0:0:0:0:
224,128,159722,1,0,0:0:0:0:
448,64,159808,1,8,0:0:0:0:
448,64,159894,1,8,0:0:0:0:
64,320,159980,1,4,0:0:0:0:
448,64,160325,1,8,0:0:0:0:
448,64,160497,1,8,0:0:0:0:
224,128,160584,1,0,0:0:0:0:
448,64,160670,1,8,0:0:0:0:
224,128,160842,1,0,0:0:0:0:
64,64,160928,1,0,0:0:0:0:
448,64,161015,1,8,0:0:0:0:
448,64,161187,1,8,0:0:0:0:
224,128,161273,1,0,0:0:0:0:
448,64,161359,1,8,0:0:0:0:
448,64,161532,1,8,0:0:0:0:
448,64,161704,1,8,0:0:0:0:
448,64,161877,1,8,0:0:0:0:
224,128,161963,1,0,0:0:0:0:
448,64,162049,1,8,0:0:0:0:
224,128,162135,1,0,0:0:0:0:
448,64,162222,1,8,0:0:0:0:
448,64,162394,1,8,0:0:0:0:
448,64,162566,1,8,0:0:0:0:
448,64,162653,1,8,0:0:0:0:
64,320,162739,1,4,0:0:0:0:
448,64,163084,1,8,0:0:0:0:
448,64,163256,1,8,0:0:0:0:
448,64,163342,1,8,0:0:0:0:
224,128,163428,1,0,0:0:0:0:
448,64,163601,1,8,0:0:0:0:
224,128,163687,1,0,0:0:0:0:
448,64,163773,1,8,0:0:0:0:
224,128,163946,1,0,0:0:0:0:
448,64,164118,1,8,0:0:0:0:
448,64,164204,1,8,0:0:0:0:
448,64,164291,1,8,0:0:0:0:
224,128,164463,1,0,0:0:0:0:
224,128,164635,1,0,0:0:0:0:
224,128,164722,1,0,0:0:0:0:
448,64,164808,1,8,0:0:0:0:
448,64,164894,1,8,0:0:0:0:
224,128,164980,1,0,0:0:0:0:
448,64,165153,1,8,0:0:0:0:
224,128,165325,1,0,0:0:0:0:
448,320,165497,1,12,0:0:0:0:
224,128,165842,1,0,0:0:0:0:
448,64,166015,1,8,0:0:0:0:
224,128,166101,1,0,0:0:0:0:
448,64,166187,1,8,0:0:0:0:
448,64,166359,1,8,0:0:0:0:
224,128,166532,1,0,0:0:0:0:
448,64,166704,1,8,0:0:0:0:
448,64,166791,1,8,0:0:0:0:
224,128,166877,1,0,0:0:0:0:
224,128,166963,1,0,0:0:0:0:
448,64,167049,1,8,0:0:0:0:
224,128,167222,1,0,0:0:0:0:
448,64,167394,1,8,0:0:0:0:
448,64,167480,1,8,0:0:0:0:
224,128,167566,1,0,0:0:0:0:
448,64,167739,1,8,0:0:0:0:
448,64,167911,1,8,0:0:0:0:
224,128,168084,1,0,0:0:0:0:
224,128,168170,1,0,0:0:0:0:
448,320,168256,1,12,0:0:0:0:
224,128,168601,1,0,0:0:0:0:
448,64,168773,1,8,0:0:0:0:
224,128,168859,1,0,0:0:0:0:
448,64,168946,1,8,0:0:0:0:
448,64,169118,1,8,0:0:0:0:
224,128,169291,1,0,0:0:0:0:
448,64,169463,1,8,0:0:0:0:
448,64,169549,1,8,0:0:0:0:
224,128,169635,1,0,0:0:0:0:
224,128,169722,1,0,0:0:0:0:
448,64,169808,1,8,0:0:0:0:
224,128,169980,1,0,0:0:0:0:
448,64,170153,1,8,0:0:0:0:
448,64,170239,1,8,0:0:0:0:
224,128,170325,1,0,0:0:0:0:
448,64,170497,1,8,0:0:0:0:
448,64,170670,1,8,0:0:0:0:
224,128,170842,1,0,0:0:0:0:
224,128,170928,1,0,0:0:0:0:
448,320,171015,1,12,0:0:0:0:
224,128,171359,1,0,0:0:0:0:
448,64,171532,1,8,0:0:0:0:
224,128,171618,1,0,0:0:0:0:
448,64,171704,1,8,0:0:0:0:
448,64,171877,1,8,0:0:0:0:
224,128,172049,1,0,0:0:0:0:
448,64,172222,1,8,0:0:0:0:
448,64,172308,1,8,0:0:0:0:
224,128,172394,1,0,0:0:0:0:
224,128,172480,1,0,0:0:0:0:
448,64,172566,1,8,0:0:0:0:
224,128,172739,1,0,0:0:0:0:
448,64,172911,1,8,0:0:0:0:
448,64,172997,1,8,0:0:0:0:
224,128,173084,1,0,0:0:0:0:
448,64,173256,1,8,0:0:0:0:
448,64,173428,1,8,0:0:0:0:
224,128,173601,1,0,0:0:0:0:
224,128,173687,1,0,0:0:0:0:
448,320,173773,1,12,0:0:0:0:
224,128,174118,1,0,0:0:0:0:
448,64,174291,1,8,0:0:0:0:
224,128,174377,1,0,0:0:0:0:
448,64,174463,1,8,0:0:0:0:
448,64,174635,1,8,0:0:0:0:
224,128,174808,1,0,0:0:0:0:
448,64,174980,1,8,0:0:0:0:
448,64,175066,1,8,0:0:0:0:
224,128,175153,1,0,0:0:0:0:
224,128,175239,1,0,0:0:0:0:
448,64,175325,1,8,0:0:0:0:
224,128,175497,1,0,0:0:0:0:
448,64,175670,1,8,0:0:0:0:
448,64,175756,1,8,0:0:0:0:
224,128,175843,1,0,0:0:0:0:
448,64,176015,1,8,0:0:0:0:
448,64,176187,1,8,0:0:0:0:
224,128,176359,1,0,0:0:0:0:
448,320,176532,1,12,0:0:0:0:
224,128,176877,1,0,0:0:0:0:
448,64,177049,1,8,0:0:0:0:
448,64,177135,1,8,0:0:0:0:
224,128,177222,1,0,0:0:0:0:
448,64,177394,1,8,0:0:0:0:
448,64,177566,1,8,0:0:0:0:
224,128,177653,1,0,0:0:0:0:
224,128,177739,1,0,0:0:0:0:
224,128,177825,1,0,0:0:0:0:
448,64,177911,1,8,0:0:0:0:
224,128,178084,1,0,0:0:0:0:
224,128,178170,1,0,0:0:0:0:
448,64,178256,1,8,0:0:0:0:
448,64,178428,1,8,0:0:0:0:
224,128,178601,1,0,0:0:0:0:
448,64,178687,1,8,0:0:0:0:
224,128,178773,1,0,0:0:0:0:
224,128,178859,1,0,0:0:0:0:
448,64,178946,1,8,0:0:0:0:
64,64,179118,1,0,0:0:0:0:
448,320,179291,1,12,0:0:0:0:
224,128,179635,1,0,0:0:0:0:
448,64,179808,1,8,0:0:0:0:
224,128,179894,1,0,0:0:0:0:
448,64,179980,1,8,0:0:0:0:
448,64,180153,1,8,0:0:0:0:
224,128,180325,1,0,0:0:0:0:
448,64,180497,1,8,0:0:0:0:
448,64,180584,1,8,0:0:0:0:
224,128,180670,1,0,0:0:0:0:
224,128,180756,1,0,0:0:0:0:
448,64,180842,1,8,0:0:0:0:
224,128,181015,1,0,0:0:0:0:
448,64,181187,1,8,0:0:0:0:
448,64,181273,1,8,0:0:0:0:
224,128,181359,1,0,0:0:0:0:
448,64,181532,1,8,0:0:0:0:
448,64,181704,1,8,0:0:0:0:
224,128,181877,1,0,0:0:0:0:
224,128,181963,1,0,0:0:0:0:
448,320,182049,1,12,0:0:0:0:
224,128,182394,1,0,0:0:0:0:
448,64,182566,1,8,0:0:0:0:
448,64,182653,1,8,0:0:0:0:
224,128,182739,1,0,0:0:0:0:
224,128,182911,1,0,0:0:0:0:
448,64,183084,1,8,0:0:0:0:
224,128,183170,1,0,0:0:0:0:
224,128,183256,1,0,0:0:0:0:
224,128,183342,1,0,0:0:0:0:
448,64,183428,1,8,0:0:0:0:
224,128,183601,1,0,0:0:0:0:
224,128,183687,1,0,0:0:0:0:
448,64,183773,1,8,0:0:0:0:
448,64,183946,1,8,0:0:0:0:
224,128,184118,1,0,0:0:0:0:
224,128,184291,1,0,0:0:0:0:
224,128,184377,1,0,0:0:0:0:
448,64,184463,1,8,0:0:0:0:
64,64,184635,1,0,0:0:0:0:
448,320,184808,1,12,0:0:0:0:
448,64,185152,1,8,0:0:0:0:
224,128,185325,1,0,0:0:0:0:
224,128,185411,1,0,0:0:0:0:
448,64,185497,1,8,0:0:0:0:
224,128,185670,1,0,0:0:0:0:
448,64,185842,1,8,0:0:0:0:
224,128,186015,1,0,0:0:0:0:
64,64,186187,1,8,0:0:0:0:
224,128,186359,1,0,0:0:0:0:
448,64,186532,1,8,0:0:0:0:
224,128,186704,1,0,0:0:0:0:
448,64,186877,1,8,0:0:0:0:
224,128,187049,1,0,0:0:0:0:
448,64,187221,1,8,0:0:0:0:
224,128,187394,1,0,0:0:0:0:
64,64,187566,1,8,0:0:0:0:
220,133,187739,1,0,0:0:0:0:
448,64,187911,1,8,0:0:0:0:
220,133,188083,1,0,0:0:0:0:
448,64,188256,1,8,0:0:0:0:
220,133,188428,1,0,0:0:0:0:
448,64,188601,1,8,0:0:0:0:
224,128,188773,1,0,0:0:0:0:
448,64,188946,1,8,0:0:0:0:
224,128,189118,1,0,0:0:0:0:
448,64,189290,1,8,0:0:0:0:
224,128,189463,1,0,0:0:0:0:
448,64,189635,1,8,0:0:0:0:
224,128,189808,1,0,0:0:0:0:
448,64,189980,1,8,0:0:0:0:
224,128,190152,1,0,0:0:0:0:
448,64,190325,1,8,0:0:0:0:
224,128,190497,1,0,0:0:0:0:
448,64,190670,1,8,0:0:0:0:
224,128,190842,1,0,0:0:0:0:
448,64,191015,1,8,0:0:0:0:
224,128,191187,1,0,0:0:0:0:
448,64,191359,1,8,0:0:0:0:
448,64,191446,1,8,0:0:0:0:
224,128,191532,1,0,0:0:0:0:
224,128,191618,1,0,0:0:0:0:
448,320,191704,1,12,0:0:0:0:
