osu file format v14

[General]
AudioFilename: audio.mp3
AudioLeadIn: 0
PreviewTime: 65609
Countdown: 0
SampleSet: Soft
StackLeniency: 0.4
Mode: 0
LetterboxInBreaks: 0
WidescreenStoryboard: 1

[Editor]
Bookmarks: 44352,55324,60809,63552,66295,77267,88238,110181,132124
DistanceSpacing: 1
BeatDivisor: 4
GridSize: 4
TimelineZoom: 1.1

[Metadata]
Title:Flash
TitleUnicode:Flash
Artist:Fox Stevenson
ArtistUnicode:Fox Stevenson
Creator:_orange
Version:Kujinn's Normal
Source:
Tags:dnb drum and bass liquicity stan sb kujinn stingy
BeatmapID:1424014
BeatmapSetID:649081

[Difficulty]
HPDrainRate:4
CircleSize:3.5
OverallDifficulty:4
ApproachRate:5
SliderMultiplier:1.1
SliderTickRate:1

[Events]
//Background and Video events
0,0,"bg.jpg",0,0
//Break Periods
//Storyboard Layer 0 (Background)
//Storyboard Layer 1 (Fail)
//Storyboard Layer 2 (Pass)
//Storyboard Layer 3 (Foreground)
//Storyboard Sound Samples

[TimingPoints]
467,342.857142857143,4,2,1,100,1,0
43667,-100,4,2,1,50,0,0
55324,-100,4,2,2,70,0,0
60809,-100,4,2,1,80,0,0
63552,-100,4,2,1,90,0,0
64924,-100,4,2,1,80,0,0
66295,-100,4,2,1,90,0,0
87895,-100,4,1,1,90,0,0
88238,-100,4,2,2,90,0,0
107438,-100,4,2,1,70,0,0
108809,-100,4,2,1,80,0,0
109495,-100,4,2,1,90,0,0
110181,-100,4,2,1,100,0,1
132124,-100,4,2,1,50,0,0

[Colours]
Combo1 : 248,230,12
Combo2 : 48,248,248
Combo3 : 26,114,247
Combo4 : 248,179,35

[HitObjects]
372,306,43667,6,0,P|316:289|245:318,1,110
185,374,44352,6,0,B|132:289|200:214|200:214|120:155|149:63,1,330,2|2,0:0|0:0,0:0:0:0:
251,108,45724,2,0,L|377:99,1,110,0|0,0:0|0:0,0:0:0:0:
466,292,46752,1,0,0:0:0:0:
368,352,47095,6,0,B|296:353|296:353|234:303|234:303|208:373|118:395|68:346,1,330,2|2,0:0|0:0,0:0:0:0:
134,272,48467,2,0,P|118:204|147:141,1,110
340,106,49495,1,0,0:0:0:0:
406,182,49838,6,0,B|447:133|429:64|429:64|507:173|430:281,1,330,2|2,0:0|0:0,0:0:0:0:
368,333,51209,1,0,0:0:0:0:
257,334,51552,2,0,P|193:346|131:323,1,110
107,299,52067,2,0,P|122:250|99:182,1,110
77,148,52581,6,0,B|148:105|212:155|212:155|257:126|257:126|327:174|403:129,1,330,2|2,0:0|0:0,0:0:0:0:
446,59,53952,2,0,P|385:60|317:46,1,110,0|0,0:0|0:0,0:0:0:0:
230,23,54638,2,0,P|169:22|101:36,1,110,0|0,0:0|0:0,0:0:0:0:
51,115,55324,6,0,L|67:249,1,110,4|8,3:2|3:0,0:0:0:0:
68,279,55838,1,0,0:0:0:0:
74,333,56009,2,0,P|137:319|198:344,1,110,0|8,3:0|3:0,0:0:0:0:
283,368,56695,2,0,P|346:382|407:357,1,110,0|8,3:0|3:0,0:0:0:0:
457,283,57381,1,0,3:0:0:0:
401,188,57724,1,8,3:0:0:0:
455,92,58067,6,0,P|402:77|331:106,1,110,0|8,3:0|3:0,0:0:0:0:
260,154,58752,2,0,L|139:157,1,110,0|8,3:0|3:0,0:0:0:0:
50,109,59438,2,0,P|31:53|53:-13,2,110,0|8|0,3:0|3:0|3:0,0:0:0:0:
150,156,60467,1,8,3:0:0:0:
77,238,60809,6,0,L|81:324,2,55,0|0|8,3:0|3:0|0:0,0:0:0:0:
150,156,61495,2,0,L|152:101,2,55,0|0|8,3:0|3:0|0:0,0:0:0:0:
218,242,62181,2,0,L|222:328,2,55,0|0|8,3:0|3:0|0:0,0:0:0:0:
291,160,62867,2,0,L|293:105,2,55,0|0|8,3:0|3:0|0:0,0:0:0:0:
256,192,63552,12,0,65609,0:0:0:0:
448,328,66295,6,0,P|391:313|325:346,1,110,4|8,3:2|0:0,0:0:0:0:
293,351,66809,2,0,P|236:366|170:333,1,110,0|0,0:0|3:0,0:0:0:0:
139,324,67324,1,8,0:0:0:0:
82,229,67667,2,0,L|77:88,1,110,0|8,3:0|0:0,0:0:0:0:
154,40,68352,2,0,P|197:44|232:32,1,55,0|0,0:0|3:0,0:0:0:0:
261,28,68695,1,8,0:0:0:0:
342,101,69038,6,0,P|331:158|353:225,1,110,0|8,3:0|0:0,0:0:0:0:
372,254,69552,2,0,P|318:241|265:252,1,110,0|0,0:0|3:0,0:0:0:0:
213,272,70067,1,8,0:0:0:0:
128,342,70409,2,0,L|32:334,2,55,0|0|8,0:0|3:0|0:0,0:0:0:0:
67,249,71095,2,0,L|4:244,2,55,0|0|8,0:0|3:0|0:0,0:0:0:0:
151,178,71781,6,0,P|163:110|124:45,1,110,0|8,3:0|0:0,0:0:0:0:
122,24,72295,2,0,P|185:41|244:22,1,110,0|0,0:0|3:0,0:0:0:0:
279,12,72809,1,8,0:0:0:0:
369,74,73152,2,0,L|368:196,1,110,0|8,3:0|0:0,0:0:0:0:
278,253,73838,2,0,L|277:334,1,55,0|0,0:0|3:0,0:0:0:0:
276,363,74181,1,8,0:0:0:0:
184,301,74524,6,0,P|125:315|67:281,1,110,0|8,3:0|0:0,0:0:0:0:
38,261,75038,2,0,P|57:202|37:132,1,110,0|0,0:0|3:0,0:0:0:0:
32,103,75552,1,8,0:0:0:0:
127,49,75895,2,0,L|206:40,2,55,0|0|8,0:0|3:0|0:0,0:0:0:0:
192,137,76581,2,0,L|246:131,1,55,0|0,0:0|3:0,0:0:0:0:
301,123,76924,1,8,0:0:0:0:
288,232,77267,6,0,P|341:224|388:251,1,110,0|8,3:0|0:0,0:0:0:0:
431,285,77781,2,0,P|377:277|330:304,1,110,0|0,0:0|3:0,0:0:0:0:
287,339,78295,1,8,0:0:0:0:
181,368,78638,2,0,P|118:369|64:321,1,110,0|8,3:0|0:0,0:0:0:0:
151,260,79324,2,0,L|145:164,1,55,0|0,0:0|3:0,0:0:0:0:
142,150,79667,1,8,0:0:0:0:
221,73,80009,6,0,P|292:88|347:59,1,110,0|8,3:0|0:0,0:0:0:0:
363,35,80524,2,0,L|355:194,1,110,0|0,0:0|3:0,0:0:0:0:
355,200,81038,1,8,0:0:0:0:
284,284,81381,2,0,L|285:346,2,55,0|0|8,0:0|3:0|0:0,0:0:0:0:
196,216,82067,2,0,L|195:161,2,55,0|0|8,0:0|3:0|0:0,0:0:0:0:
142,312,82752,6,0,P|86:321|26:282,1,110,0|8,3:0|0:0,0:0:0:0:
6,253,83267,2,0,L|16:117,1,110,0|0,0:0|3:0,0:0:0:0:
16,88,83781,1,8,0:0:0:0:
113,37,84124,2,0,P|166:25|218:41,1,110,0|8,3:0|0:0,0:0:0:0:
303,110,84809,2,0,L|381:106,1,55,0|0,0:0|3:0,0:0:0:0:
412,103,85152,1,8,0:0:0:0:
390,210,85495,6,0,P|408:271|373:339,1,110,0|8,3:0|0:0,0:0:0:0:
358,355,86009,2,0,L|248:339,1,110,0|0,3:0|3:0,0:0:0:0:
194,330,86524,2,0,B|100:363|51:264|51:264|122:195|69:96,1,330,8|0,0:0|0:0,0:0:0:0:
160,46,87895,1,0,0:0:0:0:
260,90,88238,6,0,P|318:111|386:82,1,110,4|8,3:2|0:0,0:0:0:0:
416,83,88752,2,0,P|404:136|425:186,1,110,0|0,0:0|3:0,0:0:0:0:
461,228,89267,1,8,0:0:0:0:
351,246,89609,2,0,P|291:228|220:257,1,110,0|8,3:0|0:0,0:0:0:0:
195,260,90124,1,0,0:0:0:0:
143,278,90295,2,0,P|83:296|12:267,1,110,0|8,0:0|0:0,0:0:0:0:
78,182,90981,6,0,P|64:126|103:46,1,110,0|8,3:0|0:0,0:0:0:0:
121,43,91495,2,0,P|180:62|243:32,1,110,0|0,0:0|3:0,0:0:0:0:
275,27,92009,1,8,0:0:0:0:
363,114,92352,2,0,L|353:258,1,110,0|8,3:0|0:0,0:0:0:0:
348,278,92867,1,0,0:0:0:0:
294,289,93038,2,0,L|220:279,1,55,0|0,0:0|3:0,0:0:0:0:
192,309,93381,1,8,0:0:0:0:
82,293,93724,6,0,P|69:229|102:175,1,110,0|8,3:0|0:0,0:0:0:0:
109,140,94238,2,0,P|169:157|239:130,1,110,0|0,0:0|3:0,0:0:0:0:
266,129,94752,1,8,0:0:0:0:
376,130,95095,2,0,L|367:239,1,110,0|8,3:0|0:0,0:0:0:0:
357,293,95609,1,0,0:0:0:0:
347,347,95781,2,0,L|431:343,2,55,0|0|8,0:0|3:0|0:0,0:0:0:0:
252,290,96467,6,0,P|191:302|126:263,1,110,0|8,3:0|0:0,0:0:0:0:
97,263,96981,2,0,P|114:205|90:134,1,110,0|0,0:0|3:0,0:0:0:0:
82,106,97495,1,8,0:0:0:0:
156,24,97838,2,0,P|216:10|284:55,1,110,0|8,3:0|0:0,0:0:0:0:
297,66,98352,1,0,0:0:0:0:
340,100,98524,2,0,L|418:99,1,55,0|0,0:0|3:0,0:0:0:0:
436,136,98867,1,8,0:0:0:0:
495,228,99209,6,0,P|505:289|464:360,1,110,0|8,3:0|0:0,0:0:0:0:
433,334,99724,2,0,P|373:320|314:351,1,110,0|0,0:0|3:0,0:0:0:0:
276,351,100238,1,8,0:0:0:0:
182,292,100581,2,0,P|135:305|73:286,1,110,0|8,3:0|0:0,0:0:0:0:
23,300,101095,1,0,0:0:0:0:
9,246,101267,2,0,L|7:189,2,55,0|0|8,0:0|3:0|0:0,0:0:0:0:
80,166,101952,6,0,P|140:186|206:157,1,110,0|8,3:0|0:0,0:0:0:0:
214,128,102467,2,0,P|267:116|317:136,1,110,0|0,0:0|3:0,0:0:0:0:
365,163,102981,1,8,0:0:0:0:
470,132,103324,2,0,L|460:269,1,110,0|8,3:0|0:0,0:0:0:0:
454,296,103838,1,0,0:0:0:0:
400,284,104009,2,0,L|334:275,1,55,0|0,0:0|3:0,0:0:0:0:
292,260,104352,1,8,0:0:0:0:
185,285,104695,6,0,P|126:269|68:297,1,110,0|8,3:0|0:0,0:0:0:0:
32,310,105209,2,0,P|44:251|17:189,1,110,0|0,0:0|3:0,0:0:0:0:
11,152,105724,1,8,0:0:0:0:
110,104,106067,2,0,L|238:113,1,110,0|8,3:0|0:0,0:0:0:0:
268,137,106581,1,0,0:0:0:0:
317,112,106752,2,0,L|456:108,1,110,0|8,0:0|0:0,0:0:0:0:
374,206,107438,6,0,P|393:284|357:359,2,165,0|0|0,3:0|0:0|0:0,0:0:0:0:
285,271,108809,2,0,P|236:255|168:274,1,110,0|0,3:0|3:0,0:0:0:0:
85,211,109495,2,0,P|69:152|82:100,1,110,0|8,3:0|0:0,0:0:0:0:
113,61,110009,1,0,3:0:0:0:
163,38,110181,6,0,L|302:45,1,110,4|8,3:2|0:0,0:0:0:0:
303,73,110695,2,0,P|373:62|434:104,1,110,0|0,0:0|3:0,0:0:0:0:
453,107,111209,1,8,0:0:0:0:
392,198,111552,2,0,L|242:189,1,110,0|8,3:0|0:0,0:0:0:0:
192,255,112238,2,0,L|195:340,2,55,0|0|8,0:0|3:0|0:0,0:0:0:0:
86,221,112924,6,0,P|94:160|68:92,1,110,0|8,3:0|0:0,0:0:0:0:
53,66,113438,2,0,P|123:80|174:57,1,110,0|0,0:0|3:0,0:0:0:0:
202,35,113952,1,8,0:0:0:0:
286,105,114295,2,0,L|295:239,1,110,0|8,3:0|0:0,0:0:0:0:
327,319,114981,2,0,L|397:318,1,55,0|0,0:0|3:0,0:0:0:0:
437,315,115324,1,8,0:0:0:0:
438,204,115667,6,0,P|421:145|447:74,1,110,0|8,3:0|0:0,0:0:0:0:
414,57,116181,2,0,P|353:41|283:72,1,110,0|0,0:0|3:0,0:0:0:0:
260,79,116695,1,8,0:0:0:0:
159,34,117038,2,0,L|25:24,1,110,0|8,3:0|0:0,0:0:0:0:
20,132,117724,2,0,L|92:127,2,55,0|0|8,0:0|3:0|0:0,0:0:0:0:
64,232,118409,6,0,P|129:220|192:248,1,110,0|8,3:0|0:0,0:0:0:0:
218,260,118924,2,0,P|285:277|352:252,1,110,0|0,0:0|3:0,0:0:0:0:
372,241,119438,1,8,0:0:0:0:
457,171,119781,2,0,P|445:108|473:48,1,110,0|8,3:0|0:0,0:0:0:0:
356,25,120467,2,0,L|285:24,1,55,0|0,0:0|3:0,0:0:0:0:
246,25,120809,1,8,0:0:0:0:
151,79,121152,6,0,P|137:137|161:190,1,110,0|8,3:0|0:0,0:0:0:0:
181,230,121667,2,0,L|174:351,1,110,0|0,0:0|3:0,0:0:0:0:
173,384,122181,1,8,0:0:0:0:
275,344,122524,2,0,P|340:357|405:323,1,110,0|8,3:0|0:0,0:0:0:0:
467,276,123209,2,0,L|473:196,2,55,0|0|8,0:0|3:0|0:0,0:0:0:0:
380,343,123895,6,0,L|370:201,1,110,0|8,3:0|0:0,0:0:0:0:
367,178,124409,2,0,P|308:191|252:168,1,110,0|0,0:0|3:0,0:0:0:0:
210,155,124924,1,8,0:0:0:0:
115,211,125267,2,0,L|108:348,1,110,0|8,3:0|0:0,0:0:0:0:
15,263,125952,2,0,L|10:178,1,55,0|0,0:0|3:0,0:0:0:0:
7,153,126295,1,8,0:0:0:0:
104,101,126638,6,0,P|168:118|232:86,1,110,0|8,3:0|0:0,0:0:0:0:
254,75,127152,2,0,P|318:58|382:90,1,110,0|0,0:0|3:0,0:0:0:0:
405,99,127667,1,8,0:0:0:0:
310,155,128009,2,0,L|297:300,1,110,0|8,3:0|0:0,0:0:0:0:
287,318,128524,1,0,0:0:0:0:
247,356,128695,2,0,L|173:349,2,55,0|0|8,0:0|3:0|0:0,0:0:0:0:
300,264,129381,6,0,P|363:290|452:238,1,165,0|0,3:0|0:0,0:0:0:0:
370,102,130409,2,0,B|281:144|201:71|201:71|110:82|58:162|111:258|111:258|193:235|175:144,1,550,0|4,0:0|0:2,0:0:0:0:
