osu file format v14

[General]
AudioFilename: audio.mp3
AudioLeadIn: 0
PreviewTime: 65609
Countdown: 0
SampleSet: Soft
StackLeniency: 0.4
Mode: 0
LetterboxInBreaks: 0
WidescreenStoryboard: 0

[Editor]
Bookmarks: 44352,55324,60809,63552,66295,77267,88238,110181,132124
DistanceSpacing: 1.2
BeatDivisor: 4
GridSize: 4
TimelineZoom: 2.2

[Metadata]
Title:Flash
TitleUnicode:Flash
Artist:Fox Stevenson
ArtistUnicode:Fox Stevenson
Creator:_orange
Version:Spark
Source:
Tags:dnb drum and bass liquicity stan sb kujinn stingy
BeatmapID:1375187
BeatmapSetID:649081

[Difficulty]
HPDrainRate:7
CircleSize:4.2
OverallDifficulty:8
ApproachRate:9
SliderMultiplier:1.7
SliderTickRate:1

[Events]
//Background and Video events
0,0,"bg.jpg",0,0
//Break Periods
//Storyboard Layer 0 (Background)
//Storyboard Layer 1 (Fail)
//Storyboard Layer 2 (Pass)
//Storyboard Layer 3 (Foreground)
//Storyboard Sound Samples

[TimingPoints]
467,342.857142857143,4,2,1,100,1,0
43495,-153.846153846153,4,2,1,5,0,0
43667,-153.846153846153,4,2,1,50,0,0
43924,-153.846153846153,4,2,1,5,0,0
44009,-153.846153846153,4,2,1,50,0,0
44267,-153.846153846153,4,2,1,5,0,0
44352,-133.333333333333,4,2,1,50,0,0
51467,-133.333333333333,4,2,1,5,0,0
51552,-133.333333333333,4,2,1,50,0,0
54895,-133.333333333333,4,2,1,5,0,0
54981,-133.333333333333,4,2,1,50,0,0
55238,-133.333333333333,4,2,1,5,0,0
55324,-133.333333333333,4,2,2,70,0,0
60809,-117.647058823529,4,2,1,80,0,0
63552,-117.647058823529,4,2,1,90,0,0
64924,-117.647058823529,4,2,1,80,0,0
65952,-153.846153846153,4,2,1,80,0,0
66209,-153.846153846153,4,2,1,5,0,0
66295,-100,4,2,1,90,0,0
87895,-133.333333333333,4,1,1,90,0,0
88152,-133.333333333333,4,1,1,5,0,0
88238,-100,4,2,2,90,0,0
107438,-133.333333333333,4,2,1,70,0,0
108809,-117.647058823529,4,2,1,80,0,0
109495,-105.263157894737,4,2,1,90,0,0
110181,-100,4,2,1,100,0,1
129724,-100,4,2,1,5,0,1
129895,-100,4,2,1,100,0,1
130238,-100,4,2,1,5,0,1
130409,-100,4,2,1,100,0,1
132124,-100,4,2,1,50,0,0

[Colours]
Combo1 : 248,230,12
Combo2 : 48,248,248
Combo3 : 26,114,247
Combo4 : 248,179,35

[HitObjects]
87,131,43667,6,0,L|169:131,1,82.8749962062838
132,168,44009,2,0,L|49:168,1,82.8749962062838
95,203,44352,6,0,B|133:254|133:254|107:312,1,127.500004863739,2|0,0:0|0:0,0:0:0:0:
276,168,44867,2,0,B|213:179|213:179|171:132,1,127.500004863739,2|0,0:0|0:0,0:0:0:0:
216,329,45381,2,0,B|242:281|242:281|314:268|314:268|369:304|448:290|496:203|441:109|367:113,1,446.250017023087,2|0,0:0|0:0,0:0:0:0:
264,110,46752,2,0,P|266:141|278:171,1,63.7500024318696
261,22,47095,6,0,L|134:37,1,127.500004863739,2|0,0:0|0:0,0:0:0:0:
279,172,47609,2,0,L|202:70,1,127.500004863739,2|0,0:0|0:0,0:0:0:0:
166,257,48124,2,0,B|216:139|216:139|149:171|149:171|129:159|107:160|107:160|50:189|28:285|78:332,1,446.250017023087,2|0,0:0|0:0,0:0:0:0:
197,384,49495,2,0,L|157:334,1,63.7500024318696
284,330,49838,6,0,P|291:267|335:223,1,127.500004863739,2|0,0:0|0:0,0:0:0:0:
256,166,50352,2,0,P|304:126|367:127,1,127.500004863739,2|0,0:0|0:0,0:0:0:0:
343,35,50867,2,0,B|419:30|450:88|450:88|454:77|454:77|475:103|471:163,1,223.125008511544,2|0,0:0|0:0,0:0:0:0:
468,170,51552,1,0,0:0:0:0:
484,280,51724,1,0,0:0:0:0:
366,126,51895,1,0,0:0:0:0:
388,248,52067,1,0,0:0:0:0:
229,188,52238,2,0,P|260:190|291:198,1,63.7500024318696
186,64,52581,6,0,L|58:48,1,127.500004863739,2|0,0:0|0:0,0:0:0:0:
16,180,53095,2,0,L|143:164,1,127.500004863739,2|0,0:0|0:0,0:0:0:0:
191,306,53609,2,0,B|70:292|70:292|265:270,1,318.750012159348,2|0,0:0|0:0,0:0:0:0:
432,176,54638,6,0,L|432:271,1,95.6250036478044
401,236,54981,2,0,L|401:141,1,95.6250036478044
464,108,55324,5,4,3:2:0:0:
464,108,55495,1,0,3:0:0:0:
336,50,55667,2,0,P|367:43|399:42,1,63.7500024318696,8|0,3:0|0:0,0:0:0:0:
206,96,56009,2,0,P|223:69|245:45,1,63.7500024318696,0|0,3:0|0:0,0:0:0:0:
137,209,56352,2,0,P|130:177|129:145,1,63.7500024318696,8|0,3:0|0:0,0:0:0:0:
344,234,56695,6,0,P|350:202|351:170,1,63.7500024318696,0|0,3:0|0:0,0:0:0:0:
212,330,57038,2,0,P|238:312|262:290,1,63.7500024318696,8|0,3:0|0:0,0:0:0:0:
55,304,57381,2,0,P|86:310|118:311,1,63.7500024318696,0|0,3:0|0:0,0:0:0:0:
0,166,57724,2,0,P|17:192|39:216,1,63.7500024318696,8|0,3:0|0:0,0:0:0:0:
46,43,58067,6,0,L|109:35,1,63.7500024318696,0|0,3:0|0:0,0:0:0:0:
226,117,58409,2,0,L|162:109,1,63.7500024318696,8|0,3:0|0:0,0:0:0:0:
286,40,58752,2,0,L|349:32,1,63.7500024318696,0|0,3:0|0:0,0:0:0:0:
486,108,59095,2,0,L|422:100,1,63.7500024318696,8|0,3:0|0:0,0:0:0:0:
426,271,59438,6,0,L|418:207,1,63.7500024318696,0|0,3:0|0:0,0:0:0:0:
226,117,59781,2,0,L|218:180,1,63.7500024318696,8|0,3:0|0:0,0:0:0:0:
329,326,60124,2,0,L|321:262,1,63.7500024318696,0|0,3:0|0:0,0:0:0:0:
117,146,60467,2,0,L|109:209,1,63.7500024318696,8|0,3:0|0:0,0:0:0:0:
71,44,60809,5,0,3:0:0:0:
224,61,60981,1,0,3:0:0:0:
0,36,61152,2,0,L|71:44,1,72.2500013780594,8|0,0:0|3:0,0:0:0:0:
117,146,61495,5,0,3:0:0:0:
270,163,61667,1,0,3:0:0:0:
46,138,61838,2,0,L|117:146,1,72.2500013780594,8|0,0:0|3:0,0:0:0:0:
164,257,62181,5,0,3:0:0:0:
317,274,62352,1,0,3:0:0:0:
93,249,62524,2,0,L|164:257,1,72.2500013780594,8|0,0:0|3:0,0:0:0:0:
223,352,62867,5,0,3:0:0:0:
376,369,63038,1,0,3:0:0:0:
152,344,63209,2,0,L|223:352,1,72.2500013780594,8|0,0:0|3:0,0:0:0:0:
382,252,63552,5,8,3:0:0:0:
391,224,63638,1,0,3:0:0:0:
392,196,63724,1,0,3:0:0:0:
384,168,63809,1,0,3:0:0:0:
369,144,63895,1,8,3:0:0:0:
346,126,63981,1,0,3:0:0:0:
319,116,64067,1,0,3:0:0:0:
283,121,64152,1,0,3:0:0:0:
249,132,64238,5,8,3:0:0:0:
218,150,64324,1,0,3:0:0:0:
184,162,64409,1,0,3:0:0:0:
148,162,64495,1,0,3:0:0:0:
116,145,64581,1,8,3:0:0:0:
98,115,64667,1,0,3:0:0:0:
91,80,64752,1,0,3:0:0:0:
99,45,64838,1,0,3:0:0:0:
124,19,64924,6,0,L|159:23,1,36.1250006890297,0|0,3:0|3:0,3:0:0:0:
218,150,65095,2,0,L|213:114,1,36.1250006890297,0|0,3:0|3:0,3:0:0:0:
272,8,65267,2,0,L|277:44,1,36.1250006890297,0|0,3:0|3:0,3:0:0:0:
366,139,65438,2,0,L|331:135,1,36.1250006890297,0|0,3:0|3:0,3:0:0:0:
468,81,65609,5,0,0:0:0:0:
441,304,65781,1,0,3:0:0:0:
366,139,65952,6,0,L|355:221,1,82.8749962062838,8|0,0:0|0:0,0:0:0:0:
340,309,66295,6,0,P|326:249|269:227,1,127.5,4|0,3:2|0:0,0:0:0:0:
252,232,66638,1,8,0:0:0:0:
141,354,66809,2,0,P|185:351|225:343,1,85
71,285,67152,1,0,3:0:0:0:
153,131,67324,2,0,L|142:215,1,85,8|0,0:0|0:0,0:0:0:0:
89,53,67667,6,0,L|215:37,1,127.5,0|0,3:0|0:0,0:0:0:0:
243,119,68009,2,0,P|231:78|232:35,1,85,8|0,0:0|0:0,0:0:0:0:
326,189,68352,1,0,0:0:0:0:
142,215,68524,1,0,3:0:0:0:
340,97,68695,2,0,P|380:85|423:86,1,85,8|0,0:0|0:0,0:0:0:0:
341,315,69038,6,0,L|325:188,1,127.5,0|0,3:0|0:0,0:0:0:0:
323,172,69381,1,8,0:0:0:0:
447,257,69552,2,0,B|404:260|404:260|364:249,1,85
233,94,69895,1,0,3:0:0:0:
210,279,70067,2,0,L|230:110,1,170,8|0,0:0|0:0,0:0:0:0:
49,213,70581,5,0,3:0:0:0:
233,94,70752,2,0,B|173:101|173:101|126:76|126:76|69:81,1,170,8|0,0:0|0:0,0:0:0:0:
308,28,71267,1,0,3:0:0:0:
436,221,71438,2,0,P|489:233|475:181,1,127.5,8|0,0:0|0:0,0:0:0:0:
425,100,71781,6,0,P|411:48|463:59,1,127.5,0|0,3:0|0:0,0:0:0:0:
473,75,72124,1,8,0:0:0:0:
330,120,72295,2,0,B|331:162|331:162|341:203,1,85
373,361,72638,1,0,3:0:0:0:
201,278,72809,2,0,L|285:288,1,85,8|0,0:0|0:0,0:0:0:0:
107,200,73152,6,0,B|86:259|86:259|99:322,1,127.5,0|0,3:0|0:0,0:0:0:0:
188,347,73495,2,0,L|103:336,1,85,8|0,0:0|0:0,0:0:0:0:
31,154,73838,1,0,0:0:0:0:
230,190,74009,1,0,3:0:0:0:
103,336,74181,2,0,L|92:251,1,85,8|0,0:0|0:0,0:0:0:0:
158,29,74524,6,0,L|142:155,1,127.5,0|0,3:0|0:0,0:0:0:0:
139,171,74867,1,8,0:0:0:0:
324,36,75038,2,0,B|282:25|282:25|240:25,1,85
348,220,75381,1,0,3:0:0:0:
324,36,75552,2,0,L|344:204,1,170,8|0,0:0|0:0,0:0:0:0:
266,330,76067,5,0,3:0:0:0:
447,170,76238,2,0,P|437:95|366:117,1,170,8|0,0:0|0:0,0:0:0:0:
438,290,76752,1,0,3:0:0:0:
249,241,76924,2,0,B|203:231|175:255|175:255|151:239|128:240,1,127.5,8|0,0:0|0:0,0:0:0:0:
32,260,77267,6,0,P|44:320|102:337,1,127.5,0|0,3:0|0:0,0:0:0:0:
116,332,77609,1,8,0:0:0:0:
176,163,77781,2,0,P|179:121|166:81,1,85
115,243,78124,1,0,3:0:0:0:
19,85,78295,2,0,P|46:117|83:136,1,85,8|0,0:0|0:0,0:0:0:0:
235,21,78638,6,0,P|278:59|240:102,1,127.5,0|0,3:0|0:0,0:0:0:0:
306,59,78981,2,0,P|346:46|388:48,1,85,8|0,0:0|0:0,0:0:0:0:
466,224,79324,1,0,0:0:0:0:
359,130,79495,1,0,3:0:0:0:
476,238,79667,2,0,L|465:322,1,85,8|0,0:0|0:0,0:0:0:0:
313,209,80009,6,0,L|328:335,1,127.5,0|0,3:0|0:0,0:0:0:0:
330,350,80352,1,8,0:0:0:0:
229,219,80524,2,0,B|269:208|269:208|312:208,1,85
140,294,80867,1,0,3:0:0:0:
22,139,81038,2,0,L|1:307,1,170,8|0,0:0|0:0,0:0:0:0:
145,152,81552,5,0,3:0:0:0:
360,72,81724,2,0,B|300:64|300:64|255:82|255:82|195:74,1,170,8|0,0:0|0:0,0:0:0:0:
317,159,82238,1,0,3:0:0:0:
432,4,82409,2,0,P|458:62|442:123,1,127.5,8|0,0:0|0:0,0:0:0:0:
398,193,82752,6,0,L|412:319,1,127.5,0|0,3:0|0:0,0:0:0:0:
415,333,83095,1,8,0:0:0:0:
261,224,83267,2,0,L|250:308,1,85
176,145,83609,1,0,3:0:0:0:
259,320,83781,2,0,L|270:236,1,85,8|0,0:0|0:0,0:0:0:0:
163,132,84124,6,0,L|147:258,1,127.5,0|0,3:0|0:0,0:0:0:0:
146,270,84467,1,8,0:0:0:0:
64,70,84638,1,0,0:0:0:0:
275,101,84809,1,0,0:0:0:0:
145,280,84981,1,0,3:0:0:0:
67,144,85152,2,0,P|53:105|56:63,1,85,8|0,0:0|0:0,0:0:0:0:
126,14,85495,6,0,P|185:34|246:20,1,127.5,0|0,3:0|0:0,0:0:0:0:
260,13,85838,1,8,0:0:0:0:
301,223,86009,2,0,L|316:96,1,127.5,0|0,3:0|0:0,0:0:0:0:
318,79,86352,1,0,3:0:0:0:
512,54,86524,1,8,0:0:0:0:
227,157,87209,5,8,3:3:0:0:
390,135,87381,1,8,3:3:0:0:
489,260,87552,5,8,3:3:0:0:
326,238,87724,1,8,3:3:0:0:
244,351,87895,6,0,L|338:339,1,95.6250036478044
356,337,88238,5,4,3:2:0:0:
406,204,88409,1,0,0:0:0:0:
255,238,88581,1,8,0:0:0:0:
423,201,88752,1,0,0:0:0:0:
431,172,88838,1,0,0:0:0:0:
430,142,88924,1,0,0:0:0:0:
422,114,89009,1,0,0:0:0:0:
406,89,89095,1,0,3:0:0:0:
278,93,89267,2,0,P|236:93|195:83,1,85,8|0,0:0|0:0,0:0:0:0:
111,89,89524,1,0,0:0:0:0:
111,89,89609,6,0,L|100:173,1,85,0|0,3:0|0:0,0:0:0:0:
84,274,89952,1,8,0:0:0:0:
229,369,90124,1,0,0:0:0:0:
225,339,90209,1,0,0:0:0:0:
221,309,90295,1,0,0:0:0:0:
218,280,90381,1,0,0:0:0:0:
214,250,90467,1,0,3:0:0:0:
354,314,90638,2,0,L|364:229,1,85,8|0,0:0|0:0,0:0:0:0:
438,177,90895,1,0,0:0:0:0:
438,177,90981,5,0,3:0:0:0:
342,142,91152,1,0,0:0:0:0:
245,107,91324,1,8,0:0:0:0:
346,30,91495,1,0,0:0:0:0:
357,57,91581,1,0,0:0:0:0:
360,87,91667,1,0,0:0:0:0:
355,115,91752,1,0,0:0:0:0:
342,142,91838,1,0,3:0:0:0:
231,223,92009,2,0,L|315:212,1,85,8|0,0:0|0:0,0:0:0:0:
308,296,92267,1,0,0:0:0:0:
308,296,92352,6,0,L|223:307,1,85,0|0,3:0|0:0,0:0:0:0:
183,153,92695,1,8,0:0:0:0:
343,215,92867,1,0,0:0:0:0:
367,232,92952,1,0,0:0:0:0:
384,256,93038,1,0,0:0:0:0:
393,284,93124,1,0,0:0:0:0:
391,314,93209,1,0,3:0:0:0:
223,307,93381,2,0,P|221:264|232:223,1,85,8|0,0:0|0:0,0:0:0:0:
284,150,93638,1,0,0:0:0:0:
284,150,93724,5,0,3:0:0:0:
376,108,93895,1,0,0:0:0:0:
471,71,94067,1,8,0:0:0:0:
192,135,94238,1,0,0:0:0:0:
202,107,94324,1,0,0:0:0:0:
221,84,94409,1,0,0:0:0:0:
245,68,94495,1,0,0:0:0:0:
274,60,94581,1,0,3:0:0:0:
245,219,94752,2,0,P|204:230|161:229,1,85,8|0,0:0|0:0,0:0:0:0:
88,169,95009,1,0,0:0:0:0:
88,169,95095,6,0,L|78:84,1,85,0|0,3:0|0:0,0:0:0:0:
187,25,95438,1,8,0:0:0:0:
307,94,95609,2,0,L|264:88,1,42.5
423,23,95781,2,0,L|380:28,1,42.5
504,89,95952,1,0,3:0:0:0:
424,171,96124,2,0,B|423:213|423:213|434:254,1,85,8|0,0:0|0:0,0:0:0:0:
462,341,96381,1,0,0:0:0:0:
462,341,96467,5,0,3:0:0:0:
360,332,96638,1,0,0:0:0:0:
258,323,96809,1,8,0:0:0:0:
330,130,96981,1,0,0:0:0:0:
326,159,97067,1,0,0:0:0:0:
322,189,97152,1,0,0:0:0:0:
319,218,97238,1,0,0:0:0:0:
315,248,97324,1,0,3:0:0:0:
236,154,97495,2,0,L|246:69,1,85,8|0,0:0|0:0,0:0:0:0:
341,45,97752,1,0,0:0:0:0:
341,45,97838,6,0,L|329:129,1,85,0|0,3:0|0:0,0:0:0:0:
315,248,98181,1,8,0:0:0:0:
137,192,98352,1,0,0:0:0:0:
133,221,98438,1,0,0:0:0:0:
141,249,98524,1,0,0:0:0:0:
159,272,98609,1,0,0:0:0:0:
185,286,98695,1,0,3:0:0:0:
76,379,98867,2,0,L|160:368,1,85,8|0,0:0|0:0,0:0:0:0:
185,286,99124,1,0,0:0:0:0:
185,286,99209,5,0,3:0:0:0:
286,302,99381,1,0,0:0:0:0:
386,318,99552,1,8,0:0:0:0:
363,164,99724,1,0,0:0:0:0:
333,167,99809,1,0,0:0:0:0:
303,171,99895,1,0,0:0:0:0:
274,174,99981,1,0,0:0:0:0:
244,178,100067,1,0,3:0:0:0:
259,37,100238,2,0,L|343:47,1,85,8|0,0:0|0:0,0:0:0:0:
435,4,100495,1,0,0:0:0:0:
435,4,100581,6,0,P|444:46|435:87,1,85,0|0,3:0|0:0,0:0:0:0:
259,37,100924,1,8,0:0:0:0:
153,192,101095,1,0,0:0:0:0:
140,165,101181,1,0,0:0:0:0:
132,136,101267,1,0,0:0:0:0:
129,107,101352,1,0,0:0:0:0:
132,77,101438,1,0,3:0:0:0:
254,167,101609,2,0,P|256:209|242:249,1,85,8|0,0:0|0:0,0:0:0:0:
154,299,101867,1,0,0:0:0:0:
154,299,101952,5,0,3:0:0:0:
251,328,102124,1,0,0:0:0:0:
348,358,102295,1,8,0:0:0:0:
331,211,102467,1,0,0:0:0:0:
334,240,102552,1,0,0:0:0:0:
338,270,102638,1,0,0:0:0:0:
341,299,102724,1,0,0:0:0:0:
345,329,102809,1,0,3:0:0:0:
450,249,102981,2,0,L|459:164,1,85,8|0,0:0|0:0,0:0:0:0:
431,80,103238,1,0,0:0:0:0:
431,80,103324,6,0,B|392:94|392:94|350:90,1,85,0|0,3:0|0:0,0:0:0:0:
196,43,103667,1,8,0:0:0:0:
251,183,103838,1,0,0:0:0:0:
224,165,103924,1,0,0:0:0:0:
196,156,104009,1,0,0:0:0:0:
167,157,104095,1,0,0:0:0:0:
138,166,104181,1,0,3:0:0:0:
30,289,104352,2,0,B|22:246|22:246|33:206,1,85,8|0,0:0|0:0,0:0:0:0:
121,258,104609,1,0,0:0:0:0:
121,258,104695,5,0,3:0:0:0:
220,281,104867,1,0,0:0:0:0:
318,305,105038,1,8,0:0:0:0:
406,182,105209,1,0,0:0:0:0:
376,185,105295,1,0,0:0:0:0:
346,189,105381,1,0,0:0:0:0:
317,192,105467,1,0,0:0:0:0:
287,196,105552,1,0,3:0:0:0:
329,29,105724,2,0,P|344:69|340:111,1,85,8|0,0:0|0:0,0:0:0:0:
244,86,105981,1,0,0:0:0:0:
244,86,106067,6,0,P|203:77|161:77,1,85,0|0,3:0|0:0,0:0:0:0:
28,93,106409,1,8,0:0:0:0:
132,186,106581,2,0,P|122:167|106:152,1,42.5
39,237,106752,2,0,P|39:215|33:195,1,42.5
136,293,106924,1,0,3:0:0:0:
309,244,107095,2,0,L|224:234,1,85,8|0,0:0|0:0,0:0:0:0:
278,147,107352,1,0,0:0:0:0:
278,147,107438,6,0,P|341:147|394:181,1,127.500004863739,0|0,3:0|0:0,0:0:0:0:
432,248,107952,1,0,0:0:0:0:
452,129,108124,2,0,B|460:89|460:89|444:48|444:48|453:6,1,127.500004863739,0|0,3:0|0:0,0:0:0:0:
297,54,108809,5,0,3:0:0:0:
297,54,109152,1,0,3:0:0:0:
151,196,109495,6,0,B|168:151|168:151|148:81,1,121.124996765614,0|0,3:0|0:0,0:0:0:0:
144,64,109838,1,8,0:0:0:0:
146,208,110009,1,0,3:0:0:0:
17,127,110181,5,4,3:2:0:0:
57,287,110352,1,0,0:0:0:0:
55,270,110438,1,0,0:0:0:0:
53,253,110524,1,8,0:0:0:0:
219,337,110695,2,0,B|180:352|180:352|138:348,1,85
275,260,111038,1,0,3:0:0:0:
212,117,111209,2,0,B|196:155|196:155|200:197,1,85,8|0,0:0|0:0,0:0:0:0:
345,299,111552,6,0,P|354:257|343:216,1,85,0|0,3:0|0:0,0:0:0:0:
305,142,111809,1,0,0:0:0:0:
305,142,111895,1,8,0:0:0:0:
421,218,112067,2,0,L|417:175,1,42.5
481,45,112238,2,0,L|477:87,1,42.5
510,181,112409,1,0,3:0:0:0:
362,66,112581,2,0,P|321:53|279:55,1,85,8|0,0:0|0:0,0:0:0:0:
238,192,112924,5,0,3:0:0:0:
314,293,113095,1,0,0:0:0:0:
312,276,113181,1,0,0:0:0:0:
310,259,113267,1,8,0:0:0:0:
213,106,113438,2,0,P|243:76|279:54,1,85
238,192,113781,1,0,3:0:0:0:
82,80,113952,2,0,L|90:164,1,85,8|0,0:0|0:0,0:0:0:0:
18,306,114295,6,0,L|10:222,1,85,0|0,3:0|0:0,0:0:0:0:
1,136,114552,1,0,0:0:0:0:
1,136,114638,1,8,0:0:0:0:
103,258,114809,2,0,P|108:278|109:299,1,42.5
236,282,114981,2,0,P|231:302|220:321,1,42.5
181,200,115152,1,0,3:0:0:0:
385,293,115324,2,0,P|354:321|313:327,1,85,8|0,0:0|0:0,0:0:0:0:
326,135,115667,5,0,3:0:0:0:
383,260,115838,1,0,0:0:0:0:
384,276,115924,1,0,0:0:0:0:
385,293,116009,1,8,0:0:0:0:
475,188,116181,2,0,P|444:158|404:146,1,85
249,154,116524,1,0,3:0:0:0:
417,40,116695,2,0,P|374:40|337:60,1,85,8|0,0:0|0:0,0:0:0:0:
249,154,117038,6,0,L|164:143,1,85,0|0,3:0|0:0,0:0:0:0:
80,131,117295,1,0,0:0:0:0:
80,131,117381,1,8,0:0:0:0:
109,256,117552,2,0,L|114:213,1,42.5
20,310,117724,2,0,L|15:266,1,42.5
116,357,117895,1,0,3:0:0:0:
284,289,118067,2,0,P|241:288|200:299,1,85,8|0,0:0|0:0,0:0:0:0:
358,357,118409,5,0,3:0:0:0:
282,188,118581,1,0,0:0:0:0:
284,171,118667,1,0,0:0:0:0:
286,154,118752,1,8,0:0:0:0:
430,212,118924,2,0,L|419:127,1,85
348,23,119267,1,0,3:0:0:0:
502,117,119438,2,0,B|461:129|461:129|419:127,1,85,8|0,0:0|0:0,0:0:0:0:
246,75,119781,6,0,B|205:62|205:62|163:64,1,85,0|0,3:0|0:0,0:0:0:0:
85,98,120038,1,0,0:0:0:0:
85,98,120124,1,8,0:0:0:0:
160,189,120295,2,0,L|154:231,1,42.5
66,297,120467,2,0,L|60:254,1,42.5
170,339,120638,1,0,3:0:0:0:
261,236,120809,2,0,B|297:239|316:261|316:261|338:238|376:239,1,127.5,8|0,0:0|0:0,0:0:0:0:
461,250,121152,5,0,3:0:0:0:
329,156,121324,1,0,0:0:0:0:
345,157,121409,1,0,0:0:0:0:
362,159,121495,1,8,0:0:0:0:
399,332,121667,2,0,L|314:341,1,85
170,339,122009,1,0,3:0:0:0:
222,166,122181,2,0,P|224:123|211:83,1,85,8|0,0:0|0:0,0:0:0:0:
153,227,122524,6,0,P|187:251|228:258,1,85,0|0,3:0|0:0,0:0:0:0:
307,212,122781,1,0,0:0:0:0:
307,212,122867,1,8,0:0:0:0:
133,139,123038,2,0,P|113:134|92:134,1,42.5
211,83,123209,2,0,P|200:64|185:49,1,42.5
308,73,123381,1,0,3:0:0:0:
476,128,123552,2,0,L|391:117,1,85,8|0,0:0|0:0,0:0:0:0:
486,258,123895,5,0,3:0:0:0:
355,246,124067,1,0,0:0:0:0:
357,262,124152,1,0,0:0:0:0:
359,279,124238,1,8,0:0:0:0:
216,300,124409,2,0,L|226:215,1,85
303,366,124752,1,0,3:0:0:0:
353,233,124924,2,0,L|342:148,1,85,8|0,0:0|0:0,0:0:0:0:
143,205,125267,6,0,B|183:217|183:217|225:215,1,85,0|0,3:0|0:0,0:0:0:0:
261,139,125524,1,0,0:0:0:0:
261,139,125609,1,8,0:0:0:0:
121,27,125781,2,0,L|78:21,1,42.5
91,122,125952,2,0,L|48:127,1,42.5
143,205,126124,1,0,3:0:0:0:
87,379,126295,2,0,B|79:339|79:339|100:299,1,85,8|0,0:0|0:0,0:0:0:0:
234,343,126638,5,0,3:0:0:0:
143,205,126809,1,0,0:0:0:0:
159,207,126895,1,0,0:0:0:0:
176,209,126981,1,8,0:0:0:0:
356,243,127152,2,0,L|270:253,1,85
405,166,127495,1,0,3:0:0:0:
217,129,127667,2,0,L|131:118,1,85,8|0,0:0|0:0,0:0:0:0:
306,13,128009,6,0,P|310:54|295:94,1,85,0|0,3:0|0:0,0:0:0:0:
217,129,128267,1,0,0:0:0:0:
217,129,128352,1,8,0:0:0:0:
69,44,128524,2,0,P|69:22|74:2,1,42.5
37,146,128695,2,0,P|21:130|10:112,1,42.5
163,34,128867,1,0,3:0:0:0:
106,270,129038,2,0,P|101:228|117:189,1,85,8|0,0:0|0:0,0:0:0:0:
233,246,129381,6,0,P|313:241|346:168,1,170,0|0,3:0|0:0,0:0:0:0:
271,5,129895,2,0,B|261:69|261:69|276:116|276:116|266:171,1,170
343,63,130409,1,0,0:0:0:0:
256,192,130495,12,4,132124,0:2:0:0:
