osu file format v14

[General]
AudioFilename: audio.mp3
AudioLeadIn: 0
PreviewTime: 65609
Countdown: 0
SampleSet: Soft
StackLeniency: 0.6
Mode: 0
LetterboxInBreaks: 0
WidescreenStoryboard: 1

[Editor]
Bookmarks: 44352,55324,60809,63552,66295,77267,88238,110181,132124
DistanceSpacing: 2
BeatDivisor: 4
GridSize: 4
TimelineZoom: 2.2

[Metadata]
Title:Flash
TitleUnicode:Flash
Artist:Fox Stevenson
ArtistUnicode:Fox Stevenson
Creator:_orange
Version:Light Insane
Source:
Tags:dnb drum and bass liquicity stan sb kujinn stingy
BeatmapID:1421055
BeatmapSetID:649081

[Difficulty]
HPDrainRate:5.5
CircleSize:4
OverallDifficulty:7
ApproachRate:8.6
SliderMultiplier:1.5
SliderTickRate:1

[Events]
//Background and Video events
0,0,"bg.jpg",0,0
//Break Periods
//Storyboard Layer 0 (Background)
//Storyboard Layer 1 (Fail)
//Storyboard Layer 2 (Pass)
//Storyboard Layer 3 (Foreground)
//Storyboard Sound Samples

[TimingPoints]
467,342.857142857143,4,2,1,100,1,0
43495,-153.846153846153,4,2,1,5,0,0
43667,-153.846153846153,4,2,1,50,0,0
43924,-153.846153846153,4,2,1,5,0,0
44009,-153.846153846153,4,2,1,50,0,0
44267,-153.846153846153,4,2,1,5,0,0
44352,-133.333333333333,4,2,1,50,0,0
54895,-133.333333333333,4,2,1,5,0,0
54981,-133.333333333333,4,2,1,50,0,0
55238,-133.333333333333,4,2,1,5,0,0
55324,-133.333333333333,4,2,2,70,0,0
60809,-117.647058823529,4,2,1,80,0,0
63552,-117.647058823529,4,2,1,90,0,0
64924,-117.647058823529,4,2,1,80,0,0
66209,-117.647058823529,4,2,1,5,0,0
66295,-100,4,2,1,90,0,0
87895,-133.333333333333,4,1,1,90,0,0
88152,-133.333333333333,4,1,1,5,0,0
88238,-100,4,2,2,90,0,0
107438,-133.333333333333,4,2,1,70,0,0
108809,-117.647058823529,4,2,1,80,0,0
109495,-105.263157894737,4,2,1,90,0,0
110181,-100,4,2,1,100,0,1
132124,-100,4,2,1,50,0,0

[Colours]
Combo1 : 248,230,12
Combo2 : 48,248,248
Combo3 : 26,114,247
Combo4 : 248,179,35

[HitObjects]
115,246,43667,6,0,P|164:245|207:224,1,97.4999955368044,0|0,0:0|0:0,0:0:0:0:
309,134,44352,6,0,P|359:111|415:113,1,112.500004291535,2|0,0:0|0:0,0:0:0:0:
344,24,44867,2,0,P|293:47|237:45,1,112.500004291535,2|0,0:0|0:0,0:0:0:0:
128,24,45381,1,2,0:0:0:0:
127,24,45724,6,0,L|121:79,1,56.2500021457673,0|0,0:0|0:0,0:0:0:0:
8,86,46067,2,0,L|14:141,1,56.2500021457673,0|0,0:0|0:0,0:0:0:0:
121,177,46409,2,0,L|114:232,1,56.2500021457673,0|0,0:0|0:0,0:0:0:0:
5,262,46752,2,0,L|11:317,1,56.2500021457673,0|0,0:0|0:0,0:0:0:0:
120,347,47095,6,0,P|175:350|231:340,1,112.500004291535,2|0,0:0|0:0,0:0:0:0:
266,233,47609,2,0,P|321:229|377:239,1,112.500004291535,2|0,0:0|0:0,0:0:0:0:
478,291,48124,1,2,0:0:0:0:
478,291,48467,6,0,L|483:235,1,56.2500021457673,0|0,0:0|0:0,0:0:0:0:
496,123,48809,2,0,L|501:67,1,56.2500021457673,0|0,0:0|0:0,0:0:0:0:
401,15,49152,2,0,L|395:70,1,56.2500021457673,0|0,0:0|0:0,0:0:0:0:
382,183,49495,2,0,L|376:238,1,56.2500021457673,0|0,0:0|0:0,0:0:0:0:
315,334,49838,6,0,P|262:316|220:278,1,112.500004291535
112,316,50352,2,0,P|70:278|17:260,1,112.500004291535,2|0,0:0|0:0,0:0:0:0:
31,150,50867,1,2,0:0:0:0:
31,150,51209,6,0,P|32:122|38:95,1,56.2500021457673
143,138,51552,1,0,0:0:0:0:
238,77,51724,1,0,0:0:0:0:
135,31,51895,1,0,0:0:0:0:
143,138,52067,2,0,P|143:166|149:193,2,56.2500021457673,0|0|0,0:0|0:0|0:0,0:0:0:0:
238,77,52581,6,0,L|349:90,1,112.500004291535
461,104,53095,2,0,L|474:215,1,112.500004291535,2|0,0:0|0:0,0:0:0:0:
403,302,53609,1,2,0:0:0:0:
403,302,53952,6,0,P|384:282|371:258,1,56.2500021457673,0|0,0:0|0:0,0:0:0:0:
260,280,54295,2,0,P|260:251|268:225,1,56.2500021457673,0|0,0:0|0:0,0:0:0:0:
166,175,54638,2,0,P|151:228|112:268,1,112.500004291535
54,171,55152,1,0,0:0:0:0:
228,107,55324,6,0,L|339:96,1,112.500004291535,4|8,3:2|3:0,0:0:0:0:
437,152,55838,1,0,0:0:0:0:
448,264,56009,2,0,L|437:152,1,112.500004291535,0|8,3:0|3:0,0:0:0:0:
305,335,56695,2,0,B|321:281|321:281|316:225,1,112.500004291535,0|8,3:0|3:0,0:0:0:0:
90,214,57381,2,0,B|73:267|73:267|78:323,1,112.500004291535,0|8,3:0|3:0,0:0:0:0:
171,118,58067,6,0,L|59:104,1,112.500004291535,0|8,3:0|3:0,0:0:0:0:
123,10,58581,1,0,0:0:0:0:
234,23,58752,2,0,L|289:29,1,56.2500021457673,0|0,3:0|0:0,0:0:0:0:
266,139,59095,2,0,L|316:116,1,56.2500021457673,8|0,3:0|0:0,0:0:0:0:
369,216,59438,6,0,P|375:270|414:309,1,112.500004291535,0|8,3:0|3:0,0:0:0:0:
194,357,60124,2,0,P|143:334|90:349,1,112.500004291535,0|8,3:0|3:0,0:0:0:0:
73,100,60809,5,0,3:0:0:0:
108,195,60981,1,0,3:0:0:0:
175,119,61152,2,0,L|168:55,1,63.7500012159348,8|0,0:0|3:0,0:0:0:0:
260,198,61495,5,0,3:0:0:0:
299,90,61667,1,0,3:0:0:0:
375,175,61838,2,0,L|368:238,1,63.7500012159348,8|0,0:0|3:0,0:0:0:0:
491,304,62181,5,0,3:0:0:0:
481,177,62352,1,0,3:0:0:0:
471,49,62524,2,0,L|407:56,1,63.7500012159348,8|0,0:0|3:0,0:0:0:0:
299,90,62867,5,0,3:0:0:0:
309,217,63038,1,0,3:0:0:0:
319,345,63210,2,0,L|382:337,1,63.7500012159348,8|0,0:0|3:0,0:0:0:0:
162,353,63552,5,8,3:0:0:0:
141,360,63637,1,0,3:0:0:0:
118,360,63723,1,0,3:0:0:0:
97,354,63809,1,0,3:0:0:0:
79,342,63895,2,0,L|82:310,1,31.8750006079674,8|0,3:0|3:0,0:0:0:0:
153,255,64067,5,0,3:0:0:0:
173,262,64152,1,0,3:0:0:0:
196,262,64238,1,8,3:0:0:0:
217,256,64324,1,0,3:0:0:0:
235,244,64410,2,0,L|231:212,1,31.8750006079674,0|0,3:0|3:0,0:0:0:0:
191,142,64581,6,0,L|159:138,3,31.8750006079674,8|0|0|0,3:0|3:0|3:0|3:0,0:0:0:0:
103,75,64924,6,0,L|71:79,7,31.8750006079674,0|0|0|0|0|0|0|0,3:0|3:0|3:0|3:0|3:0|3:0|3:0|3:0,0:0:0:0:
25,145,65609,5,0,0:0:0:0:
159,138,65781,1,0,3:0:0:0:
58,324,65952,2,0,P|57:276|74:232,1,95.6250018239022,8|0,0:0|0:0,0:0:0:0:
96,211,66295,6,0,L|244:229,1,150,4|8,3:2|0:0,0:0:0:0:
384,284,66809,2,0,P|394:248|393:210,1,75,0|0,0:0|0:0,0:0:0:0:
307,87,67152,1,0,3:0:0:0:
452,126,67324,2,0,P|478:152|497:184,1,75,8|0,0:0|0:0,0:0:0:0:
384,284,67667,6,0,L|235:302,1,150,0|8,3:0|0:0,0:0:0:0:
122,319,68181,1,0,0:0:0:0:
151,186,68352,2,0,P|151:149|142:113,1,75,0|0,0:0|3:0,0:0:0:0:
32,8,68695,2,0,P|66:24|104:27,1,75,8|0,0:0|0:0,0:0:0:0:
253,26,69038,6,0,B|305:17|305:17|396:54,1,150,0|8,3:0|0:0,0:0:0:0:
288,129,69552,2,0,P|276:164|278:201,1,75,0|0,0:0|0:0,0:0:0:0:
382,177,69895,1,0,3:0:0:0:
338,319,70067,2,0,P|264:330|196:301,1,150,8|0,0:0|0:0,0:0:0:0:
278,201,70581,5,0,3:0:0:0:
116,331,70752,2,0,B|106:287|106:287|133:234|133:234|123:189,1,150,8|0,0:0|0:0,0:0:0:0:
69,89,71267,1,0,3:0:0:0:
226,127,71438,2,0,P|227:89|216:54,1,75,8|0,0:0|0:0,0:0:0:0:
277,201,71781,6,0,P|308:133|303:59,1,150,0|8,3:0|0:0,0:0:0:0:
401,157,72295,2,0,B|435:169|435:169|473:166,1,75,0|0,0:0|0:0,0:0:0:0:
506,57,72638,1,0,3:0:0:0:
401,157,72809,2,0,B|388:191|388:191|391:229,1,75,8|0,0:0|0:0,0:0:0:0:
471,348,73152,6,0,B|398:328|398:328|323:337,1,150,0|8,3:0|0:0,0:0:0:0:
213,363,73667,1,0,0:0:0:0:
102,230,73838,2,0,L|111:304,1,75,0|0,0:0|3:0,0:0:0:0:
228,179,74181,2,0,L|218:253,1,75,8|0,0:0|0:0,0:0:0:0:
146,81,74524,6,0,P|210:46|282:61,1,150,0|8,3:0|0:0,0:0:0:0:
387,160,75038,2,0,B|384:122|384:122|395:86,1,75,0|0,0:0|0:0,0:0:0:0:
512,68,75381,1,0,3:0:0:0:
460,227,75552,2,0,P|392:257|322:235,1,150,8|0,0:0|0:0,0:0:0:0:
360,352,76067,5,0,3:0:0:0:
133,319,76238,2,0,B|203:341|203:291|278:318,1,150,8|0,0:0|0:0,0:0:0:0:
163,239,76752,1,0,3:0:0:0:
260,104,76924,2,0,L|250:178,1,75,8|0,0:0|0:0,0:0:0:0:
181,51,77267,6,0,P|252:68|320:40,1,150,0|8,3:0|0:0,0:0:0:0:
424,125,77781,2,0,P|460:116|497:115,1,75
481,263,78124,1,0,3:0:0:0:
299,244,78295,2,0,P|318:212|344:185,1,75,8|0,0:0|0:0,0:0:0:0:
354,352,78638,6,0,B|258:363|258:363|209:341,1,150,0|8,3:0|0:0,0:0:0:0:
299,244,79152,1,0,0:0:0:0:
108,219,79324,2,0,L|182:228,1,75,0|0,0:0|3:0,0:0:0:0:
41,71,79667,2,0,L|31:145,1,75,8|0,0:0|0:0,0:0:0:0:
237,136,80009,6,0,P|183:90|126:130,1,150,0|8,3:0|0:0,0:0:0:0:
320,100,80524,2,0,P|304:65|278:39,1,75,0|0,0:0|0:0,0:0:0:0:
336,199,80867,1,0,3:0:0:0:
413,90,81038,2,0,P|398:161|335:199,1,150,8|0,0:0|0:0,0:0:0:0:
210,250,81552,5,0,3:0:0:0:
318,332,81724,2,0,P|264:317|223:279,1,112.5,8|0,0:0|0:0,0:0:0:0:
210,250,82067,1,0,0:0:0:0:
114,333,82238,1,0,3:0:0:0:
43,155,82409,2,0,L|154:140,1,112.5,8|0,0:0|0:0,0:0:0:0:
185,139,82752,6,0,B|236:136|236:136|275:155|275:155|330:151,1,150,0|8,3:0|0:0,0:0:0:0:
212,41,83267,2,0,B|249:38|249:38|283:52,1,75
330,151,83609,1,0,3:0:0:0:
424,16,83781,2,0,B|428:51|428:51|416:89,1,75,8|0,0:0|0:0,0:0:0:0:
469,277,84124,6,0,P|461:221|472:166,1,112.5,0|0,3:0|0:0,0:0:0:0:
486,142,84467,1,8,0:0:0:0:
352,304,84638,1,0,0:0:0:0:
331,156,84809,1,0,0:0:0:0:
469,277,84981,1,0,3:0:0:0:
211,306,85152,2,0,P|265:291|320:295,1,112.5,8|0,0:0|0:0,0:0:0:0:
352,304,85495,6,0,L|331:156,1,150,0|8,3:0|0:0,0:0:0:0:
482,32,86009,2,0,P|415:65|342:56,1,150,0|0,3:0|3:0,0:0:0:0:
180,140,86524,1,8,0:0:0:0:
330,155,87209,5,8,3:3:0:0:
299,274,87381,1,8,3:3:0:0:
180,140,87552,1,8,3:3:0:0:
202,270,87724,1,8,3:3:0:0:
330,155,87895,6,0,L|413:166,1,84.3750032186509,0|0,0:0|0:0,0:0:0:0:
444,169,88238,6,0,P|446:132|438:95,1,75,4|0,3:2|0:0,0:0:0:0:
346,27,88581,1,8,0:0:0:0:
211,62,88752,2,0,L|174:58,3,37.5,0|0|0|0,0:0|0:0|0:0|0:0,0:0:0:0:
142,53,89095,1,0,3:0:0:0:
56,207,89267,2,0,P|54:169|64:133,1,75,8|0,0:0|0:0,0:0:0:0:
162,246,89609,6,0,P|172:282|171:320,1,75,0|0,3:0|0:0,0:0:0:0:
36,348,89952,1,8,0:0:0:0:
171,320,90124,2,0,L|208:324,1,37.5,0|0,0:0|0:0,0:0:0:0:
279,299,90295,2,0,L|316:303,1,37.5,0|0,0:0|0:0,0:0:0:0:
381,341,90467,1,0,3:0:0:0:
478,227,90638,2,0,B|481:189|481:189|469:154,1,75,8|0,0:0|0:0,0:0:0:0:
366,44,90981,6,0,B|328:41|328:41|293:53,1,75,0|0,3:0|0:0,0:0:0:0:
207,157,91324,1,8,0:0:0:0:
130,45,91495,2,0,L|92:40,3,37.5,0|0|0|0,0:0|0:0|0:0|0:0,0:0:0:0:
61,34,91838,1,0,3:0:0:0:
35,200,92009,2,0,L|44:125,1,75,8|0,0:0|0:0,0:0:0:0:
132,248,92352,6,0,L|122:322,1,75,0|0,3:0|0:0,0:0:0:0:
255,351,92695,1,8,0:0:0:0:
371,281,92867,2,0,L|374:243,1,37.5,0|0,0:0|0:0,0:0:0:0:
436,199,93038,2,0,L|432:161,1,37.5,0|0,0:0|0:0,0:0:0:0:
391,97,93209,1,0,3:0:0:0:
226,154,93381,2,0,L|300:162,1,75,8|0,0:0|0:0,0:0:0:0:
191,38,93724,6,0,L|116:46,1,75,0|0,3:0|0:0,0:0:0:0:
34,154,94067,1,8,0:0:0:0:
101,270,94238,2,0,L|96:307,3,37.5,0|0|0|0,0:0|0:0|0:0|0:0,0:0:0:0:
93,339,94581,1,0,3:0:0:0:
216,228,94752,2,0,L|225:153,1,75,8|0,0:0|0:0,0:0:0:0:
335,319,95095,6,0,B|298:320|298:320|262:310,1,75,0|0,3:0|0:0,0:0:0:0:
422,257,95438,1,8,0:0:0:0:
476,143,95609,2,0,P|476:125|471:107,1,37.5,0|0,0:0|0:0,0:0:0:0:
428,44,95781,2,0,P|414:30|398:21,1,37.5,0|0,0:0|0:0,0:0:0:0:
325,38,95952,1,0,3:0:0:0:
350,198,96124,2,0,L|360:123,1,75,8|0,0:0|0:0,0:0:0:0:
250,47,96467,6,8,L|325:37,1,75,0|0,3:0|0:0,0:0:0:0:
226,153,96809,1,8,0:0:0:0:
119,78,96981,2,0,L|81:82,3,37.5,0|0|0|0,0:0|0:0|0:0|0:0,0:0:0:0:
52,88,97324,1,0,3:0:0:0:
127,217,97495,2,0,P|89:215|52:207,1,75,8|0,0:0|0:0,0:0:0:0:
10,342,97838,6,0,P|47:340|84:332,1,75,0|0,3:0|0:0,0:0:0:0:
209,282,98181,1,8,0:0:0:0:
226,153,98352,2,0,L|263:147,1,37.5,0|0,0:0|0:0,0:0:0:0:
334,120,98524,2,0,L|363:96,1,37.5,0|0,0:0|0:0,0:0:0:0:
406,33,98695,1,0,3:0:0:0:
490,143,98867,2,0,L|480:217,1,75,8|0,0:0|0:0,0:0:0:0:
391,331,99209,6,0,L|381:256,1,75,0|0,3:0|0:0,0:0:0:0:
512,297,99552,1,8,0:0:0:0:
391,331,99724,2,0,L|353:327,3,37.5,0|0|0|0,0:0|0:0|0:0|0:0,0:0:0:0:
320,321,100067,1,0,3:0:0:0:
390,182,100238,2,0,P|389:219|381:255,1,75,8|0,0:0|0:0,0:0:0:0:
241,237,100581,6,0,P|241:199|249:163,1,75,0|0,3:0|0:0,0:0:0:0:
330,54,100924,1,8,0:0:0:0:
208,52,101095,2,0,L|170:56,1,37.5,0|0,0:0|0:0,0:0:0:0:
105,96,101267,2,0,L|100:133,1,37.5,0|0,0:0|0:0,0:0:0:0:
118,206,101438,1,0,3:0:0:0:
0,311,101609,2,0,L|9:236,1,75,8|0,0:0|0:0,0:0:0:0:
98,343,101952,6,0,P|127:319|164:311,1,75,0|0,3:0|0:0,0:0:0:0:
292,354,102295,1,8,0:0:0:0:
261,222,102467,2,0,L|265:184,3,37.5,0|0|0|0,0:0|0:0|0:0|0:0,0:0:0:0:
270,152,102809,1,0,3:0:0:0:
408,229,102981,2,0,L|398:154,1,75,8|0,0:0|0:0,0:0:0:0:
346,284,103324,6,0,P|374:307|411:313,1,75,0|0,3:0|0:0,0:0:0:0:
505,216,103667,1,8,0:0:0:0:
476,360,103838,2,0,L|498:329,1,37.5,0|0,0:0|0:0,0:0:0:0:
501,253,104009,2,0,L|504:215,1,37.5,0|0,0:0|0:0,0:0:0:0:
478,144,104181,1,0,3:0:0:0:
309,53,104352,2,0,L|383:61,1,75,8|0,0:0|0:0,0:0:0:0:
289,158,104695,6,0,L|214:166,1,75,0|0,3:0|0:0,0:0:0:0:
111,77,105038,1,8,0:0:0:0:
46,195,105209,2,0,L|42:232,3,37.5,0|0|0|0,0:0|0:0|0:0|0:0,0:0:0:0:
38,265,105552,1,0,3:0:0:0:
161,319,105724,2,0,P|172:283|170:246,1,75,8|0,0:0|0:0,0:0:0:0:
253,347,106067,6,0,P|280:321|297:288,1,75,0|0,3:0|0:0,0:0:0:0:
289,158,106409,1,8,0:0:0:0:
407,223,106581,2,0,L|411:185,1,37.5,0|0,0:0|0:0,0:0:0:0:
472,138,106752,2,0,L|467:100,1,37.5,0|0,0:0|0:0,0:0:0:0:
420,42,106924,1,0,3:0:0:0:
285,54,107095,2,0,L|210:63,1,75,8|0,0:0|0:0,0:0:0:0:
110,77,107438,5,0,3:0:0:0:
80,186,108124,1,0,3:0:0:0:
222,281,108809,5,0,3:0:0:0:
192,172,109152,1,0,3:0:0:0:
338,331,109495,6,0,P|347:278|351:224,1,106.87499714613,0|0,3:0|0:0,0:0:0:0:
341,194,109838,1,8,0:0:0:0:
222,281,110009,1,0,3:0:0:0:
270,132,110181,6,0,P|301:110|338:103,1,75,4|0,3:2|0:0,0:0:0:0:
353,107,110438,1,0,0:0:0:0:
367,112,110524,1,8,0:0:0:0:
451,230,110695,2,0,P|457:193|478:162,1,75,0|0,0:0|0:0,0:0:0:0:
472,320,111038,1,0,3:0:0:0:
338,331,111209,2,0,L|263:340,1,75,8|0,0:0|0:0,0:0:0:0:
139,273,111552,5,0,3:0:0:0:
232,175,111724,1,0,0:0:0:0:
232,175,111809,1,0,0:0:0:0:
232,175,111895,1,8,0:0:0:0:
109,116,112067,2,0,L|104:78,3,37.5,0|0|0|0,0:0|0:0|0:0|0:0,0:0:0:0:
99,47,112409,1,0,3:0:0:0:
234,55,112581,2,0,L|308:45,1,75,8|0,0:0|0:0,0:0:0:0:
388,178,112924,6,0,B|386:141|386:141|404:107,1,75,0|0,3:0|0:0,0:0:0:0:
413,96,113181,1,0,0:0:0:0:
422,84,113267,1,8,0:0:0:0:
452,251,113438,2,0,P|422:271|385:274,1,75,0|0,0:0|0:0,0:0:0:0:
257,230,113781,1,0,3:0:0:0:
370,354,113952,2,0,P|333:346|296:341,1,75,8|0,0:0|0:0,0:0:0:0:
160,356,114295,5,0,3:0:0:0:
257,230,114467,1,0,0:0:0:0:
257,230,114552,1,0,0:0:0:0:
257,230,114638,1,8,0:0:0:0:
125,259,114809,2,0,L|87:253,3,37.5,0|0|0|0,0:0|0:0|0:0|0:0,0:0:0:0:
57,247,115152,1,0,3:0:0:0:
120,77,115324,2,0,B|121:114|121:114|112:150,1,75,8|0,0:0|0:0,0:0:0:0:
196,32,115667,6,0,B|223:56|223:56|242:89,1,75,0|0,3:0|0:0,0:0:0:0:
249,103,115924,1,0,0:0:0:0:
254,117,116009,1,8,0:0:0:0:
199,267,116181,2,0,L|124:258,1,75,0|0,0:0|0:0,0:0:0:0:
291,273,116524,1,0,3:0:0:0:
163,360,116695,2,0,L|237:351,1,75,8|0,0:0|0:0,0:0:0:0:
382,276,117038,5,0,3:0:0:0:
503,358,117209,1,0,0:0:0:0:
503,358,117295,1,0,0:0:0:0:
503,358,117381,1,8,0:0:0:0:
498,223,117552,2,0,L|492:185,1,37.5,0|0,0:0|0:0,0:0:0:0:
447,125,117724,2,0,L|441:87,1,37.5,0|0,0:0|0:0,0:0:0:0:
395,29,117895,1,0,3:0:0:0:
309,171,118067,2,0,L|318:96,1,75,8|0,0:0|0:0,0:0:0:0:
223,213,118409,6,0,L|213:138,1,75,0|0,3:0|0:0,0:0:0:0:
195,4,118752,1,8,0:0:0:0:
92,94,118924,2,0,P|56:102|19:103,1,75,0|0,0:0|0:0,0:0:0:0:
115,14,119267,1,0,3:0:0:0:
133,177,119438,2,0,P|131:214|123:250,1,75,8|0,0:0|0:0,0:0:0:0:
27,347,119781,5,0,3:0:0:0:
206,351,119952,1,0,0:0:0:0:
206,351,120038,1,0,0:0:0:0:
206,351,120124,1,8,0:0:0:0:
223,213,120295,2,0,L|227:250,1,37.5,0|0,0:0|0:0,0:0:0:0:
294,287,120467,2,0,L|323:310,1,37.5,0|0,0:0|0:0,0:0:0:0:
400,298,120638,1,0,3:0:0:0:
496,203,120809,2,0,L|486:128,1,75,8|0,0:0|0:0,0:0:0:0:
333,66,121152,6,0,L|407:56,1,75,0|0,3:0|0:0,0:0:0:0:
423,54,121409,1,0,0:0:0:0:
437,52,121495,1,8,0:0:0:0:
284,145,121667,2,0,P|256:119|242:85,1,75,0|0,0:0|0:0,0:0:0:0:
369,148,122009,1,0,3:0:0:0:
242,85,122181,2,0,P|205:77|167:75,1,75,8|0,0:0|0:0,0:0:0:0:
38,115,122524,5,0,3:0:0:0:
156,178,122695,1,0,0:0:0:0:
156,178,122781,1,0,0:0:0:0:
156,178,122867,1,8,0:0:0:0:
40,248,123038,2,0,L|35:285,3,37.5,0|0|0|0,0:0|0:0|0:0|0:0,0:0:0:0:
31,316,123381,1,0,3:0:0:0:
168,355,123552,2,0,P|167:318|159:282,1,75,8|0,0:0|0:0,0:0:0:0:
277,358,123895,6,0,P|277:320|285:284,1,75,0|0,3:0|0:0,0:0:0:0:
296,274,124152,1,0,0:0:0:0:
309,268,124238,1,8,0:0:0:0:
469,193,124409,2,0,B|470:230|470:230|460:266,1,75,0|0,0:0|0:0,0:0:0:0:
373,353,124752,1,0,3:0:0:0:
384,210,124924,2,0,B|383:173|383:173|392:136,1,75,8|0,0:0|0:0,0:0:0:0:
483,35,125267,5,0,3:0:0:0:
349,15,125438,1,0,0:0:0:0:
349,15,125524,1,0,0:0:0:0:
349,15,125609,1,8,0:0:0:0:
252,109,125781,2,0,L|214:104,1,37.5,0|0,0:0|0:0,0:0:0:0:
159,53,125952,2,0,L|121:57,1,37.5,0|0,0:0|0:0,0:0:0:0:
63,108,126124,1,0,3:0:0:0:
130,224,126295,2,0,P|161:204|184:175,1,75,8|0,0:0|0:0,0:0:0:0:
34,208,126638,6,0,P|34:245|48:279,1,75,0|0,3:0|0:0,0:0:0:0:
58,292,126895,1,0,0:0:0:0:
69,301,126981,1,8,0:0:0:0:
194,349,127152,2,0,L|268:340,1,75,0|0,0:0|0:0,0:0:0:0:
402,321,127495,1,0,3:0:0:0:
280,222,127667,2,0,L|354:230,1,75,8|0,0:0|0:0,0:0:0:0:
488,246,128009,5,0,3:0:0:0:
427,124,128181,1,0,0:0:0:0:
427,124,128267,1,0,0:0:0:0:
427,124,128352,1,8,0:0:0:0:
305,64,128524,2,0,L|267:67,1,37.5,0|0,0:0|0:0,0:0:0:0:
221,127,128695,2,0,L|183:123,1,37.5,0|0,0:0|0:0,0:0:0:0:
130,68,128867,1,0,3:0:0:0:
42,217,129038,2,0,L|52:142,1,75,8|0,0:0|0:0,0:0:0:0:
133,279,129381,5,0,3:0:0:0:
256,192,129467,12,4,132124,0:2:0:0:
