osu file format v14

[General]
AudioFilename: audio.mp3
AudioLeadIn: 0
PreviewTime: 65609
Countdown: 0
SampleSet: Soft
StackLeniency: 0.4
Mode: 0
LetterboxInBreaks: 0
WidescreenStoryboard: 1

[Editor]
Bookmarks: 44352,55324,60809,63552,66295,77267,88238,110181,132124
DistanceSpacing: 1
BeatDivisor: 2
GridSize: 4
TimelineZoom: 1.1

[Metadata]
Title:Flash
TitleUnicode:Flash
Artist:Fox Stevenson
ArtistUnicode:Fox Stevenson
Creator:_orange
Version:Easy
Source:
Tags:dnb drum and bass liquicity stan sb kujinn stingy
BeatmapID:1406874
BeatmapSetID:649081

[Difficulty]
HPDrainRate:2
CircleSize:3
OverallDifficulty:2
ApproachRate:3
SliderMultiplier:0.999999999999999
SliderTickRate:1

[Events]
//Background and Video events
0,0,"bg.jpg",0,0
//Break Periods
//Storyboard Layer 0 (Background)
//Storyboard Layer 1 (Fail)
//Storyboard Layer 2 (Pass)
//Storyboard Layer 3 (Foreground)
//Storyboard Sound Samples

[TimingPoints]
467,342.857142857143,4,2,1,50,1,0
42295,-100,4,2,1,20,0,0
43667,-100,4,2,1,50,0,0
55324,-100,4,2,2,70,0,0
60809,-100,4,2,1,80,0,0
63552,-100,4,2,1,90,0,0
64924,-100,4,2,1,80,0,0
66295,-100,4,2,1,90,0,0
87895,-100,4,1,1,90,0,0
88238,-100,4,2,2,90,0,0
107438,-100,4,2,1,60,0,0
109495,-100,4,2,1,90,0,0
110181,-100,4,2,1,100,0,1
132124,-100,4,2,1,50,0,0

[Colours]
Combo1 : 248,230,12
Combo2 : 48,248,248
Combo3 : 26,114,247
Combo4 : 248,179,35

[HitObjects]
38,256,43667,6,0,L|25:156,1,99.9999999999999,0|0,0:0|0:0,0:0:0:0:
69,68,44352,2,0,P|128:24|201:33,2,150,2|2|2,0:0|0:0|0:0,0:0:0:0:
153,121,45724,1,0,0:0:0:0:
262,367,46752,1,0,0:0:0:0:
358,339,47095,2,0,P|418:298|426:226,2,150,2|2|2,0:0|0:0|0:0,0:0:0:0:
286,274,48467,1,0,0:0:0:0:
436,7,49495,1,0,0:0:0:0:
486,93,49838,6,0,B|524:185|524:185|509:233,2,150,2|2|2,0:0|0:0|0:0,0:0:0:0:
386,96,51209,1,0,0:0:0:0:
288,348,52238,1,0,0:0:0:0:
188,340,52581,2,0,P|146:283|155:206,2,150,2|2|2,0:0|0:0|0:0,0:0:0:0:
242,255,53952,1,0,0:0:0:0:
291,51,54638,2,0,P|246:29|196:29,1,99.9999999999999,0|0,0:0|0:0,0:0:0:0:
146,116,55324,6,0,B|72:103|72:103|-1:117,2,150,4|0|8,0:2|0:2|3:3,0:2:0:0:
142,216,56695,2,0,P|150:309|240:334,1,200,0|0,3:0|3:0,0:0:0:0:
338,311,57724,1,8,3:0:0:0:
380,221,58067,2,0,P|452:207|508:253,2,150,0|0|8,3:0|0:0|3:0,0:0:0:0:
293,171,59438,2,0,P|197:181|130:111,1,200,0|0,3:0|3:0,0:0:0:0:
163,16,60467,1,8,3:0:0:0:
262,13,60809,6,0,P|310:24|345:58,1,99.9999999999999,0|8,3:0|0:0,0:0:0:0:
435,103,61495,2,0,P|443:151|425:198,1,99.9999999999999,0|8,3:0|0:0,0:0:0:0:
432,298,62181,1,0,3:0:0:0:
338,334,62524,2,0,B|287:353|287:353|142:335,1,200,8|8,0:0|0:0,0:0:0:0:
74,261,63552,2,8,L|61:161,2,99.9999999999999,8|8|8,3:0|3:0|3:0,0:0:0:0:
175,243,64581,1,8,3:0:0:0:
451,367,65609,2,0,P|466:319|458:271,1,99.9999999999999,0|8,0:0|0:0,0:0:0:0:
449,171,66295,6,0,L|487:26,2,150,4|0|8,3:2|0:0|0:0,0:0:0:0:
343,174,67667,2,0,P|249:186|193:108,1,200,0|0,3:0|0:0,0:0:0:0:
251,27,68695,1,8,0:0:0:0:
151,18,69038,6,0,B|3:37,2,150,0|0|8,3:0|0:0|0:0,0:0:0:0:
194,108,70409,2,0,B|197:208|197:208|124:277,1,200
38,328,71438,1,8,0:0:0:0:
34,226,71781,6,0,L|15:77,2,150,0|0|8,3:0|0:0|0:0,0:0:0:0:
125,277,73152,2,0,L|224:289,1,99.9999999999999,0|8,3:0|0:0,0:0:0:0:
303,342,73838,2,0,L|402:329,1,99.9999999999999,0|8,0:0|0:0,0:0:0:0:
473,258,74524,6,0,B|496:205|471:159|471:159|496:118,2,150,0|0|8,3:0|0:0|0:0,0:0:0:0:
384,210,75895,2,0,P|335:208|287:222,1,99.9999999999999,0|8,0:0|0:0,0:0:0:0:
194,257,76581,2,0,L|181:157,1,99.9999999999999,0|8,0:0|0:0,0:0:0:0:
235,74,77267,6,0,P|308:66|363:114,2,150,0|0|8,3:0|0:0|0:0,0:0:0:0:
137,63,78638,2,0,B|89:104|89:104|51:235,1,200,0|0,3:0|0:0,0:0:0:0:
110,316,79667,1,8,0:0:0:0:
207,338,80009,6,0,B|281:341|281:341|351:316,2,150,0|0|8,3:0|0:0|0:0,0:0:0:0:
180,240,81381,2,0,P|186:190|212:148,1,99.9999999999999,0|8,0:0|0:0,0:0:0:0:
296,96,82067,2,0,P|345:102|387:128,1,99.9999999999999,0|8,0:0|0:0,0:0:0:0:
473,181,82752,6,0,L|473:331,2,150,0|0|8,3:0|0:0|0:0,0:0:0:0:
508,87,84124,1,0,3:0:0:0:
424,31,84467,2,0,L|225:56,1,200,8|8,0:0|0:0,0:0:0:0:
126,70,85495,6,0,P|79:128|75:201,1,150,0|0,3:0|3:0,0:0:0:0:
164,325,86524,2,0,B|212:348|270:327|285:268|285:268|358:327|452:305|489:219,1,400,8|0,0:0|0:0,0:0:0:0:
499,117,88238,6,0,P|439:72|366:57,1,150,4|0,3:2|0:0,0:0:0:0:
228,115,89267,2,0,B|160:123|160:123|102:83|119:6,2,200,8|8|8,0:0|0:0|0:0,0:0:0:0:
325,139,90981,2,0,B|334:240|334:240|309:282,1,150,0|0,3:0|0:0,0:0:0:0:
182,361,92009,2,0,P|87:348|46:262,2,200,8|8|8,0:0|0:0|0:0,0:0:0:0:
149,266,93724,6,0,B|177:201|177:201|252:173,1,150,0|0,3:0|0:0,0:0:0:0:
401,181,94752,2,0,B|439:217|443:270|443:270|423:310|371:336,2,200,8|8|8,0:0|0:0|0:0,0:0:0:0:
329,110,96467,2,0,L|181:80,1,150,0|0,3:0|0:0,0:0:0:0:
31,91,97495,2,0,P|10:184|78:251,2,200,8|8|8,0:0|0:0|0:0,0:0:0:0:
105,157,99209,6,0,L|248:201,1,150,0|0,3:0|0:0,0:0:0:0:
356,305,100238,2,0,P|433:354|495:286,2,200,8|8|8,0:0|0:0|0:0,0:0:0:0:
379,207,101952,2,0,L|361:58,1,150,0|0,3:0|0:0,0:0:0:0:
221,114,102981,2,0,P|129:137|70:63,2,200,8|8|8,0:0|0:0|0:0,0:0:0:0:
283,192,104695,6,0,L|265:340,1,150,0|0,3:0|0:0,0:0:0:0:
116,362,105724,2,0,B|36:304|36:304|4:208,2,200,8|8|8,0:0|0:0|0:0,0:0:0:0:
181,286,107438,2,0,L|199:137,1,150,0|0,3:0|0:0,0:0:0:0:
62,74,108467,1,0,0:0:0:0:
360,44,109495,2,0,L|347:143,1,99.9999999999999,0|8,3:0|0:0,0:0:0:0:
370,239,110181,6,0,P|431:200|442:128,2,150,4|0|8,3:2|0:0|0:0,0:0:0:0:
312,320,111552,2,0,P|217:296|121:320,1,200,0|0,3:0|0:0,0:0:0:0:
28,358,112581,1,8,0:0:0:0:
43,259,112924,6,0,B|52:159|52:159|22:118,2,150,0|0|8,3:0|0:0|0:0,0:0:0:0:
120,319,114295,2,0,P|210:287|225:193,1,200,0|0,3:0|0:0,0:0:0:0:
168,110,115324,1,8,0:0:0:0:
267,103,115667,6,0,L|417:103,2,150,0|0|8,3:0|0:0|0:0,0:0:0:0:
225,194,117038,2,0,B|212:293,1,99.9999999999999,0|8,3:0|0:0,0:0:0:0:
112,287,117724,2,0,B|124:187,1,99.9999999999999,0|8,0:0|0:0,0:0:0:0:
90,93,118409,6,0,P|19:93|-2:159,2,150,0|0|8,3:0|0:0|0:0,0:0:0:0:
188,112,119781,2,0,P|237:114|285:100,1,99.9999999999999,0|8,3:0|0:0,0:0:0:0:
373,52,120467,2,0,P|422:49|470:63,1,99.9999999999999,0|8,0:0|0:0,0:0:0:0:
494,160,121152,6,0,L|512:308,2,150,0|0|8,3:0|0:0|0:0,0:0:0:0:
393,161,122524,2,0,P|305:206|262:295,1,200,0|0,3:0|0:0,0:0:0:0:
182,355,123552,1,8,0:0:0:0:
171,255,123895,6,0,B|151:158|151:158|112:124,2,150,0|0|8,3:0|0:0|0:0,0:0:0:0:
90,315,125267,2,0,P|12:260|20:165,1,200,0|0,3:0|0:0,0:0:0:0:
112,124,126295,1,8,0:0:0:0:
201,79,126638,6,0,L|349:59,2,150,0|0|8,3:0|0:0|0:0,0:0:0:0:
202,179,128009,1,0,3:0:0:0:
263,257,128352,2,0,P|357:274|427:208,1,200,8|8,0:0|0:0,0:0:0:0:
256,192,129381,12,4,132124,0:2:0:0:
