osu file format v14

[General]
AudioFilename: audio.mp3
AudioLeadIn: 0
PreviewTime: 154560
Countdown: 0
SampleSet: Drum
StackLeniency: 0.7
Mode: 0
LetterboxInBreaks: 0
WidescreenStoryboard: 1

[Editor]
Bookmarks: 11112,16629,22146,33526,44215,55250,63526,66284,78698,88353,132491,165595,187664,193181,198698,209733
DistanceSpacing: 1
BeatDivisor: 4
GridSize: 16
TimelineZoom: 1.8

[Metadata]
Title:Bruises
TitleUnicode:Bruises
Artist:Fox Stevenson
ArtistUnicode:Fox Stevenson
Creator:Akhaten
Version:Insane
Source:
Tags:Stanley Byrne electronic english Destinations Vol 1 EP stan sb drum and bass dnb 2018 JayBone Orkay
BeatmapID:3903880
BeatmapSetID:1894374

[Difficulty]
HPDrainRate:5
CircleSize:4
OverallDifficulty:8
ApproachRate:8.5
SliderMultiplier:1.6
SliderTickRate:1

[Events]
//Background and Video events
0,0,"bg.jpeg",0,0
//Break Periods
2,132699,140100
//Storyboard Layer 0 (Background)
//Storyboard Layer 1 (Fail)
//Storyboard Layer 2 (Pass)
//Storyboard Layer 3 (Foreground)
//Storyboard Layer 4 (Overlay)
//Storyboard Sound Samples

[TimingPoints]
86,344.827586206897,4,2,4,30,1,0
3792,-100,4,2,4,5,0,0
3879,-100,4,2,4,30,0,0
9310,-100,4,2,4,5,0,0
9396,-100,4,2,4,30,0,0
19396,-100,4,2,1,30,0,0
22154,-117.647058823529,4,2,1,40,0,0
33189,-100,4,2,1,40,0,0
41465,-100,4,2,2,60,0,0
42499,-100,4,2,2,60,0,0
42844,-100,4,2,2,60,0,0
43189,-100,4,2,2,60,0,0
43534,-100,4,2,2,60,0,0
43879,-66.6666666666667,4,2,2,60,0,0
44137,-66.6666666666667,4,2,2,5,0,0
44223,-133.333333333333,4,2,2,50,0,0
44999,-100,4,2,2,50,0,0
45086,-100,4,2,2,50,0,0
45517,-100,4,2,2,5,0,0
45603,-133.333333333333,4,2,2,50,0,0
46465,-100,4,2,2,50,0,0
46896,-100,4,2,2,5,0,0
46982,-133.333333333333,4,2,2,50,0,0
47672,-90.9090909090909,4,2,2,50,0,0
49741,-133.333333333333,4,2,2,50,0,0
50603,-100,4,2,2,50,0,0
51034,-100,4,2,2,5,0,0
51120,-133.333333333333,4,2,2,50,0,0
51896,-100,4,2,2,50,0,0
51982,-100,4,2,2,50,0,0
52413,-100,4,2,2,5,0,0
52499,-133.333333333333,4,2,2,50,0,0
53189,-90.9090909090909,4,2,2,50,0,0
55258,-90.9090909090909,4,2,2,60,0,0
65948,-142.857142857143,4,2,2,60,0,0
66206,-142.857142857143,4,2,2,5,0,0
66292,-83.3333333333333,4,2,3,70,0,1
71465,-142.857142857143,4,2,3,70,0,1
71723,-142.857142857143,4,2,3,5,0,1
71810,-83.3333333333333,4,3,3,75,0,1
76637,-83.3333333333333,4,2,2,70,0,1
76982,-142.857142857143,4,2,2,70,0,1
77241,-142.857142857143,4,2,2,5,0,1
77327,-86.9565217391304,4,2,3,70,0,1
78361,-133.333333333333,4,2,3,70,0,1
78620,-133.333333333333,4,2,3,5,0,1
78706,-86.9565217391304,4,2,3,70,0,1
79741,-133.333333333333,4,2,3,70,0,1
79999,-133.333333333333,4,2,3,5,0,1
80086,-86.9565217391304,4,2,3,70,0,1
81120,-133.333333333333,4,2,3,70,0,1
81379,-133.333333333333,4,2,3,5,0,1
81465,-86.9565217391304,4,2,3,70,0,1
82499,-133.333333333333,4,2,3,70,0,1
82758,-133.333333333333,4,2,3,5,0,1
82844,-83.3333333333333,4,3,3,75,0,1
83879,-133.333333333333,4,3,3,75,0,1
84137,-133.333333333333,4,3,3,5,0,1
84223,-83.3333333333333,4,3,3,75,0,1
85258,-133.333333333333,4,3,3,75,0,1
85517,-133.333333333333,4,3,3,5,0,1
85603,-80,4,3,3,75,0,1
86637,-133.333333333333,4,3,3,75,0,1
86896,-133.333333333333,4,3,3,5,0,1
86982,-80,4,3,3,75,0,1
87672,-80,4,2,3,65,0,1
88017,-133.333333333333,4,2,3,65,0,1
88275,-133.333333333333,4,2,3,5,0,1
88361,-86.9565217391304,4,2,3,65,0,0
99396,-100,4,2,2,40,0,0
104913,-83.3333333333333,4,2,2,65,0,0
110086,-142.857142857143,4,2,2,65,0,0
110344,-142.857142857143,4,2,2,5,0,0
110430,-83.3333333333333,4,2,3,70,0,1
115603,-142.857142857143,4,2,3,70,0,1
115861,-142.857142857143,4,2,3,5,0,1
115948,-83.3333333333333,4,3,3,75,0,1
120775,-83.3333333333333,4,2,2,75,0,1
121120,-142.857142857143,4,2,2,75,0,1
121379,-142.857142857143,4,2,2,5,0,1
121465,-83.3333333333333,4,2,3,70,0,1
122499,-133.333333333333,4,2,3,70,0,1
122758,-133.333333333333,4,2,3,5,0,1
122844,-83.3333333333333,4,2,3,70,0,1
123879,-133.333333333333,4,2,3,70,0,1
124137,-133.333333333333,4,2,3,5,0,1
124223,-83.3333333333333,4,2,3,70,0,1
125258,-133.333333333333,4,2,3,70,0,1
125517,-133.333333333333,4,2,3,5,0,1
125603,-83.3333333333333,4,2,3,70,0,1
126637,-133.333333333333,4,2,3,70,0,1
126896,-133.333333333333,4,2,3,5,0,1
126982,-83.3333333333333,4,3,3,75,0,1
128017,-133.333333333333,4,3,3,75,0,1
128275,-133.333333333333,4,3,3,5,0,1
128361,-83.3333333333333,4,3,3,75,0,1
129396,-133.333333333333,4,3,3,75,0,1
129654,-133.333333333333,4,3,3,5,0,1
129741,-83.3333333333333,4,2,3,60,0,1
131034,-83.3333333333333,4,2,3,5,0,1
131120,-58.8235294117647,4,2,1,65,0,1
132413,-58.8235294117647,4,2,1,65,0,1
132499,-133.333333333333,4,2,1,40,0,0
143189,-133.333333333333,4,2,1,40,0,0
143534,-133.333333333333,4,2,1,40,0,0
144137,-133.333333333333,4,2,1,5,0,0
144223,-133.333333333333,4,2,1,40,0,0
151810,-100,4,2,2,60,0,0
152844,-100,4,2,2,60,0,0
153189,-100,4,2,2,60,0,0
153534,-100,4,2,2,60,0,0
153879,-100,4,2,2,60,0,0
154223,-66.6666666666667,4,2,2,60,0,0
154482,-66.6666666666667,4,2,2,5,0,0
154568,-133.333333333333,4,2,2,50,0,0
155344,-133.333333333333,4,2,2,50,0,0
155430,-100,4,2,2,50,0,0
155861,-100,4,2,2,5,0,0
155948,-133.333333333333,4,2,2,50,0,0
156637,-100,4,2,2,50,0,0
157241,-100,4,2,2,5,0,0
157327,-133.333333333333,4,2,2,50,0,0
158017,-90.9090909090909,4,2,2,50,0,0
160086,-133.333333333333,4,2,2,50,0,0
160775,-100,4,2,2,50,0,0
161379,-100,4,2,2,5,0,0
161465,-133.333333333333,4,2,2,50,0,0
162241,-133.333333333333,4,2,2,50,0,0
162327,-100,4,2,2,50,0,0
162758,-100,4,2,2,5,0,0
162844,-133.333333333333,4,2,2,50,0,0
163534,-90.9090909090909,4,2,2,50,0,0
165603,-90.9090909090909,4,2,2,60,0,0
176292,-142.857142857143,4,2,2,60,0,0
176551,-52.6315789473684,4,2,2,5,0,0
176637,-66.6666666666667,4,2,2,60,0,0
176867,-58.8235294117647,4,2,2,5,0,0
176982,-66.6666666666667,4,2,2,60,0,0
177212,-58.8235294117647,4,2,2,5,0,0
177327,-66.6666666666667,4,2,2,60,0,0
177557,-58.8235294117647,4,2,2,5,0,0
177672,-66.6666666666667,4,2,2,60,0,0
177902,-58.8235294117647,4,2,2,5,0,0
178017,-100,4,2,2,60,0,0
179396,-133.333333333333,4,2,2,60,0,0
181810,-100,4,2,2,60,0,0
182040,-100,4,2,2,5,0,0
182154,-133.333333333333,4,2,2,60,0,0
187327,-100,4,2,2,60,0,0
187557,-100,4,2,2,5,0,0
187672,-133.333333333333,4,2,2,60,0,0
192844,-100,4,2,2,60,0,0
193189,-133.333333333333,4,2,2,60,0,0
198591,-133.333333333333,4,2,2,5,0,0
198706,-86.9565217391304,4,2,3,65,0,0
209741,-100,4,2,1,50,0,0
219396,-100,4,2,1,50,0,0

[Colours]
Combo1 : 210,106,91
Combo2 : 120,125,177
Combo3 : 217,140,89
Combo4 : 167,122,197

[HitObjects]
43,243,86,5,2,0:0:0:0:
43,243,258,1,2,0:0:0:0:
153,143,1465,1,2,0:0:0:0:
153,143,1637,1,2,0:0:0:0:
300,241,2844,1,2,0:0:0:0:
300,241,3016,1,2,0:0:0:0:
401,102,3706,2,0,L|397:48,1,40,2|0,0:0|0:0,0:0:0:0:
374,23,3879,2,0,L|475:42,1,80,2|0,0:0|0:0,0:0:0:0:
491,114,4223,5,2,0:0:0:0:
491,114,4396,2,0,P|486:197|482:287,1,160,2|2,0:0|0:0,0:0:0:0:
426,320,4913,1,2,0:0:0:0:
426,320,5258,1,2,0:0:0:0:
366,255,5430,1,2,0:0:0:0:
332,336,5603,5,2,0:0:0:0:
332,336,5775,1,2,0:0:0:0:
211,235,6982,1,2,0:0:0:0:
211,235,7154,1,2,0:0:0:0:
106,352,8361,1,2,0:0:0:0:
106,352,8534,1,2,0:0:0:0:
27,245,9223,2,0,L|23:191,1,40,2|0,0:0|0:0,0:0:0:0:
0,162,9396,2,0,L|101:181,1,80,2|0,0:0|0:0,0:0:0:0:
162,216,9740,5,2,0:0:0:0:
162,216,9913,2,0,P|157:133|153:43,1,160,2|2,0:0|0:0,0:0:0:0:
232,54,10430,1,2,0:0:0:0:
232,54,10775,1,2,0:0:0:0:
292,119,10947,1,2,0:0:0:0:
326,38,11120,5,2,3:2:0:0:
431,158,11465,2,0,B|389:137|376:97|376:97|403:73|405:13,2,160,2|8|0,3:2|3:2|3:0,0:0:0:0:
498,202,12327,1,2,3:2:0:0:
450,266,12499,5,2,3:2:0:0:
450,266,12672,1,2,0:2:0:0:
371,250,12844,2,0,P|298:284|328:362,1,160,0|8,3:0|3:2,0:0:0:0:
155,321,13534,2,0,L|78:341,1,80,2|2,3:2|3:2,0:0:0:0:
12,294,13879,5,2,3:2:0:0:
81,150,14223,2,0,B|69:75|69:75|38:43|-7:69,2,160,2|8|0,3:2|3:2|0:0,0:0:0:0:
154,193,15086,1,2,3:2:0:0:
154,193,15258,2,0,P|193:171|244:137,2,80,2|10|0,0:0|3:2|3:0,0:0:0:0:
194,262,15775,2,0,P|243:257|280:284,1,80,2|10,3:2|3:2,0:0:0:0:
264,352,16120,2,0,P|229:369|190:362,1,80,2|0,3:2|0:0,0:0:0:0:
116,329,16465,1,2,3:2:0:0:
58,273,16637,5,2,3:2:0:0:
132,131,16982,2,0,B|111:89|71:76|71:76|47:103|-13:105,2,160,0|8|2,3:0|3:2|0:0,0:0:0:0:
138,211,17844,1,2,3:2:0:0:
218,190,18017,5,2,3:2:0:0:
218,190,18189,1,2,0:0:0:0:
199,267,18361,2,0,P|286:263|306:196,1,160,0|8,3:0|3:2,0:0:0:0:
408,78,19051,2,0,L|328:72,1,80,2|2,0:0|3:2,0:0:0:0:
256,192,19396,12,0,21465,0:0:0:0:
401,194,22154,5,0,1:0:0:0:
462,292,22327,2,0,L|486:228,2,68.0000012969971
369,377,22844,2,0,B|379:347|356:306|356:306|294:286|230:327,1,204.000003890991,2|0,0:0|0:0,0:0:0:0:
39,370,23534,6,0,P|26:338|15:303,1,68.0000012969971,2|2,0:0|0:0,0:0:0:0:
71,246,23878,1,2,0:0:0:0:
71,246,24051,1,2,0:0:0:0:
0,160,24223,2,0,P|35:155|86:143,1,68.0000012969971,2|0,0:0|0:0,0:0:0:0:
71,65,24568,2,0,P|36:60|-15:48,1,68.0000012969971,2|0,0:0|0:0,0:0:0:0:
142,14,24913,2,0,B|195:14|231:62|231:62|182:108|198:173,1,204.000003890991,2|0,0:0|0:0,0:0:0:0:
312,72,25603,6,0,P|344:82|375:95,1,68.0000012969971,2|2,0:0|0:0,0:0:0:0:
402,169,25948,1,2,0:0:0:0:
402,169,26120,1,2,0:0:0:0:
317,250,26292,2,0,P|322:285|334:336,1,68.0000012969971,2|0,0:0|0:0,0:0:0:0:
418,319,26637,2,0,P|423:284|435:233,1,68.0000012969971,2|0,0:0|0:0,0:0:0:0:
308,165,26982,2,0,P|201:197|114:233,1,204.000003890991,2|0,0:0|0:0,0:0:0:0:
9,321,27672,6,0,L|33:384,2,68.0000012969971
116,238,28188,1,2,0:0:0:0:
58,161,28361,2,0,B|40:48|160:109|161:-3,1,204.000003890991,2|0,0:0|0:0,0:0:0:0:
218,104,29051,6,0,P|230:135|242:171,1,68.0000012969971,2|2,0:0|0:0,0:0:0:0:
186,228,29395,1,2,0:0:0:0:
186,228,29568,1,2,0:0:0:0:
333,260,29740,2,0,P|299:264|266:271,1,68.0000012969971,2|0,0:0|0:0,0:0:0:0:
209,353,30085,2,0,P|242:357|275:364,1,68.0000012969971,2|0,0:0|0:0,0:0:0:0:
410,311,30430,2,0,B|421:248|421:248|399:195|399:195|410:106,1,204.000003890991,2|0,0:0|0:0,0:0:0:0:
319,27,31120,6,0,P|287:14|252:3,1,68.0000012969971,2|2,0:0|0:0,0:0:0:0:
195,59,31464,1,2,0:0:0:0:
195,59,31637,1,2,0:0:0:0:
99,115,31809,2,0,P|104:80|116:29,1,68.0000012969971,2|0,0:0|0:0,0:0:0:0:
8,98,32154,2,0,P|15:131|19:164,1,68.0000012969971,2|0,0:0|0:0,0:0:0:0:
103,285,32499,2,0,B|112:254|126:233|126:233|190:229|278:248,1,204.000003890991,2|0,0:0|0:0,0:0:0:0:
440,316,33189,6,0,P|453:278|469:241,1,80,0|0,3:0|0:0,0:0:0:0:
337,179,33534,2,0,P|353:215|366:253,1,80,0|0,3:0|0:0,0:0:0:0:
371,101,33879,2,0,B|299:72|249:121|279:150|217:191|147:141,1,240,10|0,3:2|3:0,0:0:0:0:
99,54,34568,1,2,0:0:0:0:
107,57,34741,1,10,3:2:0:0:
27,132,34913,1,2,3:2:0:0:
20,127,35086,1,2,3:2:0:0:
100,256,35258,2,0,P|93:216|87:177,1,80,10|0,3:2|3:0,0:0:0:0:
13,251,35603,2,0,P|6:290|0:329,1,80,2|8,0:0|3:2,0:0:0:0:
122,377,35948,6,0,B|237:384|185:229|333:253,1,240,2|0,3:2|0:0,0:0:0:0:
414,384,36637,1,10,3:2:0:0:
336,361,36810,1,2,0:0:0:0:
387,299,36982,1,2,0:0:0:0:
378,279,37154,1,2,3:2:0:0:
486,189,37327,2,0,P|474:241|472:274,1,80,2|8,0:0|3:2,0:0:0:0:
405,152,37672,2,0,P|400:112|391:73,1,80,2|0,3:2|0:0,0:0:0:0:
309,219,38017,2,0,B|255:221|226:203|226:203|167:240|167:240|126:209|77:236,1,240,10|8,3:2|3:2,0:0:0:0:
29,90,38706,6,0,P|15:52|0:15,1,80,0|0,3:0|0:0,0:0:0:0:
130,73,39051,2,0,P|113:109|100:147,1,80,0|0,3:0|0:0,0:0:0:0:
204,18,39396,2,0,B|288:22|305:85|276:93|306:161|389:152,1,240,10|0,3:2|3:0,0:0:0:0:
292,302,40086,6,0,P|310:272|339:233,1,80,2|10,0:0|3:2,0:0:0:0:
252,198,40430,1,2,3:2:0:0:
252,198,40603,1,2,3:2:0:0:
173,282,40775,2,0,P|186:319|198:357,1,80,10|0,3:2|3:0,0:0:0:0:
77,297,41120,2,0,P|89:258|102:221,1,80,2|8,0:0|3:2,0:0:0:0:
93,111,41465,5,6,1:2:0:0:
93,111,41810,2,0,P|127:119|179:135,1,80,8|8,1:2|1:2,0:0:0:0:
263,205,42154,2,0,P|228:213|176:229,1,80,8|8,1:2|1:2,0:0:0:0:
97,315,42499,2,0,P|131:323|183:339,1,80,8|8,1:2|1:2,0:0:0:0:
382,296,42844,5,8,1:2:0:0:
248,365,43017,1,8,1:2:0:0:
305,232,43189,5,8,1:2:0:0:
430,372,43362,1,8,1:2:0:0:
463,192,43534,5,8,1:2:0:0:
378,303,43706,1,0,1:0:0:0:
359,129,43879,2,0,B|340:137|322:112|322:112|372:94|418:164|495:76,1,180.000006866455,8|0,1:2|0:0,0:0:0:0:
411,47,44223,6,0,B|397:17|405:-15|405:-15|387:12|345:18,1,120.000004577637,0|0,1:0|0:0,0:0:0:0:
129,212,44913,1,2,0:0:0:0:
129,212,45086,2,0,B|146:138|146:138|128:83|128:83|139:13,1,200,2|0,0:0|0:0,0:0:0:0:
210,52,45603,6,0,B|237:48|263:68|263:68|230:62|204:77,1,120.000004577637,0|0,1:0|0:0,0:0:0:0:
249,147,46120,1,2,0:0:0:0:
405,173,46292,1,2,0:0:0:0:
405,173,46465,2,0,B|376:165|346:129|346:129|371:208|331:275,1,200,2|0,0:0|0:0,0:0:0:0:
290,313,46982,6,0,B|277:290|286:256|286:256|315:277|325:303,1,120.000004577637,0|0,1:0|0:0,0:0:0:0:
328,384,47499,1,2,0:0:0:0:
200,325,47672,5,10,0:0:0:0:
200,325,47844,2,0,P|154:332|96:348,1,88.000002685547,2|0,0:0|0:0,0:0:0:0:
37,379,48189,1,0,1:0:0:0:
37,379,48361,1,2,0:0:0:0:
77,273,48533,2,0,P|70:227|54:169,1,88.000002685547,10|0,0:2|1:0,0:0:0:0:
0,118,48879,1,0,1:0:0:0:
136,117,49051,1,10,0:0:0:0:
135,118,49224,2,0,P|175:102|215:83,1,88.000002685547,2|0,1:2|0:0,0:0:0:0:
258,8,49568,1,8,0:0:0:0:
361,150,49741,6,0,B|372:115|367:88|367:88|389:114|427:121,1,120.000004577637,0|0,1:0|0:0,0:0:0:0:
435,45,50258,1,2,0:0:0:0:
286,112,50430,1,2,0:0:0:0:
286,112,50603,2,0,B|273:185|273:185|295:232|295:232|273:310,1,200,2|0,0:0|0:0,0:0:0:0:
207,236,51120,6,0,B|192:213|160:205|160:205|186:227|191:257,1,120.000004577637,0|0,1:0|0:0,0:0:0:0:
132,78,51810,1,2,0:0:0:0:
132,78,51982,2,0,B|127:42|92:19|92:19|146:-15|231:3,1,200,2|0,0:0|0:0,0:0:0:0:
270,71,52499,6,0,B|271:40|255:15|255:15|231:45|240:72,1,120.000004577637,0|0,1:0|0:0,0:0:0:0:
512,231,53189,5,10,0:0:0:0:
512,231,53361,2,0,P|466:238|408:254,1,88.000002685547,2|0,0:0|0:0,0:0:0:0:
363,305,53706,1,0,1:0:0:0:
363,305,53878,1,2,0:0:0:0:
280,194,54050,2,0,P|265:239|239:296,1,88.000002685547,10|0,0:0|1:0,0:0:0:0:
219,354,54396,1,0,1:0:0:0:
54,376,54568,1,10,0:0:0:0:
54,376,54741,2,0,P|58:334|83:277,1,88.000002685547,2|0,1:2|0:0,0:0:0:0:
106,216,55085,1,8,0:0:0:0:
219,354,55258,5,8,1:2:0:0:
165,284,55430,1,0,1:0:0:0:
203,204,55603,5,0,1:0:0:0:
128,363,55775,1,8,1:2:0:0:
250,277,55948,2,0,P|298:286|347:293,1,88.000002685547,2|0,1:2|1:0,0:0:0:0:
439,172,56292,2,0,P|391:181|342:188,1,88.000002685547,8|0,1:2|1:0,0:0:0:0:
293,33,56637,5,10,1:2:0:0:
347,103,56809,1,2,1:2:0:0:
384,24,56982,5,2,1:2:0:0:
261,116,57154,1,10,1:2:0:0:
189,0,57327,2,0,P|180:48|173:97,1,88.000002685547,2|0,1:2|1:0,0:0:0:0:
80,189,57672,2,0,P|71:141|64:92,1,88.000002685547,10|0,1:2|1:0,0:0:0:0:
174,324,58017,2,0,P|183:276|103:312,1,176.000005371094,10|0,1:2|1:0,0:0:0:0:
112,384,58534,1,8,1:2:0:0:
261,288,58706,5,2,1:2:0:0:
326,363,58878,1,2,1:2:0:0:
243,377,59051,5,10,1:2:0:0:
336,231,59223,1,2,1:2:0:0:
415,384,59396,2,0,P|406:336|399:287,1,88.000002685547,10|0,1:2|1:0,0:0:0:0:
507,184,59741,2,0,P|498:232|491:281,1,88.000002685547,2|8,1:2|1:2,0:0:0:0:
344,151,60086,2,0,P|389:155|430:133,1,88.000002685547,2|0,1:2|1:0,0:0:0:0:
253,97,60430,1,8,1:2:0:0:
253,97,60603,1,0,1:0:0:0:
187,257,60775,5,8,1:2:0:0:
133,187,60947,1,0,1:0:0:0:
171,107,61120,5,0,1:0:0:0:
96,266,61292,1,8,1:2:0:0:
0,132,61465,2,0,P|48:123|97:116,1,88.000002685547,2|0,1:2|1:0,0:0:0:0:
208,29,61810,2,0,P|160:20|111:13,1,88.000002685547,8|0,1:2|1:0,0:0:0:0:
282,131,62154,5,10,1:2:0:0:
318,51,62326,1,2,1:2:0:0:
177,176,62499,5,2,1:2:0:0:
213,256,62671,1,10,1:2:0:0:
370,122,62844,2,0,P|413:113|456:107,1,88.000002685547,0|0,1:0|1:0,0:0:0:0:
389,244,63189,2,0,P|345:235|302:229,1,88.000002685547,10|0,1:2|1:0,0:0:0:0:
476,185,63534,5,2,1:2:0:0:
450,318,63706,2,0,P|455:349|458:374,2,44.0000013427735,0|0|8,1:0|3:0|1:2,0:0:0:0:
324,378,64051,2,0,P|329:347|332:322,2,44.0000013427735,0|0|0,1:0|3:0|1:0,0:0:0:0:
182,341,64396,5,0,1:0:0:0:
182,341,64482,1,0,3:0:0:0:
182,341,64568,2,0,L|237:344,1,44.0000013427735,0|0,1:0|3:0,0:0:0:0:
122,263,64741,1,0,3:0:0:0:
118,241,64827,1,0,3:0:0:0:
122,219,64913,5,0,3:0:0:0:
425,128,65948,6,0,B|405:121|389:121|389:121|405:118|438:110,1,83.9999974365235,8|0,1:2|0:0,0:0:0:0:
401,152,66292,6,0,P|396:204|392:279,1,95.9999970703126,4|0,1:2|3:0,0:0:0:0:
295,145,66637,2,0,P|292:82|286:17,1,95.9999970703126,8|0,1:2|3:0,0:0:0:0:
221,175,66896,1,0,3:0:0:0:
221,175,66982,2,0,B|193:173|176:147|176:147|191:135|223:132,1,95.9999970703126,0|0,3:0|1:0,0:0:0:0:
292,232,67327,1,8,1:2:0:0:
292,232,67499,1,0,3:0:0:0:
177,354,67672,6,0,P|222:341|270:331,1,95.9999970703126,0|0,1:0|3:0,0:0:0:0:
99,268,68017,2,0,P|54:255|5:245,1,95.9999970703126,8|0,1:2|3:0,0:0:0:0:
179,216,68276,1,0,3:0:0:0:
179,216,68361,2,0,B|190:188|177:166|177:166|158:174|142:201,1,95.9999970703126,0|0,3:0|1:0,0:0:0:0:
189,309,68706,1,8,1:2:0:0:
189,309,68879,1,0,3:0:0:0:
398,362,69051,6,0,P|353:349|304:339,1,95.9999970703126,0|0,1:0|3:0,0:0:0:0:
418,244,69396,2,0,P|463:231|511:221,1,95.9999970703126,8|0,1:2|3:0,0:0:0:0:
437,118,69654,1,0,3:0:0:0:
437,118,69741,2,0,B|456:132|473:153|473:153|478:125|488:93,1,95.9999970703126,0|0,3:0|1:0,0:0:0:0:
339,167,70086,1,8,1:2:0:0:
339,167,70258,1,0,3:0:0:0:
260,6,70430,6,0,P|247:51|237:99,1,95.9999970703126,0|0,1:0|3:0,0:0:0:0:
149,232,70775,2,0,P|139:184|126:138,1,95.9999970703126,8|0,1:2|3:0,0:0:0:0:
253,200,71120,1,0,1:0:0:0:
253,200,71206,1,0,3:0:0:0:
253,200,71292,1,0,3:0:0:0:
247,320,71465,6,0,B|236:338|234:354|234:354|233:338|231:304,1,83.9999974365235,8|0,1:2|0:0,0:0:0:0:
261,360,71810,6,0,P|312:367|391:383,1,95.9999970703126,0|0,1:0|0:0,0:0:0:0:
463,271,72154,2,0,P|412:278|333:294,1,95.9999970703126,8|0,1:2|0:0,0:0:0:0:
257,232,72413,1,0,0:0:0:0:
257,232,72499,2,0,B|268:223|280:209|280:209|271:246|277:280,1,95.9999970703126,0|0,0:0|1:0,0:0:0:0:
367,188,72844,1,8,1:2:0:0:
191,151,73017,1,0,0:0:0:0:
191,151,73103,1,0,0:0:0:0:
191,151,73189,6,0,P|140:159|85:180,1,95.9999970703126,0|0,1:0|0:0,0:0:0:0:
0,52,73534,2,0,P|51:60|106:81,1,95.9999970703126,8|0,1:2|0:0,0:0:0:0:
212,50,73792,1,0,0:0:0:0:
212,50,73878,2,0,P|175:34|213:43,1,95.9999970703126,0|0,0:0|1:0,0:0:0:0:
290,129,74223,1,8,1:2:0:0:
413,12,74396,1,0,0:0:0:0:
413,12,74482,1,0,0:0:0:0:
413,12,74568,6,0,B|425:72|456:147,1,95.9999970703126,0|0,1:0|0:0,0:0:0:0:
486,248,74913,2,0,B|498:188|529:113,1,95.9999970703126,8|0,1:2|0:0,0:0:0:0:
406,204,75172,1,0,0:0:0:0:
406,204,75258,2,0,B|386:220|360:226|360:226|373:240|404:249,1,95.9999970703126,0|0,0:0|1:0,0:0:0:0:
329,119,75603,1,8,1:2:0:0:
329,119,75775,1,0,0:0:0:0:
176,239,75948,6,0,B|193:219|200:206|200:206|211:315,1,143.999995605469,0|0,1:0|0:0,0:0:0:0:
190,381,76292,1,8,1:2:0:0:
190,381,76379,2,0,B|159:372|147:351|147:351|133:377|92:383,1,95.9999970703126
77,384,76638,1,0,1:0:0:0:
93,236,76982,6,0,B|99:218|88:187|88:187|82:220|68:232,1,83.9999974365235,0|0,3:0|0:0,0:0:0:0:
109,177,77327,6,0,P|64:164|16:154,1,92.0000017547608,4|0,1:2|3:0,0:0:0:0:
164,106,77672,1,8,1:2:0:0:
211,238,77844,1,2,3:1:0:0:
211,238,77930,1,0,3:0:0:0:
211,238,78017,1,2,3:1:0:0:
292,144,78189,1,2,1:0:0:0:
372,318,78361,2,0,B|378:336|367:367|367:367|339:335|347:322,1,90.0000034332277,10|0,1:1|0:0,0:0:0:0:
395,282,78706,6,0,P|407:326|417:371,1,92.0000017547608,0|0,1:0|3:0,0:0:0:0:
458,220,79051,1,8,1:2:0:0:
306,184,79223,1,2,3:1:0:0:
306,184,79310,1,0,3:0:0:0:
306,184,79396,1,2,3:1:0:0:
340,22,79568,1,2,1:0:0:0:
183,66,79741,2,0,B|180:62|157:89|157:89|176:85|217:91,1,90.0000034332277,10|0,1:1|0:0,0:0:0:0:
137,119,80086,6,0,P|124:74|114:29,1,92.0000017547608,0|0,1:0|3:0,0:0:0:0:
62,177,80430,1,8,1:2:0:0:
221,226,80603,1,2,3:1:0:0:
221,226,80689,1,0,3:0:0:0:
221,226,80775,1,2,3:1:0:0:
113,306,80948,1,2,1:0:0:0:
254,310,81120,2,0,B|281:304|303:322|303:322|268:324|250:347,1,90.0000034332277,10|0,1:1|0:0,0:0:0:0:
331,295,81465,6,0,P|318:339|308:384,1,92.0000017547608,0|0,1:0|3:0,0:0:0:0:
417,274,81810,1,8,1:2:0:0:
297,191,81982,1,2,3:1:0:0:
297,191,82068,1,0,3:0:0:0:
297,191,82154,1,2,1:0:0:0:
432,100,82327,1,2,3:1:0:0:
303,22,82499,2,0,B|315:3|315:-21|315:-21|325:0|363:21,1,90.0000034332277,10|0,1:1|0:0,0:0:0:0:
323,87,82844,6,0,P|273:71|200:53,1,95.9999970703126,0|0,1:0|0:0,0:0:0:0:
216,22,83103,1,0,0:0:0:0:
216,22,83189,1,8,1:2:0:0:
201,191,83361,1,2,0:1:0:0:
201,191,83448,1,0,0:0:0:0:
201,191,83534,1,2,0:1:0:0:
100,45,83706,1,2,1:0:0:0:
51,163,83879,2,0,B|54:187|41:209|41:209|14:200|6:173,1,90.0000034332277,10|0,1:1|0:0,0:0:0:0:
0,240,84223,6,0,P|49:224|122:206,1,95.9999970703126,0|0,1:0|0:0,0:0:0:0:
129,233,84482,1,0,0:0:0:0:
129,233,84568,1,8,1:2:0:0:
219,383,84741,1,2,0:1:0:0:
219,383,84827,1,0,0:0:0:0:
219,383,84913,1,2,0:1:0:0:
87,318,85086,1,2,1:0:0:0:
231,237,85258,2,0,B|249:231|280:242|280:242|255:251|235:262,1,90.0000034332277,10|0,1:1|0:0,0:0:0:0:
306,196,85603,6,0,P|299:249|298:308,1,100,0|0,1:0|0:0,0:0:0:0:
319,331,85861,1,0,0:0:0:0:
319,331,85948,1,8,1:2:0:0:
495,302,86120,1,2,0:1:0:0:
495,302,86206,1,0,0:0:0:0:
495,302,86292,1,2,0:1:0:0:
408,378,86465,1,2,1:0:0:0:
398,225,86637,2,0,B|421:204|440:194|440:194|446:218|467:248,1,90.0000034332277,10|0,1:1|0:0,0:0:0:0:
384,253,86982,6,0,P|363:193|341:149,1,100,0|0,1:0|0:0,0:0:0:0:
323,136,87241,1,0,0:0:0:0:
323,136,87327,1,8,1:2:0:0:
198,199,87499,1,2,0:1:0:0:
198,199,87586,1,0,0:0:0:0:
198,199,87672,1,2,1:0:0:0:
143,88,87844,1,2,0:1:0:0:
46,158,88017,2,0,B|19:165|8:192|8:192|32:184|68:193,1,90.0000034332277,10|0,1:1|0:0,0:0:0:0:
84,204,88361,5,4,1:2:0:0:
47,337,88534,1,0,3:0:0:0:
47,337,88620,1,0,3:0:0:0:
47,337,88706,1,8,1:2:0:0:
168,280,88879,5,0,3:0:0:0:
168,280,88965,1,0,3:0:0:0:
168,280,89051,2,0,L|111:273,1,46.0000008773804,2|0,3:2|3:0,0:0:0:0:
176,364,89223,2,0,L|294:347,1,92.0000017547608,2|8,1:2|1:2,0:0:0:0:
344,384,89568,1,0,3:0:0:0:
352,272,89741,5,0,1:0:0:0:
352,272,89827,1,0,3:0:0:0:
352,272,89913,1,0,3:0:0:0:
448,348,90086,1,8,1:2:0:0:
480,200,90258,5,0,3:0:0:0:
480,200,90344,1,0,3:0:0:0:
480,200,90430,2,0,L|474:245,1,46.0000008773804,2|0,3:2|3:0,0:0:0:0:
398,193,90603,2,0,L|384:101,1,92.0000017547608,2|8,1:2|1:2,0:0:0:0:
416,24,90948,1,0,3:0:0:0:
296,128,91120,5,0,1:0:0:0:
296,128,91206,1,0,3:0:0:0:
296,128,91292,1,0,3:0:0:0:
304,0,91465,1,8,1:2:0:0:
156,48,91637,5,0,3:0:0:0:
156,48,91723,1,0,3:0:0:0:
156,48,91810,2,0,L|201:54,1,46.0000008773804,2|0,3:2|3:0,0:0:0:0:
149,130,91982,2,0,L|57:144,1,92.0000017547608,2|8,1:2|1:2,0:0:0:0:
0,89,92327,1,0,3:0:0:0:
0,89,92413,1,0,3:0:0:0:
0,89,92499,5,2,1:2:0:0:
12,251,92672,2,0,L|104:265,1,92.0000017547608,2|8,3:2|1:2,0:0:0:0:
171,218,93017,1,0,3:0:0:0:
171,218,93103,1,0,3:0:0:0:
171,218,93189,5,2,1:2:0:0:
158,332,93361,2,0,L|66:346,1,92.0000017547608,2|8,3:2|1:2,0:0:0:0:
269,290,93706,1,0,3:0:0:0:
269,290,93792,1,0,3:0:0:0:
269,290,93879,2,0,P|276:337|262:384,1,92.0000017547608,0|0,1:0|3:0,0:0:0:0:
359,234,94223,1,8,1:2:0:0:
392,339,94396,5,0,3:0:0:0:
392,339,94482,1,0,3:0:0:0:
392,339,94568,2,0,L|398:384,1,46.0000008773804,2|0,3:2|3:0,0:0:0:0:
474,332,94741,2,0,L|478:236,1,92.0000017547608,2|8,1:2|1:2,0:0:0:0:
438,156,95086,1,0,3:0:0:0:
339,197,95258,5,0,1:0:0:0:
339,197,95344,1,0,3:0:0:0:
339,197,95430,1,0,3:0:0:0:
384,80,95603,1,8,1:2:0:0:
247,105,95775,5,0,3:0:0:0:
247,105,95861,1,0,3:0:0:0:
247,105,95948,2,0,L|292:99,1,46.0000008773804,2|0,3:2|3:0,0:0:0:0:
240,23,96120,2,0,L|148:9,1,92.0000017547608,2|8,1:2|1:2,0:0:0:0:
71,78,96465,1,0,3:0:0:0:
168,151,96637,5,0,1:0:0:0:
168,151,96723,1,0,3:0:0:0:
168,151,96810,1,0,3:0:0:0:
62,225,96982,1,8,1:2:0:0:
181,263,97154,5,0,3:0:0:0:
181,263,97241,1,0,3:0:0:0:
181,263,97327,2,0,L|187:308,1,46.0000008773804,2|0,3:2|3:0,0:0:0:0:
263,256,97499,2,0,L|277:164,1,92.0000017547608,2|8,1:2|1:2,0:0:0:0:
222,101,97844,1,0,3:0:0:0:
222,101,97930,1,0,3:0:0:0:
222,101,98017,5,2,1:2:0:0:
360,120,98189,2,0,L|374:212,1,92.0000017547608,2|8,3:2|1:2,0:0:0:0:
339,287,98534,1,0,3:0:0:0:
339,287,98620,1,0,3:0:0:0:
339,287,98706,5,2,1:2:0:0:
463,246,98879,2,0,L|477:153,1,92.0000017547608,2|0,3:2|3:0,0:0:0:0:
439,74,99223,1,0,3:0:0:0:
439,74,99396,5,0,3:0:0:0:
356,29,100086,2,0,L|195:9,1,160,2|0,3:2|0:0,0:0:0:0:
192,178,100775,1,2,3:2:0:0:
192,94,100948,1,2,0:0:0:0:
264,135,101120,2,0,L|281:229,1,80,2|2,0:0|0:0,0:0:0:0:
185,273,101465,2,0,P|148:257|111:270,1,80,2|0,3:2|0:0,0:0:0:0:
115,352,101810,2,0,P|152:364|188:349,1,80,2|0,0:0|0:0,0:0:0:0:
256,309,102154,2,0,P|329:345|416:396,1,160,2|0,3:2|0:0,0:0:0:0:
487,239,102844,5,2,3:2:0:0:
475,328,103017,1,2,0:0:0:0:
404,279,103189,2,0,L|387:185,1,80,2|2,0:0|0:0,0:0:0:0:
242,211,103534,2,0,P|278:195|315:208,1,80,2|0,3:2|0:0,0:0:0:0:
312,290,103879,2,0,P|274:302|238:287,1,80,2|0,0:0|0:0,0:0:0:0:
160,252,104223,2,0,B|171:195|145:170|145:170|146:120|179:93,1,160,2|0,3:2|0:0,0:0:0:0:
442,75,104913,5,0,1:0:0:0:
372,129,105086,1,0,1:0:0:0:
292,91,105258,5,0,1:0:0:0:
451,166,105430,1,0,1:0:0:0:
317,262,105603,2,0,P|308:214|301:160,1,95.9999970703126,2|0,1:2|1:0,0:0:0:0:
204,68,105948,2,0,P|195:116|188:167,1,95.9999970703126,0|0,1:0|1:0,0:0:0:0:
170,340,106292,5,2,1:2:0:0:
206,260,106465,1,2,1:2:0:0:
6,216,106637,5,2,1:2:0:0:
42,296,106810,1,2,1:2:0:0:
188,162,106982,2,0,P|231:153|285:146,1,95.9999970703126,0|0,1:0|1:0,0:0:0:0:
441,280,107327,2,0,P|397:271|343:265,1,95.9999970703126,2|0,1:2|1:0,0:0:0:0:
503,202,107672,5,2,1:2:0:0:
375,114,107844,2,0,P|406:119|436:123,2,47.9999985351563,0|0|8,1:0|3:0|1:2,0:0:0:0:
502,4,108189,2,0,P|471:9|442:12,2,47.9999985351563,0|0|0,1:0|3:0|1:0,0:0:0:0:
260,28,108534,5,0,1:0:0:0:
260,28,108620,1,0,3:0:0:0:
260,28,108706,2,0,L|316:32,1,47.9999985351563,0|0,1:0|3:0,0:0:0:0:
154,43,108879,1,0,3:0:0:0:
143,22,108965,1,0,3:0:0:0:
141,0,109051,5,0,3:0:0:0:
141,0,110086,6,0,B|161:7|177:7|177:7|161:10|128:18,1,83.9999974365235,8|0,1:2|0:0,0:0:0:0:
88,0,110430,6,0,P|83:52|79:127,1,95.9999970703126,4|0,1:2|3:0,0:0:0:0:
210,195,110775,2,0,P|205:143|201:68,1,95.9999970703126,8|0,1:2|3:0,0:0:0:0:
118,224,111034,1,0,3:0:0:0:
118,224,111120,2,0,B|90:222|73:196|73:196|88:184|120:181,1,95.9999970703126,0|0,3:0|1:0,0:0:0:0:
198,285,111465,1,8,1:2:0:0:
198,285,111637,1,0,3:0:0:0:
377,210,111810,6,0,P|330:219|283:233,1,95.9999970703126,0|0,1:0|3:0,0:0:0:0:
407,314,112154,2,0,P|453:323|500:337,1,95.9999970703126,8|0,1:2|3:0,0:0:0:0:
323,365,112414,1,0,3:0:0:0:
323,365,112499,2,0,B|334:337|321:315|321:315|302:323|286:350,1,95.9999970703126,0|0,3:0|1:0,0:0:0:0:
359,237,112844,1,8,1:2:0:0:
359,237,113017,1,0,3:0:0:0:
454,105,113189,6,0,P|448:152|446:200,1,95.9999970703126,0|0,1:0|3:0,0:0:0:0:
331,95,113534,2,0,P|336:47|338:0,1,95.9999970703126,8|0,1:2|3:0,0:0:0:0:
240,87,113792,1,0,3:0:0:0:
240,87,113879,2,0,B|226:106|205:123|205:123|233:128|265:138,1,95.9999970703126,0|0,3:0|1:0,0:0:0:0:
163,52,114224,1,8,1:2:0:0:
163,52,114396,1,0,3:0:0:0:
16,153,114568,6,0,P|61:140|109:130,1,95.9999970703126,0|0,1:0|3:0,0:0:0:0:
173,278,114913,2,0,P|128:265|80:255,1,95.9999970703126,8|0,1:2|3:0,0:0:0:0:
190,378,115258,1,0,1:0:0:0:
190,378,115344,1,0,3:0:0:0:
190,378,115430,1,0,3:0:0:0:
282,217,115603,6,0,B|271:235|269:251|269:251|268:235|266:201,1,83.9999974365235,8|0,1:2|0:0,0:0:0:0:
296,257,115948,6,0,P|347:264|426:280,1,95.9999970703126,0|0,1:0|0:0,0:0:0:0:
479,367,116292,2,0,P|428:374|349:390,1,95.9999970703126,8|0,1:2|0:0,0:0:0:0:
471,286,116551,1,0,0:0:0:0:
471,286,116637,2,0,B|477:260|469:235|469:235|491:250|523:254,1,95.9999970703126,0|0,0:0|1:0,0:0:0:0:
399,167,116982,1,8,1:2:0:0:
295,342,117155,1,0,0:0:0:0:
295,342,117241,1,0,0:0:0:0:
295,342,117327,6,0,P|244:350|189:371,1,95.9999970703126,0|0,1:0|0:0,0:0:0:0:
87,249,117672,2,0,P|138:257|193:278,1,95.9999970703126,8|0,1:2|0:0,0:0:0:0:
116,356,117930,1,0,0:0:0:0:
116,356,118016,2,0,P|79:340|117:349,1,95.9999970703126,0|0,0:0|1:0,0:0:0:0:
0,283,118361,1,8,1:2:0:0:
14,98,118534,1,0,0:0:0:0:
14,98,118620,1,0,0:0:0:0:
14,98,118706,6,0,B|26:157|27:239,1,95.9999970703126,0|0,1:0|0:0,0:0:0:0:
128,95,119051,2,0,B|140:35|141:-46,1,95.9999970703126,8|0,1:2|0:0,0:0:0:0:
109,179,119310,1,0,0:0:0:0:
109,179,119396,2,0,B|125:199|131:225|131:225|145:212|154:181,1,95.9999970703126,0|0,0:0|1:0,0:0:0:0:
43,279,119741,1,8,1:2:0:0:
43,279,119913,1,0,0:0:0:0:
234,288,120086,6,0,B|172:283|151:303|151:303|161:352|205:375,1,143.999995605469,0|0,1:0|0:0,0:0:0:0:
259,367,120430,1,8,1:2:0:0:
259,367,120517,2,0,B|290:358|302:337|302:337|316:363|357:369,1,95.9999970703126
367,291,120776,1,0,1:0:0:0:
367,291,121120,6,0,B|361:273|372:242|372:242|378:275|392:287,1,83.9999974365235,0|0,3:0|0:0,0:0:0:0:
340,224,121465,6,0,P|385:211|435:201,1,95.9999970703126,4|0,1:2|3:0,0:0:0:0:
256,157,121810,1,8,1:2:0:0:
371,74,121982,1,2,3:1:0:0:
371,74,122068,1,0,3:0:0:0:
371,74,122155,1,2,3:1:0:0:
230,16,122327,1,2,1:0:0:0:
185,199,122499,2,0,B|167:205|136:194|136:194|168:166|181:174,1,90.0000034332277,10|0,1:1|0:0,0:0:0:0:
108,149,122844,6,0,P|120:193|130:244,1,95.9999970703126,0|0,1:0|3:0,0:0:0:0:
18,143,123189,1,8,1:2:0:0:
138,54,123361,1,2,3:1:0:0:
138,54,123447,1,0,3:0:0:0:
138,54,123534,1,2,3:1:0:0:
43,24,123706,1,2,1:0:0:0:
216,95,123879,2,0,B|219:91|242:118|242:118|223:114|182:120,1,90.0000034332277,10|0,1:1|0:0,0:0:0:0:
265,161,124224,6,0,P|266:114|273:63,1,95.9999970703126,0|0,1:0|3:0,0:0:0:0:
358,186,124568,1,8,1:2:0:0:
208,223,124740,1,2,3:1:0:0:
208,223,124826,1,0,3:0:0:0:
208,223,124913,1,2,3:1:0:0:
332,321,125085,1,2,1:0:0:0:
184,347,125258,2,0,B|157:341|135:359|135:359|170:361|188:384,1,90.0000034332277,10|0,1:1|0:0,0:0:0:0:
96,292,125603,6,0,P|109:336|120:386,1,95.9999970703126,0|0,1:0|3:0,0:0:0:0:
169,271,125948,1,8,1:2:0:0:
22,242,126120,1,2,3:1:0:0:
22,242,126206,1,0,3:0:0:0:
22,242,126292,1,2,1:0:0:0:
138,178,126465,1,2,3:1:0:0:
7,96,126637,2,0,B|19:77|19:53|19:53|29:74|67:95,1,90.0000034332277,10|0,1:1|0:0,0:0:0:0:
49,40,126982,6,0,P|99:56|172:74,1,95.9999970703126,0|0,1:0|0:0,0:0:0:0:
153,100,127241,1,0,0:0:0:0:
153,100,127327,1,8,1:2:0:0:
229,0,127499,1,2,0:1:0:0:
229,0,127586,1,0,0:0:0:0:
229,0,127672,1,2,0:1:0:0:
271,110,127844,1,2,1:0:0:0:
423,77,128017,2,0,B|426:53|413:31|413:31|386:40|378:67,1,90.0000034332277,10|0,1:1|0:0,0:0:0:0:
372,0,128361,6,0,P|421:16|494:34,1,95.9999970703126,0|0,1:0|0:0,0:0:0:0:
503,9,128620,1,0,0:0:0:0:
503,9,128706,1,8,1:2:0:0:
487,145,128879,1,2,0:1:0:0:
487,145,128965,1,0,0:0:0:0:
487,145,129051,1,2,0:1:0:0:
341,159,129224,1,2,1:0:0:0:
456,265,129396,2,0,B|474:266|499:288|499:288|472:287|449:289,1,90.0000034332277,10|0,1:1|0:0,0:0:0:0:
437,299,129741,1,0,1:0:0:0:
256,192,129827,12,0,131034,0:0:0:0:
256,192,131120,12,0,132499,1:0:0:0:
256,192,140775,12,0,143189,0:0:0:0:
33,63,143534,5,0,1:0:0:0:
138,119,143879,2,0,L|131:214,1,90.0000034332277
55,247,144223,6,0,B|109:210|155:251|134:271|173:296|244:262,1,180.000006866455,10|0,3:2|3:0,0:0:0:0:
297,170,144913,2,0,L|301:237,1,60.0000022888184,2|2,1:2|0:0,0:0:0:0:
385,258,145258,2,0,L|380:325,1,60.0000022888184,2|2,0:0|0:0,0:0:0:0:
449,194,145603,1,10,3:2:0:0:
332,88,145948,1,2,0:0:0:0:
332,88,146292,6,0,B|240:56|268:148|152:104,1,180.000006866455,2|0,1:2|0:0,0:0:0:0:
74,59,146982,2,0,L|82:-6,1,60.0000022888184,10|2,3:2|0:0,0:0:0:0:
5,168,147327,2,0,L|-1:100,1,60.0000022888184,2|2,0:0|3:2,0:0:0:0:
83,191,147672,1,2,1:2:0:0:
18,320,148017,1,2,3:2:0:0:
18,320,148361,6,0,P|86:332|138:308,1,120.000004577637,10|0,1:2|0:0,0:0:0:0:
163,234,148879,1,8,3:2:0:0:
260,356,149051,2,0,B|236:316|236:316|264:220,1,120.000004577637,0|0,1:0|0:0,0:0:0:0:
64,128,149741,6,0,B|160:88|128:192|244:144,1,180.000006866455,10|0,3:2|3:0,0:0:0:0:
321,261,150430,2,0,L|313:174,1,60.0000022888184,2|2,1:2|0:0,0:0:0:0:
308,121,150774,1,2,0:0:0:0:
308,121,150947,1,2,0:0:0:0:
392,161,151119,2,0,P|427:166|477:179,1,60.0000022888184,10|0,3:2|0:0,0:0:0:0:
512,264,151465,2,0,P|477:269|427:282,1,60.0000022888184,2|0,0:0|3:0,0:0:0:0:
374,348,151809,5,6,1:2:0:0:
374,348,152154,2,0,P|366:314|350:262,1,80,8|8,1:2|1:2,0:0:0:0:
263,164,152499,2,0,P|251:202|242:241,1,80,8|8,1:2|1:2,0:0:0:0:
154,348,152844,2,0,P|142:309|133:270,1,80,8|8,1:2|1:2,0:0:0:0:
97,116,153188,5,8,1:2:0:0:
28,250,153361,1,8,1:2:0:0:
161,193,153533,5,8,1:2:0:0:
21,68,153706,1,8,1:2:0:0:
190,108,153878,5,8,1:2:0:0:
79,193,154050,1,0,1:0:0:0:
220,269,154223,2,0,B|300:220|309:334|407:269,1,180.000006866455,8|0,1:2|0:0,0:0:0:0:
350,213,154568,6,0,B|336:183|344:151|344:151|326:178|284:184,1,120.000004577637,0|0,1:0|0:0,0:0:0:0:
0,243,155258,1,2,0:0:0:0:
0,243,155430,2,0,B|74:226|74:226|129:244|129:244|199:233,1,200,2|0,0:0|0:0,0:0:0:0:
163,153,155948,6,0,B|167:125|147:100|147:100|153:133|138:159,1,120.000004577637,0|0,1:0|0:0,0:0:0:0:
57,123,156465,1,2,0:0:0:0:
104,31,156637,1,2,0:0:0:0:
104,31,156810,2,0,B|136:13|165:13|165:13|182:34|215:43|215:43|250:30|325:36,1,200,2|0,0:0|0:0,0:0:0:0:
383,105,157327,6,0,B|396:82|387:48|387:48|358:69|348:95,1,120.000004577637,0|0,1:0|0:0,0:0:0:0:
347,170,157844,1,0,0:0:0:0:
143,256,158017,5,10,0:0:0:0:
143,256,158189,2,0,P|189:263|247:279,1,88.000002685547,2|0,0:0|0:0,0:0:0:0:
313,310,158535,1,0,1:0:0:0:
313,310,158707,1,2,0:0:0:0:
175,363,158879,2,0,P|129:370|71:386,1,88.000002685547,10|0,0:2|1:0,0:0:0:0:
9,335,159224,1,0,1:0:0:0:
116,241,159396,1,10,0:0:0:0:
116,241,159569,2,0,P|76:222|35:205,1,88.000002685547,2|0,1:2|0:0,0:0:0:0:
13,112,159913,1,8,0:0:0:0:
141,97,160086,6,0,B|109:94|85:71|85:71|99:96|94:133,1,120.000004577637,0|0,1:0|0:0,0:0:0:0:
169,177,160603,1,2,0:0:0:0:
251,45,160775,1,2,0:0:0:0:
251,45,160948,2,0,B|238:118|238:118|260:165|260:165|238:243,1,200,2|0,0:0|0:0,0:0:0:0:
146,273,161465,6,0,B|161:296|193:304|193:304|167:282|162:252,1,120.000004577637,0|0,1:0|0:0,0:0:0:0:
486,328,162154,1,2,0:0:0:0:
486,328,162327,2,0,B|472:368|435:377|435:377|458:319|419:237,1,200,2|0,0:0|0:0,0:0:0:0:
468,193,162844,6,0,B|498:197|520:218|520:218|486:236|461:222,1,120.000004577637,0|0,1:0|0:0,0:0:0:0:
210,0,163534,5,10,0:0:0:0:
210,0,163706,2,0,P|256:7|314:23,1,88.000002685547,2|0,0:0|0:0,0:0:0:0:
355,85,164051,1,0,1:0:0:0:
355,85,164223,1,2,0:0:0:0:
209,91,164395,2,0,P|164:106|107:132,1,88.000002685547,10|0,0:0|1:0,0:0:0:0:
75,191,164741,1,0,1:0:0:0:
147,346,164913,1,10,0:0:0:0:
147,346,165086,2,0,P|160:309|177:240,1,88.000002685547,2|0,1:2|0:0,0:0:0:0:
197,184,165430,1,8,0:0:0:0:
38,119,165603,5,8,1:2:0:0:
108,65,165775,1,0,1:0:0:0:
188,103,165948,5,0,1:0:0:0:
29,28,166120,1,8,1:2:0:0:
115,150,166293,2,0,P|106:198|99:247,1,88.000002685547,2|0,1:2|1:0,0:0:0:0:
225,298,166637,2,0,P|216:250|209:201,1,88.000002685547,8|0,1:2|1:0,0:0:0:0:
372,351,166982,5,10,1:2:0:0:
312,266,167154,1,2,1:2:0:0:
282,360,167327,5,2,1:2:0:0:
404,268,167499,1,10,1:2:0:0:
476,384,167672,2,0,P|485:336|492:287,1,88.000002685547,2|0,1:2|1:0,0:0:0:0:
389,181,168017,2,0,P|398:229|405:278,1,88.000002685547,10|0,1:2|1:0,0:0:0:0:
225,280,168362,2,0,P|273:271|322:264,1,88.000002685547,10|0,1:2|1:0,0:0:0:0:
191,358,168706,1,0,1:0:0:0:
191,358,168879,1,8,1:2:0:0:
127,204,169051,5,2,1:2:0:0:
72,313,169223,1,2,1:2:0:0:
17,187,169396,5,10,1:2:0:0:
150,286,169568,1,2,1:2:0:0:
186,132,169741,2,0,P|234:123|283:116,1,88.000002685547,10|0,1:2|1:0,0:0:0:0:
403,25,170086,2,0,P|355:16|306:9,1,88.000002685547,2|8,1:2|1:2,0:0:0:0:
372,130,170431,2,0,P|378:173|388:216,1,88.000002685547,2|0,1:2|1:0,0:0:0:0:
460,103,170775,1,8,1:2:0:0:
460,103,170948,1,0,1:0:0:0:
213,0,171120,5,8,1:2:0:0:
283,54,171292,1,0,1:0:0:0:
363,16,171465,5,0,1:0:0:0:
204,91,171637,1,8,1:2:0:0:
289,218,171810,2,0,P|298:170|305:121,1,88.000002685547,2|0,1:2|1:0,0:0:0:0:
171,214,172154,2,0,P|180:262|187:311,1,88.000002685547,8|0,1:2|1:0,0:0:0:0:
0,154,172499,5,10,1:2:0:0:
80,190,172671,1,2,1:2:0:0:
208,33,172844,5,2,1:2:0:0:
128,69,173016,1,10,1:2:0:0:
247,184,173189,2,0,P|290:176|333:169,1,88.000002685547,0|0,1:0|1:0,0:0:0:0:
439,288,173534,2,0,P|395:279|352:273,1,88.000002685547,10|0,1:2|1:0,0:0:0:0:
512,232,173879,5,2,1:2:0:0:
434,121,174051,2,0,P|465:116|490:113,2,44.0000013427735,0|0|8,1:0|3:0|1:2,0:0:0:0:
364,0,174396,2,0,P|333:5|308:8,2,44.0000013427735,0|0|0,1:0|3:0|1:0,0:0:0:0:
242,116,174741,5,0,1:0:0:0:
242,116,174827,1,0,3:0:0:0:
242,116,174913,2,0,L|239:61,1,44.0000013427735,0|0,1:0|3:0,0:0:0:0:
187,197,175086,1,0,3:0:0:0:
174,215,175172,1,0,3:0:0:0:
155,228,175258,5,0,3:0:0:0:
409,336,176292,6,0,B|402:316|402:300|402:300|399:316|391:349,1,83.9999974365235,8|0,1:2|0:0,0:0:0:0:
411,263,176637,6,0,B|373:193|373:193|323:264,1,160.000006103516,0|0,1:0|0:0,0:0:0:0:
411,263,176982,6,0,B|386:228|386:228|373:193|373:193|357:225|357:225|321:264,1,160.000006103516,0|0,3:0|0:0,0:0:0:0:
411,263,177327,6,0,B|382:228|373:193|373:193|362:228|324:261,1,160.000006103516,0|0,3:0|0:0,0:0:0:0:
411,263,177672,6,0,B|381:232|373:193|373:193|364:231|321:268,1,160.000006103516,0|0,3:0|0:0,0:0:0:0:
246,258,178017,5,0,3:0:0:0:
277,317,178131,5,0,3:0:0:0:
260,353,178246,5,0,3:0:0:0:
198,380,178361,5,0,3:0:0:0:
139,348,178475,5,0,3:0:0:0:
103,365,178590,5,0,3:0:0:0:
51,320,178706,6,0,L|59:185,1,106.666666666667,0|0,3:0|0:0,0:0:0:0:
101,148,179051,1,8,3:2:0:0:
101,148,179396,6,0,P|142:120|180:95,1,80.0000030517579,4|0,1:2|3:0,0:0:0:0:
168,19,179741,1,8,3:2:0:0:
351,112,179971,1,0,1:0:0:0:
279,150,180086,2,0,P|291:187|298:227,1,80.0000030517579,0|0,3:0|3:0,0:0:0:0:
392,323,180430,2,0,P|398:283|411:245,1,80.0000030517579,8|0,3:2|3:0,0:0:0:0:
292,322,180775,6,0,P|233:332|186:344,1,80.0000030517579,0|0,1:0|3:0,0:0:0:0:
132,372,181120,1,8,3:2:0:0:
0,204,181350,1,0,1:0:0:0:
76,222,181465,2,0,P|86:281|81:332,1,80.0000030517579,0|0,3:0|3:0,0:0:0:0:
166,225,181810,6,0,B|195:224|218:236|218:236|190:237|155:270,1,106.666666666667,8|0,3:2|0:0,0:0:0:0:
120,151,182154,6,0,P|166:129|217:100,1,80.0000030517579,0|0,1:0|3:0,0:0:0:0:
287,43,182499,1,8,3:2:0:0:
283,78,182614,1,0,3:0:0:0:
296,111,182729,1,0,1:0:0:0:
325,144,182844,2,0,P|362:131|402:124,1,80.0000030517579,0|0,3:0|3:0,0:0:0:0:
488,252,183189,2,0,P|450:239|410:232,1,80.0000030517579,8|0,3:2|3:0,0:0:0:0:
268,301,183534,6,0,P|314:322|361:358,1,80.0000030517579,0|0,1:0|3:0,0:0:0:0:
186,339,183879,1,8,3:2:0:0:
177,303,183994,1,0,3:0:0:0:
186,268,184109,1,0,1:0:0:0:
212,233,184224,2,0,P|247:219|292:201,1,80.0000030517579,0|0,3:0|3:0,0:0:0:0:
110,114,184568,2,0,P|145:128|190:145,1,80.0000030517579,8|0,3:2|3:0,0:0:0:0:
92,232,184913,5,0,1:0:0:0:
110,265,185028,1,0,3:0:0:0:
111,301,185143,1,0,3:0:0:0:
94,340,185258,2,0,P|60:354|-14:347,1,80.0000030517579,8|0,3:2|3:0,0:0:0:0:
203,316,185603,5,0,1:0:0:0:
225,346,185718,1,0,3:0:0:0:
262,351,185833,1,0,3:0:0:0:
293,331,185948,2,0,P|297:286|306:250,1,80.0000030517579,8|0,3:2|3:0,0:0:0:0:
487,179,186292,5,0,1:0:0:0:
448,174,186407,1,0,3:0:0:0:
411,168,186522,1,0,3:0:0:0:
372,163,186637,2,0,L|292:150,1,80.0000030517579,8|0,3:2|3:0,0:0:0:0:
139,108,186982,5,0,1:0:0:0:
176,96,187097,1,0,3:0:0:0:
211,83,187212,1,0,3:0:0:0:
248,71,187327,2,0,B|294:55|294:55|260:46|229:49,1,106.666666666667,8|0,3:2|0:0,0:0:0:0:
176,96,187672,6,0,L|187:185,1,80.0000030517579,0|0,1:0|3:0,0:0:0:0:
132,237,188017,1,8,3:2:0:0:
325,149,188246,1,2,3:1:0:0:
325,149,188361,2,0,L|254:144,1,40.000001525879,2|0,1:0|0:0,0:0:0:0:
353,229,188591,1,2,3:1:0:0:
353,229,188706,2,0,L|442:221,1,80.0000030517579,10|0,1:1|3:0,0:0:0:0:
474,244,189051,6,0,L|485:333,1,80.0000030517579,0|0,1:0|3:0,0:0:0:0:
417,367,189396,1,8,3:2:0:0:
226,272,189626,1,2,3:1:0:0:
226,272,189741,2,0,L|297:267,1,40.000001525879,2|0,1:0|0:0,0:0:0:0:
198,352,189971,1,2,3:1:0:0:
198,352,190086,2,0,L|109:344,1,80.0000030517579,10|0,3:1|3:0,0:0:0:0:
78,255,190430,6,0,L|67:344,1,80.0000030517579,0|0,1:0|3:0,0:0:0:0:
0,377,190775,1,8,3:2:0:0:
138,169,191005,1,2,3:1:0:0:
138,169,191120,2,0,L|67:164,1,40.000001525879,2|0,1:0|0:0,0:0:0:0:
166,249,191350,1,2,3:1:0:0:
166,249,191465,2,0,L|255:241,1,80.0000030517579,10|0,3:1|3:0,0:0:0:0:
294,255,191810,6,0,L|286:165,1,80.0000030517579,0|0,1:0|3:0,0:0:0:0:
341,110,192154,1,8,3:2:0:0:
486,226,192384,1,2,3:1:0:0:
486,226,192499,2,0,L|491:155,1,40.000001525879,2|0,1:0|0:0,0:0:0:0:
406,254,192729,1,2,3:1:0:0:
406,254,192844,2,0,B|408:282|410:309|410:309|401:278|386:258,1,106.666666666667,10|0,3:1|0:0,0:0:0:0:
209,290,193189,5,0,1:0:0:0:
250,274,193304,1,0,3:0:0:0:
294,281,193419,1,0,3:0:0:0:
328,311,193534,1,8,3:2:0:0:
142,333,193764,1,2,3:1:0:0:
142,333,193879,2,0,L|137:404,1,40.000001525879,2|0,1:0|0:0,0:0:0:0:
54,320,194108,1,2,3:1:0:0:
54,320,194223,2,0,L|62:231,1,80.0000030517579,10|0,1:1|3:0,0:0:0:0:
261,226,194568,5,0,1:0:0:0:
220,210,194683,1,0,3:0:0:0:
176,217,194798,1,0,3:0:0:0:
142,247,194913,1,8,3:2:0:0:
317,363,195143,1,2,3:1:0:0:
317,363,195258,2,0,L|246:358,1,40.000001525879,2|0,1:0|0:0,0:0:0:0:
330,275,195487,1,2,3:1:0:0:
330,275,195603,2,0,L|417:282,1,80.0000030517579,10|0,3:1|3:0,0:0:0:0:
459,216,195948,5,0,1:0:0:0:
459,216,196522,1,2,0:1:0:0:
459,216,196637,1,2,0:1:0:0:
374,127,196867,1,2,0:1:0:0:
374,127,196982,2,0,L|463:119,1,80.0000030517579,2|0,0:1|0:0,0:0:0:0:
494,53,197327,1,0,3:0:0:0:
229,2,197844,5,2,0:1:0:0:
165,47,198017,1,2,3:1:0:0:
239,83,198189,1,2,0:1:0:0:
239,83,198361,2,0,L|328:92,1,80.0000030517579,2|0,0:1|0:0,0:0:0:0:
342,111,198706,5,4,1:2:0:0:
251,184,198879,1,0,3:0:0:0:
251,184,198965,1,0,3:0:0:0:
251,184,199051,1,8,1:2:0:0:
337,276,199224,5,0,3:0:0:0:
337,276,199310,1,0,3:0:0:0:
337,276,199396,2,0,L|344:219,1,46.0000008773804,2|0,3:2|3:0,0:0:0:0:
253,284,199568,2,0,L|270:402,1,92.0000017547608,2|8,1:2|1:2,0:0:0:0:
179,384,199913,1,0,3:0:0:0:
105,301,200086,5,0,1:0:0:0:
105,301,200172,1,0,3:0:0:0:
105,301,200259,1,0,3:0:0:0:
46,379,200431,1,8,1:2:0:0:
0,223,200603,5,0,3:0:0:0:
0,223,200689,1,0,3:0:0:0:
0,223,200775,2,0,L|6:268,1,46.0000008773804,2|0,3:2|3:0,0:0:0:0:
82,216,200948,2,0,L|90:125,1,92.0000017547608,2|8,1:2|1:2,0:0:0:0:
28,72,201293,1,0,3:0:0:0:
140,40,201465,5,0,1:0:0:0:
140,40,201551,1,0,3:0:0:0:
140,40,201638,1,0,3:0:0:0:
180,135,201810,1,8,1:2:0:0:
281,38,201982,5,0,3:0:0:0:
281,38,202068,1,0,3:0:0:0:
281,38,202154,2,0,L|236:44,1,46.0000008773804,2|0,3:2|3:0,0:0:0:0:
312,112,202327,2,0,L|404:126,1,92.0000017547608,2|8,1:2|1:2,0:0:0:0:
464,74,202672,1,0,3:0:0:0:
464,74,202758,1,0,3:0:0:0:
464,74,202844,5,2,1:2:0:0:
455,211,203017,2,0,L|363:225,1,92.0000017547608,2|8,3:2|1:2,0:0:0:0:
282,191,203362,1,0,3:0:0:0:
282,191,203448,1,0,3:0:0:0:
282,191,203534,5,2,1:2:0:0:
315,316,203706,2,0,L|407:330,1,92.0000017547608,2|8,3:2|1:2,0:0:0:0:
207,354,204051,1,0,3:0:0:0:
207,354,204138,1,0,3:0:0:0:
207,354,204223,2,0,P|200:308|216:259,1,92.0000017547608,0|0,1:0|3:0,0:0:0:0:
116,339,204568,1,8,1:2:0:0:
15,234,204741,5,0,3:0:0:0:
15,234,204827,1,0,3:0:0:0:
15,234,204913,2,0,L|19:279,1,46.0000008773804,2|0,3:2|3:0,0:0:0:0:
97,230,205086,2,0,L|104:134,1,92.0000017547608,2|8,1:2|1:2,0:0:0:0:
41,81,205430,1,0,3:0:0:0:
149,9,205603,5,0,1:0:0:0:
149,9,205689,1,0,3:0:0:0:
149,9,205775,1,0,3:0:0:0:
185,127,205948,1,8,1:2:0:0:
292,0,206120,5,0,3:0:0:0:
292,0,206206,1,0,3:0:0:0:
292,0,206292,2,0,L|247:6,1,46.0000008773804,2|0,3:2|3:0,0:0:0:0:
299,82,206466,2,0,L|391:96,1,92.0000017547608,2|8,1:2|1:2,0:0:0:0:
449,49,206810,1,0,3:0:0:0:
487,206,206982,5,0,1:0:0:0:
487,206,207068,1,0,3:0:0:0:
487,206,207154,1,0,3:0:0:0:
362,172,207327,1,8,1:2:0:0:
399,329,207499,5,0,3:0:0:0:
399,329,207586,1,0,3:0:0:0:
399,329,207671,2,0,L|393:374,1,46.0000008773804,2|0,3:2|3:0,0:0:0:0:
320,323,207844,2,0,L|306:231,1,92.0000017547608,2|8,1:2|1:2,0:0:0:0:
362,172,208189,1,0,3:0:0:0:
362,172,208275,1,0,3:0:0:0:
362,172,208361,5,2,1:2:0:0:
225,181,208534,2,0,L|211:273,1,92.0000017547608,2|0,3:2|3:0,0:0:0:0:
245,354,208879,1,0,3:0:0:0:
245,354,208965,1,0,3:0:0:0:
245,354,209051,5,2,3:2:0:0:
120,321,209223,2,0,L|106:229,1,92.0000017547608,2|0,3:2|3:0,0:0:0:0:
149,170,209568,1,0,3:0:0:0:
149,170,209741,5,0,3:0:0:0:
464,20,210430,2,0,L|303:40,1,160,2|0,3:2|0:0,0:0:0:0:
250,202,211120,1,2,3:2:0:0:
259,116,211292,1,2,0:0:0:0:
334,167,211464,2,0,L|351:261,1,80,2|2,0:0|0:0,0:0:0:0:
432,253,211809,2,0,P|468:237|505:250,1,80,2|0,3:2|0:0,0:0:0:0:
502,332,212154,2,0,P|464:344|428:329,1,80,2|0,0:0|0:0,0:0:0:0:
346,324,212499,2,0,P|268:348|174:384,1,160,2|0,3:2|0:0,0:0:0:0:
128,234,213188,5,2,3:2:0:0:
116,323,213361,1,2,0:0:0:0:
45,274,213533,2,0,L|28:180,1,80,2|2,0:0|0:0,0:0:0:0:
51,52,213879,2,0,P|22:78|18:117,1,80,2|0,3:2|0:0,0:0:0:0:
94,147,214223,2,0,P|120:118|121:79,1,80,2|0,0:0|0:0,0:0:0:0:
183,19,214568,2,0,B|226:2|250:-21|250:-21|280:2|330:12,1,160,2|0,3:2|0:0,0:0:0:0:
258,151,215258,1,2,3:2:0:0:
256,192,215948,12,0,219396,0:0:0:0:
