osu file format v14

[General]
AudioFilename: audio.mp3
AudioLeadIn: 0
PreviewTime: -1
Countdown: 1
SampleSet: Soft
StackLeniency: 0.7
Mode: 0
LetterboxInBreaks: 0
WidescreenStoryboard: 0

[Editor]
DistanceSpacing: 1
BeatDivisor: 4
GridSize: 8
TimelineZoom: 4.899997

[Metadata]
Title:All This Time
TitleUnicode:All This Time
Artist:Fox Stevenson
ArtistUnicode:Fox Stevenson
Creator:TSPage
Version:Hard
Source:
Tags:
BeatmapID:1248355
BeatmapSetID:589817

[Difficulty]
HPDrainRate:8.5
CircleSize:4
OverallDifficulty:9
ApproachRate:9
SliderMultiplier:1.55
SliderTickRate:2

[Events]
//Background and Video events
0,0,"fox-stevenon-all-this-time.jpg",0,0
//Break Periods
2,7441,10275
2,19628,20986
2,153173,176081
//Storyboard Layer 0 (Background)
//Storyboard Layer 1 (Fail)
//Storyboard Layer 2 (Pass)
//Storyboard Layer 3 (Foreground)
//Storyboard Sound Samples

[TimingPoints]
0,689.655172413793,4,2,0,100,1,0
8275,-100,4,2,0,100,0,0
10688,-100,4,2,0,5,0,0
11153,344.827586206897,4,2,0,86,1,0
16378,-100,4,2,0,86,0,0
22171,344.827586206897,4,2,0,86,1,0
22186,-133.333333333333,4,2,0,100,0,0
25140,-133.333333333333,4,2,0,30,0,0
25269,-133.333333333333,4,2,0,100,0,0
25528,-133.333333333333,4,2,0,30,0,0
25614,-100,4,2,0,100,0,0
25873,-133.333333333333,4,2,0,30,0,0
25959,-100,4,2,0,50,0,0
29498,-133.333333333333,4,2,0,50,0,0
32726,344.827586206897,4,2,0,50,1,0
33212,344.827586206897,4,2,0,90,1,0
38987,-100,4,2,0,50,0,0
39160,-100,4,2,0,90,0,0
43923,344.827586206897,4,2,0,90,1,0
50388,-100,4,2,0,50,0,0
50560,-100,4,2,0,85,0,0
55216,-80,4,2,0,85,0,0
66336,-80,4,2,0,85,0,1
87285,-66.6666666666667,4,2,0,85,0,1
93836,-50,4,2,0,85,0,1
94267,-66.6666666666667,4,2,0,85,0,1
96767,-50,4,2,0,85,0,1
97112,-66.6666666666667,4,2,0,85,0,1
107716,-66.6666666666667,4,2,0,85,0,0
124526,-80,4,2,0,85,0,0
124871,-100,4,2,0,85,0,0
126854,-66.6666666666667,4,2,0,85,0,0
133405,-100,4,2,0,85,0,0
134785,-66.6666666666667,4,2,0,85,0,0
179871,-66.6666666666667,4,2,0,85,0,0
189354,-80,4,2,0,85,0,0
189698,-66.6666666666667,4,2,0,85,0,0
192457,-100,4,2,0,85,0,0
192543,-100,4,2,0,85,0,1
209354,-50,4,2,0,85,0,1
211078,-66.6666666666667,4,2,0,85,0,1
218060,-66.6666666666667,4,2,0,85,0,0
219612,344.827586206897,4,2,0,85,1,0
219612,-66.6666666666667,4,2,0,85,0,1
220818,-66.6666666666667,4,2,0,85,0,1
225560,-50,4,2,0,85,0,1
226077,-66.6666666666667,4,2,0,85,0,1
236336,-100,4,2,0,85,0,1
237887,-66.6666666666667,4,2,0,85,0,1
238922,-100,4,2,0,85,0,1
239612,-66.6666666666667,4,2,0,85,0,1
242543,-66.6666666666667,4,2,0,85,0,1

[Colours]
Combo1 : 0,255,0
Combo2 : 255,255,0
Combo3 : 255,0,0
Combo4 : 0,0,128

[HitObjects]
256,192,689,12,0,7241,0:0:0:0:
368,64,11153,5,0,0:0:0:0:
152,80,11670,1,0,0:0:0:0:
88,136,11842,1,0,0:0:0:0:
168,160,12015,1,0,0:0:0:0:
128,304,12359,1,0,0:0:0:0:
128,304,12445,1,0,0:0:0:0:
128,304,12532,2,0,P|168:336|224:320,1,77.5
288,336,12877,5,0,0:0:0:0:
288,336,12963,1,0,0:0:0:0:
288,336,13049,1,0,0:0:0:0:
378,300,13221,2,0,P|394:252|322:180,1,155
257,177,13911,1,0,0:0:0:0:
424,136,14428,5,0,0:0:0:0:
440,184,14600,1,0,0:0:0:0:
408,88,14772,1,0,0:0:0:0:
272,64,15116,1,0,0:0:0:0:
272,64,15202,1,0,0:0:0:0:
272,64,15289,2,0,P|200:56|176:72,1,77.5
80,144,15634,5,0,0:0:0:0:
88,152,15721,1,0,0:0:0:0:
88,152,15807,1,0,0:0:0:0:
176,192,15979,2,0,L|256:112,1,77.5
272,48,16324,5,4,0:0:0:0:
456,96,16670,1,4,0:0:0:0:
416,216,17187,5,0,0:0:0:0:
416,328,17359,1,0,0:0:0:0:
296,280,17532,1,0,0:0:0:0:
168,304,17876,1,0,0:0:0:0:
168,304,17963,1,0,0:0:0:0:
168,304,18049,2,0,P|136:288|152:248,1,77.5
176,160,18394,5,0,0:0:0:0:
184,144,18480,1,0,0:0:0:0:
192,128,18566,1,0,0:0:0:0:
200,112,18739,2,0,P|232:88|264:104,1,77.5
368,144,19084,5,0,0:0:0:0:
400,272,19256,1,0,0:0:0:0:
368,144,19428,1,0,0:0:0:0:
416,224,22171,5,0,0:0:0:0:
272,304,22472,1,0,0:0:0:0:
112,232,22860,2,0,P|144:96|232:48,1,232.500008869171
312,96,23722,5,0,0:0:0:0:
400,128,23895,1,0,0:0:0:0:
328,200,24067,1,0,0:0:0:0:
376,264,24240,2,0,P|360:296|320:296,1,58.1250022172929
256,304,24585,1,0,0:0:0:0:
128,264,24757,1,0,0:0:0:0:
144,152,24930,6,0,P|192:128|200:96,1,87.1875033259393
248,48,25274,2,0,P|296:48|312:80,1,87.1875033259393
312,144,25619,2,0,P|344:240|480:272,1,232.5
224,320,27171,6,0,P|144:288|112:224,1,155
112,136,27688,2,0,P|184:88|272:64,2,155
312,128,29584,6,0,P|368:144|376:160,1,58.1250022172929,0|0,2:2|2:2,2:2:0:0:
360,224,29929,2,0,P|312:248|232:256,2,116.250004434586
168,80,32726,5,0,0:0:0:0:
240,40,32898,1,0,0:0:0:0:
240,112,33070,1,0,0:0:0:0:
160,216,33212,5,0,0:0:0:0:
328,152,33556,1,0,0:0:0:0:
144,280,33901,1,0,0:0:0:0:
240,344,34763,5,0,0:0:0:0:
160,240,34936,1,0,0:0:0:0:
392,264,35108,5,0,0:0:0:0:
456,200,35280,1,0,0:0:0:0:
320,200,35453,1,0,0:0:0:0:
472,136,35626,1,0,0:0:0:0:
296,136,35798,1,0,0:0:0:0:
392,56,35970,1,0,0:0:0:0:
288,96,36315,1,4,0:0:0:0:
208,40,36660,6,8,B|88:56|56:120|56:120|56:320|56:320|144:320,1,465,4|0,0:0|0:0,0:0:0:0:
304,240,38125,1,0,0:0:0:0:
200,120,38298,1,0,0:0:0:0:
112,264,38729,2,0,B|136:352|248:344|248:344,2,155
224,48,41143,5,0,0:0:0:0:
240,56,41315,1,0,0:0:0:0:
300,108,41487,1,0,0:0:0:0:
336,136,41573,1,0,0:0:0:0:
340,176,41659,1,0,0:0:0:0:
320,208,41746,1,0,0:0:0:0:
280,220,41832,5,0,0:0:0:0:
244,232,41918,1,0,0:0:0:0:
208,244,42004,1,0,0:0:0:0:
176,268,42091,1,0,0:0:0:0:
156,296,42177,1,0,0:0:0:0:
136,328,42263,1,0,0:0:0:0:
108,304,42349,5,0,0:0:0:0:
88,268,42435,1,0,0:0:0:0:
84,228,42522,1,0,0:0:0:0:
92,192,42608,1,0,0:0:0:0:
108,156,42694,1,0,0:0:0:0:
132,120,42780,1,0,0:0:0:0:
156,92,42867,2,0,B|172:80|172:80|204:76,12,38.75
236,0,44267,5,8,3:3:0:0:
384,80,44785,2,0,P|444:132|448:216,1,155
352,288,45474,1,0,0:0:0:0:
64,80,45819,2,0,L|136:32,1,77.5
208,80,46164,5,0,0:0:0:0:
288,16,46336,2,0,P|384:16|448:64,1,155
112,272,47026,1,8,3:3:0:0:
256,336,47543,2,0,P|352:336|400:304,1,155
400,0,48233,1,0,0:0:0:0:
208,112,48578,1,0,0:0:0:0:
352,192,48750,1,0,0:0:0:0:
208,288,48923,1,0,0:0:0:0:
216,192,49095,5,8,3:3:0:0:
88,104,49267,1,0,0:0:0:0:
88,272,49440,1,0,0:0:0:0:
448,80,49785,6,0,P|360:56|272:64,1,155,0|0,3:3|0:0,3:3:0:0:
112,64,50302,1,0,0:0:0:0:
208,176,50474,5,8,3:3:0:0:
152,304,50647,2,0,P|176:344|232:352,1,77.5
440,72,50991,5,0,0:0:0:0:
440,232,51164,2,0,L|368:304,2,77.5
72,232,51681,2,0,L|144:304,2,77.5
96,192,52543,2,0,L|128:264,1,77.5,0|0,3:3|3:3,3:3:0:0:
416,192,52888,2,0,L|384:264,1,77.5,0|0,3:3|3:3,3:3:0:0:
152,192,53233,2,0,L|184:264,1,77.5,0|0,3:3|3:3,3:3:0:0:
360,192,53578,2,0,L|328:264,1,77.5,0|0,3:3|3:3,3:3:0:0:
408,64,53923,5,0,3:3:0:0:
320,140,54095,1,0,3:3:0:0:
256,48,54267,1,0,3:3:0:0:
144,76,54440,1,0,3:3:0:0:
48,152,54612,1,0,3:3:0:0:
128,240,54785,2,0,P|120:288|88:336,1,77.5
368,64,55302,6,0,P|440:152|432:232,1,193.75
280,288,55819,1,0,0:0:0:0:
144,256,55991,2,0,L|96:136,1,96.875
256,64,56336,5,0,0:0:0:0:
376,112,56509,1,0,0:0:0:0:
448,232,56681,2,0,P|400:296|376:288,1,96.875
264,304,57026,1,0,0:0:0:0:
144,304,57198,2,0,P|80:272|72:248,1,96.875
136,272,57543,2,0,P|120:224|144:176,1,96.875
256,32,58060,1,0,0:0:0:0:
160,192,58578,6,0,P|224:256|320:192,1,193.75
320,32,59267,1,0,0:0:0:0:
320,32,59440,1,0,0:0:0:0:
288,224,59612,1,0,0:0:0:0:
448,224,59785,1,0,0:0:0:0:
416,384,59957,1,0,0:0:0:0:
24,320,60302,6,0,L|104:280,1,77.5
416,96,60819,5,0,0:0:0:0:
96,192,61164,1,0,0:0:0:0:
416,288,61509,1,0,0:0:0:0:
152,288,61681,5,0,0:0:0:0:
200,248,61854,1,0,0:0:0:0:
248,208,62026,1,0,0:0:0:0:
296,168,62198,1,0,0:0:0:0:
336,120,62371,1,0,0:0:0:0:
280,104,62543,5,0,0:0:0:0:
224,104,62716,1,0,0:0:0:0:
168,104,62888,1,0,0:0:0:0:
112,120,63060,1,0,0:0:0:0:
80,232,63233,1,0,0:0:0:0:
200,232,63405,2,0,P|256:192|256:168,1,77.5
400,208,63664,5,0,0:0:0:0:
400,200,63750,1,0,0:0:0:0:
400,192,63836,1,0,0:0:0:0:
400,184,63923,1,0,0:0:0:0:
400,176,64009,1,0,0:0:0:0:
400,168,64095,1,0,0:0:0:0:
400,160,64181,5,0,0:0:0:0:
400,152,64267,1,0,0:0:0:0:
400,144,64354,1,0,0:0:0:0:
400,136,64440,1,0,0:0:0:0:
400,128,64526,1,0,0:0:0:0:
400,120,64612,1,0,0:0:0:0:
400,112,64698,5,0,0:0:0:0:
392,96,64785,1,0,0:0:0:0:
384,88,64871,1,0,0:0:0:0:
376,80,64957,1,0,0:0:0:0:
368,72,65043,1,0,0:0:0:0:
360,64,65129,1,0,0:0:0:0:
352,56,65216,5,0,0:0:0:0:
344,56,65302,1,0,0:0:0:0:
336,56,65388,1,0,0:0:0:0:
328,56,65474,1,0,0:0:0:0:
320,56,65560,1,0,0:0:0:0:
312,56,65647,1,0,0:0:0:0:
304,56,65733,1,0,0:0:0:0:
296,56,65819,1,0,0:0:0:0:
288,56,65905,1,0,0:0:0:0:
280,56,65991,1,0,0:0:0:0:
400,328,66336,5,14,0:3:0:0:
400,328,66509,1,0,0:0:0:0:
176,280,66854,1,0,0:0:0:0:
256,104,67198,1,0,0:0:0:0:
472,104,67543,1,0,0:0:0:0:
472,104,67716,1,0,0:0:0:0:
464,336,67888,2,0,L|352:280,1,96.875
224,192,68233,6,0,L|312:256,1,96.875
160,128,68578,1,0,0:0:0:0:
312,32,68750,1,0,0:0:0:0:
448,200,69095,1,0,0:0:0:0:
448,200,69267,1,0,0:0:0:0:
96,232,69612,2,0,L|248:280,1,145.3125
344,128,70302,5,0,0:0:0:0:
344,128,70474,1,0,0:0:0:0:
192,24,70647,1,0,0:0:0:0:
80,112,70819,1,0,0:0:0:0:
96,272,70991,1,0,0:0:0:0:
304,240,71336,2,0,L|400:216,1,96.875
412,68,71854,5,0,0:0:0:0:
436,92,72026,1,0,0:0:0:0:
184,48,72371,1,0,0:0:0:0:
136,216,72716,1,0,0:0:0:0:
312,320,73060,1,0,0:0:0:0:
384,224,73233,1,0,0:0:0:0:
312,128,73405,1,0,0:0:0:0:
200,88,73578,1,0,0:0:0:0:
104,152,73750,1,0,0:0:0:0:
376,160,74095,5,0,0:0:0:0:
464,264,74267,1,0,0:0:0:0:
360,376,74440,1,0,0:0:0:0:
224,360,74612,2,0,P|184:224|304:128,1,290.625
328,88,75474,5,2,0:0:0:0:
336,96,75647,1,0,0:0:0:0:
192,160,75819,1,0,0:0:0:0:
256,192,76164,12,0,77371,0:0:0:0:
392,288,77888,5,0,0:0:0:0:
384,104,78233,1,0,0:0:0:0:
96,112,78578,1,0,0:0:0:0:
64,224,78923,2,0,P|104:264|152:248,1,96.875
256,216,79267,1,0,0:0:0:0:
424,40,79612,2,0,L|480:128,1,96.875
144,160,80129,1,0,0:0:0:0:
456,272,80647,2,0,B|408:304|360:232|280:288,1,145.3125
272,336,81336,5,0,0:0:0:0:
400,240,81681,1,0,0:0:0:0:
424,144,81854,1,0,0:0:0:0:
368,72,82026,1,0,0:0:0:0:
96,80,82371,2,0,L|160:168,1,96.875
168,272,82888,5,0,0:0:0:0:
440,272,83405,1,0,0:0:0:0:
376,104,83750,1,0,0:0:0:0:
456,144,84095,1,0,0:0:0:0:
416,256,84440,2,0,B|392:304|392:304|352:264,1,96.875
248,256,84785,1,0,0:0:0:0:
184,160,85129,1,0,0:0:0:0:
284,68,85302,1,0,0:0:0:0:
208,208,85474,1,0,0:0:0:0:
256,20,85647,1,0,0:0:0:0:
312,264,86509,6,0,B|352:256|352:256|360:208|360:208|392:184,2,96.875
168,288,87198,1,0,0:0:0:0:
88,232,87371,2,0,B|136:192|136:192|136:144|160:120,1,116.250004434586
208,72,87716,2,0,B|272:104|272:104|296:80|336:80,3,116.250004434586
416,192,88405,5,0,0:0:0:0:
120,256,88923,2,0,B|96:104|96:104|176:144,1,232.500008869171
288,184,89612,1,0,0:0:0:0:
448,128,89957,1,0,0:0:0:0:
328,48,90129,1,0,0:0:0:0:
176,48,90302,1,0,0:0:0:0:
72,240,90647,1,0,0:0:0:0:
80,336,90819,1,0,0:0:0:0:
392,240,91164,5,0,0:0:0:0:
392,240,91336,2,0,P|336:272|272:272,1,116.250004434586
0,224,91681,1,0,0:0:0:0:
280,128,92026,1,0,0:0:0:0:
336,256,92371,1,0,0:0:0:0:
408,96,92543,1,0,0:0:0:0:
424,280,92716,1,0,0:0:0:0:
480,112,92888,1,0,0:0:0:0:
408,24,93060,2,0,P|344:16|296:32,1,116.250004434586
128,72,93405,5,0,0:0:0:0:
64,136,93578,1,0,0:0:0:0:
288,264,93923,2,0,B|328:240|320:200|288:192|256:200|256:200|304:264,1,155
376,288,94440,5,0,0:0:0:0:
176,264,94785,1,0,0:0:0:0:
360,56,95129,2,0,B|272:80|272:80|256:128,1,116.250004434586
208,224,95474,1,0,0:0:0:0:
264,296,95647,2,0,B|272:328|272:328|320:352|320:352|352:304|352:304,1,116.250004434586
456,192,96164,2,0,B|440:152|440:152|408:192|360:152,1,116.250004434586
264,112,96509,2,0,B|224:24|224:24|200:56|208:88,1,116.250004434586
160,112,96854,6,0,B|136:144|136:144|152:168|152:168|120:200|120:200|160:224|160:224|168:248|144:288,1,155
240,344,97371,5,0,0:0:0:0:
324,200,97543,1,0,0:0:0:0:
392,240,97716,2,0,P|312:124|276:264,1,348.750013303757
432,60,99440,6,0,L|432:196,1,116.250004434586
364,272,99785,1,0,0:0:0:0:
272,308,99957,1,0,0:0:0:0:
272,308,100129,2,0,P|216:264|164:272,1,116.250004434586
72,296,100474,1,0,0:0:0:0:
144,120,100647,2,0,L|72:216,1,116.250004434586
72,296,100991,1,0,0:0:0:0:
160,288,101164,2,0,P|208:240|272:220,1,116.250004434586
428,256,101681,6,0,P|464:208|460:144,1,116.250004434586
256,64,102198,5,0,0:0:0:0:
192,216,102543,2,0,B|148:156|144:152|144:96,1,116.250004434586
108,256,103060,1,0,0:0:0:0:
296,312,103405,1,0,0:0:0:0:
296,312,103578,1,0,0:0:0:0:
376,232,103750,2,0,P|396:156|372:124,2,116.250004434586
296,312,104267,1,0,0:0:0:0:
236,160,104440,2,0,L|156:260,1,116.250004434586
272,116,104957,5,0,0:0:0:0:
272,116,105129,1,0,0:0:0:0:
392,200,105474,2,0,B|496:336|304:352|408:236,1,232.500008869171
448,96,106164,1,0,0:0:0:0:
352,44,106336,2,0,L|272:160,1,116.250004434586
264,240,106681,1,0,0:0:0:0:
336,308,106854,2,0,B|352:384|192:360|152:216,1,232.500008869171
144,120,107371,1,0,0:0:0:0:
264,88,107543,1,0,0:0:0:0:
372,152,107716,6,0,B|400:340|240:336|-4:280|64:64|196:24|384:56|400:112|368:284|304:288|192:172,1,813.7500310421
197,178,109267,1,0,0:0:0:0:
252,76,110474,5,0,0:0:0:0:
252,76,110647,1,0,0:0:0:0:
352,220,110819,2,0,B|372:152|480:116|504:160|456:248,1,232.500008869171
296,108,111854,1,0,0:0:0:0:
192,244,112026,1,0,0:0:0:0:
352,168,112199,1,0,0:0:0:0:
444,264,112371,1,0,0:0:0:0:
328,188,112543,1,0,0:0:0:0:
200,160,112716,2,0,P|176:88|204:32,1,116.250004434586
320,48,113060,6,0,L|392:144,1,116.250004434586
444,316,113578,1,0,0:0:0:0:
240,244,113923,1,0,0:0:0:0:
196,76,115474,5,0,0:0:0:0:
196,76,115647,1,0,0:0:0:0:
288,120,115991,2,0,P|244:168|244:224,1,116.250004434586
320,196,116336,2,0,P|328:260|284:312,1,116.250004434586
156,220,116681,2,0,P|176:280|356:260,1,232.500008869171
408,200,117371,5,0,0:0:0:0:
404,116,117543,1,0,0:0:0:0:
348,52,117716,1,0,0:0:0:0:
276,112,117888,2,0,P|216:148|164:116,1,116.250004434586
88,64,118233,1,0,0:0:0:0:
232,128,118405,1,0,0:0:0:0:
120,256,118750,5,0,0:0:0:0:
120,256,118923,1,0,0:0:0:0:
232,192,119095,2,0,L|232:320,1,116.250004434586
288,348,119440,1,0,0:0:0:0:
344,308,119612,2,0,L|344:180,1,116.250004434586
344,84,119957,1,0,0:0:0:0:
168,252,120302,1,0,0:0:0:0:
416,116,120647,2,0,P|424:168|376:216,1,116.250004434586
272,240,120991,5,0,0:0:0:0:
152,184,121164,5,0,0:0:0:0:
264,108,121336,1,0,0:0:0:0:
336,52,121509,2,0,L|432:132,1,116.250004434586
384,180,121854,2,0,L|288:100,1,116.250004434586
248,156,122198,2,0,B|344:236|344:236|376:296|296:320,1,232.500008869171
100,88,123060,5,0,0:0:0:0:
100,88,123233,1,0,0:0:0:0:
136,220,123405,1,0,0:0:0:0:
256,140,123577,1,0,0:0:0:0:
220,276,123750,1,0,0:0:0:0:
348,192,123922,1,0,0:0:0:0:
300,332,124094,1,0,0:0:0:0:
480,288,124267,6,0,L|448:160,1,116.250004434586
384,192,124612,2,0,L|416:320,1,96.875
336,288,124957,2,0,L|312:192,1,77.5
280,120,125302,1,0,0:0:0:0:
168,88,125474,1,0,0:0:0:0:
72,152,125647,1,0,0:0:0:0:
88,264,125819,2,0,P|128:304|176:288,3,77.5
256,256,126509,5,0,0:0:0:0:
336,176,126681,1,0,0:0:0:0:
136,48,127026,2,0,B|184:136|72:208|128:280,2,232.500008869171
256,192,129440,12,0,131854,0:0:0:0:
256,88,132198,6,0,L|112:128,1,116.250004434586
80,248,132543,1,0,0:0:0:0:
232,312,132888,1,0,0:0:0:0:
232,312,133060,1,0,0:0:0:0:
312,152,133405,2,0,L|352:304,1,155
416,304,133923,2,0,L|440:216,1,77.5
416,80,134267,2,0,L|440:168,1,77.5
360,208,134612,1,0,0:0:0:0:
280,224,134785,2,0,B|216:240|168:280|168:280|111:240|184:176,1,232.500008869171
104,88,135647,5,0,0:0:0:0:
104,88,135819,1,0,0:0:0:0:
256,88,136336,2,0,B|232:168|328:248|288:328,1,232.500008869171
392,136,137198,1,0,0:0:0:0:
392,136,137371,1,0,0:0:0:0:
392,136,137543,2,0,P|344:168|320:224,1,116.250004434586
312,312,137888,2,0,B|240:328|216:312|216:312|184:328|88:272,1,232.500008869171
72,160,138405,1,0,0:0:0:0:
176,112,138578,1,0,0:0:0:0:
400,96,139612,5,0,0:0:0:0:
400,96,139785,1,0,0:0:0:0:
328,248,139957,2,0,B|272:112|272:112|224:184,1,232.500008869171
184,248,140474,1,0,0:0:0:0:
256,320,140991,2,0,B|368:320|448:208|320:120|264:240|256:320,1,348.750013303757
288,72,143060,6,0,P|360:96|368:136,1,116.250004434586
352,288,143578,6,0,B|248:256|240:192|144:152,1,232.500008869171
96,144,145474,5,0,0:0:0:0:
96,240,145647,5,0,0:0:0:0:
176,304,145819,5,0,0:0:0:0:
224,72,146164,2,0,L|280:184,1,116.250004434586
320,112,146509,2,0,L|376:224,1,116.250004434586
296,216,146854,2,0,B|352:328|352:328|242:295|128:352|128:352,1,348.750013303757
88,128,148233,5,0,0:0:0:0:
88,128,148405,1,0,0:0:0:0:
168,144,148578,2,0,P|120:200|144:240,1,116.250004434586
208,264,148923,1,0,0:0:0:0:
336,40,149267,1,0,0:0:0:0:
336,40,149440,2,0,P|392:56|440:144,1,116.250004434586
320,224,150991,6,0,B|240:192|216:136|216:136|288:152|288:208,1,232.500008869171
344,288,152198,6,0,B|424:264|416:168|320:96|208:112|136:184|128:256|40:272|16:128|96:56|104:64,1,523.125019955636
96,200,176681,5,0,0:0:0:0:
144,88,176854,1,0,0:0:0:0:
144,88,177198,2,0,B|208:120|208:120|264:88,1,116.250004434586
352,128,177543,1,0,0:0:0:0:
352,240,177716,1,0,0:0:0:0:
200,280,177888,2,0,L|88:232,4,116.250004434586
296,312,178750,5,0,0:0:0:0:
424,208,179095,1,0,0:0:0:0:
424,208,179267,1,0,0:0:0:0:
424,208,179440,2,0,P|424:144|344:104,1,116.250004434586
176,72,179957,5,0,0:0:0:0:
96,144,180129,2,0,L|168:192,1,77.5
224,224,180474,2,0,L|304:272,1,77.5
360,304,180819,2,0,L|360:208,1,77.5
312,176,181164,2,0,L|232:128,1,77.5
168,96,181509,1,0,0:0:0:0:
112,168,181681,6,0,P|120:264|152:264,1,155
240,224,182198,1,0,0:0:0:0:
336,64,182543,1,0,0:0:0:0:
472,192,182888,1,0,0:0:0:0:
360,248,184095,6,0,P|304:208|288:216,1,77.5
305,207,184440,2,0,B|240:184|216:144|152:112|96:168,1,232.5
96,64,187198,5,0,0:0:0:0:
96,64,187371,1,0,0:0:0:0:
96,64,187543,1,0,0:0:0:0:
200,120,187716,2,0,B|256:144|256:144|336:104,1,116.250004434586
400,72,188060,1,0,0:0:0:0:
400,168,188233,2,0,B|399:230|399:230|336:216,1,116.250004434586
144,136,188923,5,0,0:0:0:0:
144,136,189095,2,0,L|224:224,1,116.250004434586
192,88,189440,2,0,L|272:176,1,96.875
240,40,189785,2,0,L|320:128,1,116.250004434586
384,200,190129,5,0,0:0:0:0:
384,200,190302,1,0,0:0:0:0:
288,256,190474,2,0,B|240:208|240:208|208:200|176:208,1,116.250004434586
200,280,190819,2,0,B|136:264|136:264|112:232|120:200,1,116.250004434586
144,128,191164,1,0,0:0:0:0:
232,72,191336,1,0,0:0:0:0:
328,64,191509,1,0,0:0:0:0:
432,88,191681,1,0,0:0:0:0:
304,176,191854,6,0,L|344:288,1,116.250004434586
280,312,192198,2,0,L|240:192,1,116.250004434586
200,288,192543,2,0,L|184:240,4,38.75
168,192,192974,2,0,L|96:216,4,38.75
200,136,193405,2,0,L|232:88,4,38.75
248,184,193836,2,0,L|304:152,4,38.75
288,240,194267,2,0,L|344:208,4,38.75
232,272,194698,2,0,L|264:328,4,38.75
320,336,195129,2,0,L|272:368,4,38.75
400,296,195647,6,0,P|408:240|400:208,1,77.5
384,184,195991,1,0,0:0:0:0:
360,152,196077,1,0,0:0:0:0:
320,136,196163,1,0,0:0:0:0:
280,144,196250,1,0,0:0:0:0:
240,136,196336,5,0,0:0:0:0:
216,100,196422,1,0,0:0:0:0:
180,88,196508,1,0,0:0:0:0:
148,64,196595,1,0,0:0:0:0:
128,36,196681,1,0,0:0:0:0:
108,4,196767,1,0,0:0:0:0:
80,28,196853,5,0,0:0:0:0:
60,64,196939,1,0,0:0:0:0:
56,104,197026,1,0,0:0:0:0:
64,140,197112,1,0,0:0:0:0:
80,176,197198,1,0,0:0:0:0:
104,212,197284,1,0,0:0:0:0:
128,240,197371,2,0,B|144:252|144:252|176:256,12,38.75
448,172,198750,5,8,3:3:0:0:
368,320,199268,2,0,P|316:380|232:384,1,155
160,288,199957,1,0,0:0:0:0:
368,0,200302,2,0,L|416:72,1,77.5
376,144,200647,5,0,0:0:0:0:
416,176,200733,1,0,0:0:0:0:
432,224,200819,2,0,P|432:320|384:384,1,155
176,48,201509,1,8,3:3:0:0:
112,192,202026,2,0,P|112:288|144:336,1,155
448,336,202716,1,0,0:0:0:0:
336,144,203061,1,0,0:0:0:0:
256,288,203233,1,0,0:0:0:0:
160,144,203406,1,0,0:0:0:0:
256,152,203578,5,8,3:3:0:0:
344,24,203750,1,0,0:0:0:0:
176,24,203923,1,0,0:0:0:0:
368,384,204268,6,0,P|392:296|384:208,1,155,0|0,3:3|0:0,3:3:0:0:
384,48,204785,1,0,0:0:0:0:
272,144,204957,5,8,3:3:0:0:
144,88,205130,2,0,P|104:112|96:168,1,77.5
376,376,205474,5,0,0:0:0:0:
216,376,205647,2,0,L|144:304,2,77.5
216,8,206164,2,0,L|144:80,2,77.5
432,144,206681,1,0,0:0:0:0:
432,144,206854,1,0,0:0:0:0:
256,32,207026,2,0,L|184:64,1,77.5,0|0,3:3|3:3,3:3:0:0:
256,352,207371,2,0,L|184:320,1,77.5,0|0,3:3|3:3,3:3:0:0:
256,88,207716,2,0,L|184:120,1,77.5,0|0,3:3|3:3,3:3:0:0:
256,296,208061,2,0,L|184:264,1,77.5,0|0,3:3|3:3,3:3:0:0:
384,344,208406,5,0,3:3:0:0:
308,256,208578,1,0,3:3:0:0:
400,192,208750,1,0,3:3:0:0:
372,80,208923,1,0,3:3:0:0:
208,64,209095,1,0,3:3:0:0:
208,64,209181,1,0,0:0:0:0:
208,64,209267,1,0,0:0:0:0:
208,64,209354,2,0,P|144:64|120:96,1,77.5
288,248,209785,5,0,0:0:0:0:
288,248,209957,1,0,0:0:0:0:
352,144,210302,1,0,0:0:0:0:
352,144,210388,1,0,0:0:0:0:
352,144,210474,1,0,0:0:0:0:
352,144,210560,2,0,P|304:104|272:96,1,77.5
168,72,210819,1,0,0:0:0:0:
168,72,210991,1,0,0:0:0:0:
96,184,211164,6,0,B|136:240|136:240|216:264,1,116.250004434586
248,184,211509,1,0,0:0:0:0:
416,184,211681,2,0,B|376:240|376:240|296:264,1,116.250004434586
248,272,212026,1,0,0:0:0:0:
248,272,212198,1,0,0:0:0:0:
96,208,212543,2,0,B|96:120|96:120|136:88,1,116.250004434586
272,48,213060,5,0,0:0:0:0:
416,208,213405,1,0,0:0:0:0:
184,248,213750,1,0,0:0:0:0:
120,88,214095,1,0,0:0:0:0:
296,144,214267,1,0,0:0:0:0:
120,72,214440,1,0,0:0:0:0:
56,176,214785,6,0,B|40:224|40:224|80:288,1,116.250004434586
256,304,215302,1,0,0:0:0:0:
256,304,215388,1,0,0:0:0:0:
256,304,215474,1,0,0:0:0:0:
256,304,215560,1,0,0:0:0:0:
256,304,215647,2,0,P|336:256|344:216,1,116.250004434586,0|2,0:0|1:0,0:0:0:0:
320,96,215991,6,0,B|216:112|216:112|168:160,1,116.250004434586
104,184,216336,1,0,0:0:0:0:
312,224,216509,1,0,0:0:0:0:
184,304,216681,1,0,0:0:0:0:
240,104,216854,1,0,0:0:0:0:
400,96,217026,2,0,B|440:152|440:152|424:232,1,116.250004434586
272,272,217543,2,0,P|184:304|160:272,1,116.250004434586
160,184,217888,1,0,0:0:0:0:
256,192,218060,12,0,219095,0:0:0:0:
344,80,219612,6,0,L|320:160,1,58.1250022172929
256,144,219784,2,0,L|288:208,1,58.1250022172929
336,256,219956,2,0,L|288:328,1,58.1250022172929
224,336,220129,1,0,0:0:0:0:
128,296,220301,1,0,0:0:0:0:
104,200,220474,2,0,B|112:112|112:112|184:112,1,116.250004434586
256,88,220818,5,0,0:0:0:0:
376,160,221163,1,0,0:0:0:0:
376,160,221336,1,0,0:0:0:0:
376,160,221508,2,0,P|336:240|296:248,1,116.250004434586
184,256,221853,2,0,P|128:272|96:320,1,116.250004434586
184,336,222198,2,0,P|240:328|272:264,1,116.250004434586
256,184,222543,2,0,P|240:128|280:88,1,116.250004434586
368,80,222887,2,0,P|432:112|456:160,1,116.250004434586
368,264,223232,5,0,0:0:0:0:
368,264,223318,1,0,0:0:0:0:
368,264,223405,1,0,0:0:0:0:
368,264,223491,1,0,0:0:0:0:
368,264,223577,2,0,B|296:304|296:304|248:280,1,116.250004434586
152,216,223922,1,0,0:0:0:0:
208,144,224094,2,0,L|304:72,2,116.250004434586
256,194,224612,2,0,L|352:122,2,116.250004434586
256,264,225129,1,0,0:0:0:0:
368,264,225301,6,0,P|424:192|400:136,1,116.250004434586
336,72,225646,1,0,0:0:0:0:
336,72,225818,1,0,0:0:0:0:
232,72,225991,1,0,0:0:0:0:
232,72,226077,1,0,0:0:0:0:
232,72,226163,2,0,P|176:104|152:168,1,116.250004434586
200,264,226508,6,0,B|272:216|272:216|336:264,1,116.250004434586
376,288,226853,1,0,0:0:0:0:
376,288,227025,1,0,0:0:0:0:
440,192,227198,2,0,B|424:112|392:72|376:64,1,116.250004434586
288,48,227543,5,0,0:0:0:0:
192,120,227715,2,0,B|208:200|240:240|256:248,1,116.250004434586
344,280,228060,1,0,0:0:0:0:
344,120,228232,2,0,L|264:232,1,116.250004434586
192,280,228577,1,0,0:0:0:0:
192,280,228749,1,0,0:0:0:0:
192,280,228922,1,0,0:0:0:0:
256,192,229094,12,0,231594,0:0:0:0:
328,168,231853,5,0,0:0:0:0:
248,64,232025,2,0,B|168:96|168:96|128:144,1,116.250004434586
88,216,232370,1,0,0:0:0:0:
144,296,232543,2,0,B|224:264|224:264|288:296,1,116.250004434586
352,320,232887,5,0,0:0:0:0:
352,320,232974,1,0,0:0:0:0:
352,320,233060,1,0,0:0:0:0:
352,320,233146,1,0,0:0:0:0:
352,320,233232,2,0,P|408:264|416:224,1,116.250004434586
376,144,233577,1,0,0:0:0:0:
264,80,233749,2,0,P|216:120|216:192,1,116.250004434586
240,272,234094,5,0,0:0:0:0:
240,272,234267,1,0,0:0:0:0:
240,272,234439,1,0,0:0:0:0:
240,272,234612,1,0,0:0:0:0:
296,176,234784,2,0,B|336:248|336:248|392:216,1,116.250004434586
448,192,235129,5,0,0:0:0:0:
400,120,235301,2,0,B|360:160|360:160|360:224,1,116.250004434586
408,296,235646,2,0,B|448:256|448:256|448:192,1,116.250004434586
448,112,235991,2,0,B|448:56|448:56|416:40|376:56,1,116.250004434586
256,96,236336,2,0,L|184:144,4,77.5
416,80,237370,5,0,0:0:0:0:
416,80,237543,1,0,0:0:0:0:
248,256,237887,2,0,B|224:144|224:144|144:192,1,174.375006651879
96,128,238577,1,0,0:0:0:0:
272,120,238749,1,0,0:0:0:0:
272,120,238836,1,0,0:0:0:0:
272,120,238922,2,0,P|312:144|320:184,2,77.5
96,176,239612,6,0,P|120:256|184:272,1,116.250004434586
232,224,239956,2,0,P|288:248|312:304,1,116.250004434586
360,72,240991,2,0,B|408:96|408:96|408:176,1,116.250004434586
328,248,241336,1,0,0:0:0:0:
120,304,241680,1,0,0:0:0:0:
