osu file format v14

[General]
AudioFilename: audio.ogg
AudioLeadIn: 0
PreviewTime: 66216
Countdown: 0
SampleSet: Soft
StackLeniency: 0.7
Mode: 0
LetterboxInBreaks: 0
WidescreenStoryboard: 1

[Editor]
Bookmarks: 143529
DistanceSpacing: 1.2
BeatDivisor: 4
GridSize: 4
TimelineZoom: 1

[Metadata]
Title:All This Time
TitleUnicode:All This Time
Artist:Fox Stevenson
ArtistUnicode:Fox Stevenson
Creator:Kyshiro
Version:Hard
Source:
Tags:drum and bass dnb electronic english stan sb AnimeStyle Asphyxia
BeatmapID:3043591
BeatmapSetID:956634

[Difficulty]
HPDrainRate:5
CircleSize:3.6
OverallDifficulty:7
ApproachRate:8
SliderMultiplier:1.4
SliderTickRate:1

[Events]
//Background and Video events
0,0,"wallpaper-1406694.jpg",0,0
//Break Periods
2,107796,109604
2,129865,131673
2,154692,164777
2,174002,175811
//Storyboard Layer 0 (Background)
//Storyboard Layer 1 (Fail)
//Storyboard Layer 2 (Pass)
//Storyboard Layer 3 (Foreground)
//Storyboard Layer 4 (Overlay)
//Storyboard Sound Samples

[TimingPoints]
10,344.827586206897,4,2,1,50,1,0
22078,-125,4,2,1,50,0,0
33113,-111.111111111111,4,2,1,65,0,0
44147,-111.111111111111,4,2,1,65,0,0
55182,-100,4,2,1,60,0,0
64837,-100,4,2,1,60,0,0
66216,-90.9090909090909,4,2,1,95,0,1
76906,-90.9090909090909,4,2,1,95,0,0
77251,-90.9090909090909,4,2,1,95,0,1
85527,-90.9090909090909,4,2,1,75,0,1
88285,-100,4,2,1,80,0,0
96561,-100,4,2,1,80,0,0
99320,-100,4,2,1,80,0,0
107596,-100,4,2,1,80,0,0
110354,-111.111111111111,4,2,1,80,0,0
129665,-111.111111111111,4,2,1,75,0,0
129837,-111.111111111111,4,2,1,50,0,0
132423,-125,4,2,1,80,0,0
143458,-142.857142857143,4,2,1,60,0,0
153285,-142.857142857143,4,2,1,50,0,0
165527,-200,4,2,1,50,0,0
176561,-125,4,2,1,50,0,0
187596,-105.263157894737,4,2,1,65,0,0
197941,-105.263157894737,4,2,1,70,0,0
198630,-90.9090909090909,4,2,1,95,0,1
209320,-90.9090909090909,4,2,1,95,0,0
209665,-90.9090909090909,4,2,1,95,0,1
217941,-90.9090909090909,4,2,1,95,0,1
220699,-100,4,2,1,80,0,0
228975,-100,4,2,1,80,0,0
231734,-100,4,2,1,80,0,0
240010,-100,4,2,1,50,0,0

[Colours]
Combo1 : 236,233,113
Combo2 : 248,193,192
Combo3 : 247,253,189
Combo4 : 255,113,116

[HitObjects]
36,100,22078,6,0,L|153:114,1,112,2|0,0:0|0:0,0:0:0:0:
349,191,22768,2,0,P|246:192|175:288,1,224,2|0,0:0|0:0,0:0:0:0:
161,364,23630,5,2,0:0:0:0:
96,309,23803,2,0,P|59:298|30:300,1,56,2|0,0:0|0:0,0:0:0:0:
1,224,24147,2,0,P|28:222|55:213,1,56,2|0,0:0|0:0,0:0:0:0:
121,160,24492,2,0,L|126:93,1,56,2|0,0:0|0:0,0:0:0:0:
203,48,24837,6,0,P|202:110|230:172,1,112,2|0,0:0|0:0,0:0:0:0:
393,255,25527,2,0,P|411:197|307:231,1,224,2|0,0:0|0:0,0:0:0:0:
76,330,27078,6,0,P|33:283|23:222,1,112,2|0,0:0|0:0,0:0:0:0:
76,171,27596,2,0,L|196:182,1,112,2|0,0:0|0:0,0:0:0:0:
418,62,28285,2,0,B|303:25|320:131|206:95,1,224,2|0,0:0|0:0,0:0:0:0:
18,169,29493,5,0,0:0:0:0:
81,224,29665,1,2,0:0:0:0:
162,205,29837,2,0,L|352:240,1,168,0|2,0:0|0:0,0:0:0:0:
451,278,32596,5,2,0:0:0:0:
377,237,32768,2,0,P|370:198|373:164,1,56,2|2,0:0|0:0,0:0:0:0:
304,114,33113,6,0,P|294:179|254:243,1,125.999996154785,2|0,0:0|0:0,0:0:0:0:
192,281,33630,2,0,P|152:252|66:238,1,125.999996154785,2|0,0:0|0:0,0:0:0:0:
26,164,34147,1,0,0:0:0:0:
113,153,34320,2,0,P|124:110|111:19,1,125.999996154785,2|0,0:0|0:0,0:0:0:0:
229,16,34837,6,0,P|212:49|201:81,1,62.9999980773926,0|2,0:0|0:0,0:0:0:0:
330,148,35182,2,0,P|318:118|304:90,1,62.9999980773926
238,151,35527,2,0,L|230:229,1,62.9999980773926
205,312,35872,6,0,P|262:287|347:284,1,125.999996154785,2|0,0:0|0:0,0:0:0:0:
426,219,36389,2,0,P|363:213|306:188,1,125.999996154785,2|0,0:0|0:0,0:0:0:0:
239,130,36906,1,0,0:0:0:0:
169,183,37078,6,0,L|156:252,2,62.9999980773926,2|0|0,0:0|0:0|0:0,0:0:0:0:
114,112,37596,1,0,0:0:0:0:
191,69,37768,2,0,L|204:0,2,62.9999980773926,2|0|0,0:0|0:0|0:0,0:0:0:0:
248,140,38285,2,0,P|301:158|333:157,1,62.9999980773926
414,104,38630,6,0,L|402:234,1,125.999996154785,2|0,0:0|0:0,0:0:0:0:
412,317,39147,1,0,0:0:0:0:
330,281,39320,2,0,P|279:280|202:321,1,125.999996154785,2|0,0:0|0:0,0:0:0:0:
156,242,39837,1,2,0:0:0:0:
83,300,40010,6,0,L|47:162,1,125.999996154785
92,99,40527,1,2,0:0:0:0:
167,147,40699,2,0,P|210:156|248:154,1,62.9999980773926
310,66,41044,2,0,P|278:67|248:75,1,62.9999980773926,0|2,0:0|0:0,0:0:0:0:
365,131,41389,1,0,0:0:0:0:
256,192,41561,12,8,43803,3:0:0:0:
95,130,44147,6,0,L|89:266,1,125.999996154785,4|0,0:0|0:0,0:0:0:0:
150,320,44665,2,0,P|221:284|281:275,1,125.999996154785,2|0,0:0|0:0,0:0:0:0:
469,159,45354,6,0,B|402:150|413:195|347:187,1,125.999996154785,2|0,0:0|0:0,0:0:0:0:
357,98,45872,1,2,0:0:0:0:
279,139,46044,2,0,B|212:130|223:175|157:167,1,125.999996154785,2|0,0:0|0:0,0:0:0:0:
80,127,46561,2,0,P|56:101|43:71,1,62.9999980773926,2|0,0:0|0:0,0:0:0:0:
2,170,46906,6,0,P|33:206|62:288,1,125.999996154785,2|0,0:0|0:0,0:0:0:0:
123,340,47423,2,0,P|142:280|181:231,1,125.999996154785,2|0,0:0|0:0,0:0:0:0:
295,103,48113,2,0,L|315:229,1,125.999996154785,2|0,0:0|0:0,0:0:0:0:
395,190,48630,1,2,0:0:0:0:
450,259,48803,2,0,P|480:215|468:138,1,125.999996154785,2|0,0:0|0:0,0:0:0:0:
445,61,49320,2,0,P|397:98|388:117,1,62.9999980773926,2|0,0:0|0:0,0:0:0:0:
315,135,49665,6,0,P|275:127|195:71,1,125.999996154785,2|0,0:0|0:0,0:0:0:0:
135,25,50182,2,0,L|111:163,1,125.999996154785,2|0,0:0|0:0,0:0:0:0:
210,321,50872,6,0,B|158:356|158:356|93:350,1,125.999996154785,2|0,0:0|0:0,0:0:0:0:
137,270,51389,1,2,0:0:0:0:
64,221,51561,2,0,B|116:186|116:186|181:192,1,125.999996154785,2|0,0:0|0:0,0:0:0:0:
253,132,52078,2,0,P|271:173|274:210,1,62.9999980773926,2|0,0:0|0:0,0:0:0:0:
325,262,52423,6,0,L|395:251,1,62.9999980773926,2|0,1:2|0:0,0:0:0:0:
443,184,52768,2,0,L|373:173,1,62.9999980773926,0|2,1:0|0:0,0:0:0:0:
333,99,53113,1,0,1:0:0:0:
383,27,53285,2,0,P|421:79|423:95,2,62.9999980773926,2|0|2,0:0|1:0|0:0,0:0:0:0:
333,99,53803,6,0,P|290:110|191:75,1,125.999996154785,0|0,1:0|1:0,0:0:0:0:
136,45,54320,1,2,0:0:0:0:
85,118,54492,2,0,L|104:187,1,62.9999980773926,0|2,1:0|0:0,0:0:0:0:
189,193,54837,2,0,L|170:262,1,62.9999980773926,2|0,1:2|0:0,0:0:0:0:
287,222,55182,6,0,P|260:162|263:77,1,140,6|0,1:2|1:0,0:0:0:0:
342,127,55699,2,0,P|370:67|437:15,1,140,2|2,0:0|0:0,0:0:0:0:
495,78,56216,1,0,1:0:0:0:
459,160,56389,6,0,L|485:313,1,140,2|2,0:0|0:0,0:0:0:0:
416,361,56906,1,0,1:0:0:0:
344,304,57078,2,0,B|270:294|282:344|209:335,1,140,2|2,0:0|0:0,0:0:0:0:
129,294,57596,2,0,P|107:247|108:213,1,70,0|0,1:0|0:0,0:0:0:0:
211,172,57941,6,0,L|203:249,1,70,2|0,1:2|0:0,0:0:0:0:
288,204,58285,1,0,1:0:0:0:
368,233,58458,2,0,L|344:77,1,140,2|2,0:0|0:0,0:0:0:0:
389,14,58975,1,0,1:0:0:0:
298,16,59147,6,0,P|263:59|164:92,1,140,2|2,0:0|0:0,0:0:0:0:
112,50,59665,1,0,1:0:0:0:
32,78,59837,2,0,L|46:151,1,70,2|0,0:0|0:0,0:0:0:0:
120,185,60182,1,2,0:0:0:0:
57,243,60354,2,0,L|45:318,1,70,0|0,1:0|0:0,0:0:0:0:
146,374,60699,5,8,1:3:0:0:
208,317,60872,1,0,1:0:0:0:
286,348,61044,2,0,P|338:351|376:338,1,70,8|0,1:3|1:0,0:0:0:0:
428,300,61389,1,8,1:3:0:0:
428,300,61561,1,0,1:0:0:0:
378,224,61734,1,8,1:3:0:0:
378,224,61906,1,0,1:0:0:0:
446,175,62078,6,0,L|462:92,1,70,8|0,1:3|1:0,0:0:0:0:
358,43,62423,2,0,L|371:111,1,70,8|0,1:3|1:0,0:0:0:0:
292,145,62768,1,8,1:3:0:0:
292,145,62941,1,0,1:0:0:0:
233,82,63113,1,8,1:3:0:0:
233,82,63285,1,0,1:0:0:0:
143,101,63458,6,0,L|133:146,3,35,0|0|0|0,3:0|3:0|3:0|3:0,0:0:0:0:
164,175,63803,2,0,L|154:220,3,35,0|0|0|0,3:0|3:0|3:0|3:0,0:0:0:0:
120,241,64147,2,0,L|110:286,3,35,0|0|0|0,3:0|3:0|3:0|3:0,0:0:0:0:
119,320,64492,2,0,P|161:333|199:327,1,70,0|0,3:0|3:0,0:0:0:0:
267,289,64837,5,8,3:0:0:0:
346,346,65010,1,8,3:0:0:0:
346,346,65096,1,8,3:0:0:0:
346,346,65182,2,0,L|430:325,1,70,8|8,3:0|3:0,0:0:0:0:
469,256,65527,1,4,3:0:0:0:
413,184,65699,2,0,L|424:143,2,35,4|4|14,3:0|3:0|3:0,0:0:0:0:
291,61,66216,6,0,P|267:107|150:135,1,154.000004699707,4|8,1:0|0:0,0:0:0:0:
74,181,66734,2,0,P|159:177|225:243,1,154.000004699707,2|2,0:0|0:0,0:0:0:0:
246,302,67251,1,8,0:0:0:0:
330,259,67423,1,2,0:0:0:0:
330,259,67510,1,0,0:0:0:0:
330,259,67596,6,0,L|414:269,1,77.0000023498536,0|2,0:0|0:0,0:0:0:0:
480,212,67941,1,8,0:0:0:0:
437,130,68113,2,0,P|386:101|287:107,1,154.000004699707,2|2,0:0|0:0,0:0:0:0:
219,48,68630,2,0,P|168:84|126:90,1,77.0000023498536,8|0,0:0|0:0,0:0:0:0:
76,38,68975,6,0,L|49:197,1,154.000004699707,0|8,1:0|0:0,0:0:0:0:
105,264,69492,2,0,L|189:247,1,77.0000023498536,2|0,0:0|0:0,0:0:0:0:
279,182,69837,2,0,L|195:165,1,77.0000023498536,2|8,0:0|0:0,0:0:0:0:
168,89,70182,1,2,0:0:0:0:
231,22,70354,6,0,P|258:62|261:95,1,77.0000023498536,0|2,0:0|0:0,0:0:0:0:
341,28,70699,1,8,0:0:0:0:
363,118,70872,2,0,P|406:112|489:31,1,154.000004699707,2|2,0:0|0:0,0:0:0:0:
498,162,71389,2,0,L|481:241,1,77.0000023498536,8|0,0:0|0:0,0:0:0:0:
482,349,71734,6,0,P|445:310|333:282,1,154.000004699707,0|8,1:0|0:0,0:0:0:0:
294,206,72251,1,2,0:0:0:0:
294,206,72337,1,0,0:0:0:0:
294,206,72423,2,0,P|260:259|258:291,1,77.0000023498536,0|2,0:0|0:0,0:0:0:0:
196,341,72768,1,8,0:0:0:0:
119,288,72941,1,2,0:0:0:0:
158,204,73113,6,0,L|146:122,1,77.0000023498536,0|2,0:0|0:0,0:0:0:0:
86,57,73458,1,8,0:0:0:0:
38,136,73630,2,0,P|97:148|173:88,1,154.000004699707,2|2,0:0|0:0,0:0:0:0:
242,39,74147,2,0,P|262:98|281:121,1,77.0000023498536,8|0,0:0|0:0,0:0:0:0:
236,196,74492,6,0,L|387:168,1,154.000004699707,0|8,1:0|0:0,0:0:0:0:
512,323,75182,2,0,P|473:302|431:295,1,77.0000023498536,0|0,1:0|0:0,0:0:0:0:
366,350,75527,1,8,0:0:0:0:
281,313,75699,6,0,L|266:226,1,77.0000023498536,0|0,1:0|0:0,0:0:0:0:
324,163,76044,1,0,1:0:0:0:
235,138,76216,2,0,P|304:135|382:88,1,154.000004699707,8|0,0:0|1:0,0:0:0:0:
123,101,76906,1,8,0:0:0:0:
123,101,77251,6,0,L|109:263,1,154.000004699707,4|8,1:0|0:0,0:0:0:0:
29,301,77768,2,0,P|130:294|172:335,1,154.000004699707,2|2,0:0|0:0,0:0:0:0:
245,277,78285,1,8,0:0:0:0:
313,341,78458,1,2,0:0:0:0:
392,293,78630,6,0,P|407:251|405:214,1,77.0000023498536,0|2,0:0|0:0,0:0:0:0:
472,153,78975,1,8,0:0:0:0:
382,130,79147,2,0,P|367:88|369:51,2,77.0000023498536,2|0|2,0:0|0:0|0:0,0:0:0:0:
316,196,79665,2,0,L|219:187,1,77.0000023498536,8|0,0:0|0:0,0:0:0:0:
173,253,80010,6,0,P|135:212|20:188,1,154.000004699707,0|8,1:0|0:0,0:0:0:0:
3,101,80527,2,0,P|47:89|81:64,1,77.0000023498536,2|0,0:0|0:0,0:0:0:0:
150,21,80872,2,0,P|182:41|219:50,1,77.0000023498536,2|8,0:0|0:0,0:0:0:0:
309,29,81216,1,2,0:0:0:0:
282,117,81389,6,0,L|300:203,2,77.0000023498536,0|2|8,0:0|0:0|0:0,0:0:0:0:
385,135,81906,2,0,L|361:287,1,154.000004699707,2|2,0:0|0:0,0:0:0:0:
284,339,82423,2,0,P|237:327|206:300,1,77.0000023498536,8|0,0:0|0:0,0:0:0:0:
176,225,82768,6,0,P|109:243|46:301,1,154.000004699707,0|8,1:0|0:0,0:0:0:0:
8,228,83285,1,2,0:0:0:0:
8,228,83372,1,0,0:0:0:0:
8,228,83458,2,0,P|2:163|-5:135,1,77.0000023498536,0|2,0:0|0:0,0:0:0:0:
54,76,83803,1,8,0:0:0:0:
119,141,83975,1,2,0:0:0:0:
188,80,84147,6,0,P|211:45|221:9,2,77.0000023498536,0|2|8,0:0|0:0|0:0,0:0:0:0:
234,160,84665,2,0,P|285:197|392:202,1,154.000004699707,2|2,0:0|0:0,0:0:0:0:
459,171,85182,2,0,L|446:89,1,77.0000023498536,8|0,0:0|0:0,0:0:0:0:
379,31,85527,1,4,0:0:0:0:
256,192,85699,12,2,87941,0:0:0:0:
64,114,88285,6,0,L|98:259,1,140,4|8,1:0|0:0,0:0:0:0:
62,335,88803,2,0,P|124:285|210:270,1,140,2|2,0:0|0:0,0:0:0:0:
257,306,89320,1,8,0:0:0:0:
324,255,89492,1,2,0:0:0:0:
387,311,89665,6,0,L|399:384,2,70,0|0|8,0:0|0:0|0:0,0:0:0:0:
324,255,90182,2,0,P|382:287|461:286,1,140,2|0,0:0|0:0,0:0:0:0:
498,216,90699,2,0,L|485:133,1,70,8|0,0:0|0:0,0:0:0:0:
457,67,91044,6,0,P|411:103|408:184,1,140,0|8,1:0|0:0,0:0:0:0:
358,249,91561,2,0,P|324:218|292:205,1,70,2|0,0:0|0:0,0:0:0:0:
294,124,91906,2,0,P|250:139|224:161,1,70,2|8,0:0|0:0,0:0:0:0:
169,96,92251,1,2,0:0:0:0:
139,174,92423,6,0,L|146:249,2,70,0|2|8,0:0|0:0|0:0,0:0:0:0:
67,127,92941,2,0,L|37:285,1,140,2|2,0:0|0:0,0:0:0:0:
77,341,93458,2,0,P|125:353|160:352,1,70,8|0,0:0|0:0,0:0:0:0:
212,303,93803,6,0,P|281:326|344:367,1,140,0|8,1:0|0:0,0:0:0:0:
388,294,94320,2,0,P|344:239|314:176,1,140,2|0,0:0|0:0,0:0:0:0:
339,96,94837,1,8,0:0:0:0:
412,54,95010,1,2,0:0:0:0:
494,67,95182,6,0,L|483:139,2,70,0|0|8,0:0|0:0|0:0,0:0:0:0:
406,136,95699,2,0,L|433:281,1,140,2|2,0:0|0:0,0:0:0:0:
377,337,96216,2,0,L|291:319,1,70,8|0,0:0|0:0,0:0:0:0:
224,312,96561,6,0,P|158:359|85:366,1,140,0|8,1:0|0:0,0:0:0:0:
126,200,97251,2,0,P|171:200|202:212,2,70,0|0|8,1:0|0:0|0:0,0:0:0:0:
27,177,97768,6,0,P|73:135|148:99,1,140,0|0,1:0|1:0,0:0:0:0:
172,21,98285,2,0,P|206:36|235:59,1,70,8|0,0:0|0:0,0:0:0:0:
244,145,98630,2,0,P|271:123|380:89,1,140,0|0,1:0|1:0,0:0:0:0:
212,255,99320,6,0,P|154:244|85:197,1,140,4|8,1:0|0:0,0:0:0:0:
21,147,99837,2,0,P|56:121|93:113,1,70,2|0,0:0|0:0,0:0:0:0:
148,64,100182,2,0,P|164:106|162:140,1,70,2|8,0:0|0:0,0:0:0:0:
241,163,100527,1,2,0:0:0:0:
314,114,100699,6,0,L|463:134,1,140,0|8,0:0|0:0,0:0:0:0:
494,206,101216,2,0,P|472:262|461:346,1,140,2|0,0:0|0:0,0:0:0:0:
384,376,101734,2,0,P|364:339|339:308,1,70,8|0,0:0|0:0,0:0:0:0:
284,261,102078,6,0,L|260:335,1,70,0|0,1:0|0:0,0:0:0:0:
189,285,102423,1,8,0:0:0:0:
125,340,102596,2,0,P|82:292|64:211,1,140,2|2,0:0|0:0,0:0:0:0:
88,139,103113,1,8,0:0:0:0:
165,170,103285,1,2,0:0:0:0:
222,108,103458,6,0,P|230:60|222:30,1,70,0|2,0:0|0:0,0:0:0:0:
148,73,103803,1,8,0:0:0:0:
165,170,103975,2,0,P|220:193|292:153,1,140,2|2,0:0|0:0,0:0:0:0:
368,135,104492,2,0,L|375:221,1,70,8|0,0:0|0:0,0:0:0:0:
453,176,104837,6,0,L|481:34,1,140,0|8,1:0|0:0,0:0:0:0:
397,20,105354,2,0,P|364:46|335:55,1,70,2|0,0:0|0:0,0:0:0:0:
270,105,105699,2,0,P|237:92|210:70,1,70,2|8,0:0|0:0,0:0:0:0:
136,29,106044,1,2,0:0:0:0:
57,59,106216,6,0,L|47:135,1,70
78,206,106561,1,8,0:0:0:0:
167,183,106734,1,2,0:0:0:0:
167,183,106820,1,0,0:0:0:0:
167,183,106906,2,0,P|212:196|236:216,1,70,0|2,0:0|0:0,0:0:0:0:
300,162,107251,2,0,P|334:154|363:135,1,70,8|0,0:0|0:0,0:0:0:0:
441,165,107596,1,4,0:0:0:0:
142,253,110354,6,0,P|126:204|74:139,1,125.999996154785,4|8,0:0|0:0,0:0:0:0:
16,93,110872,1,2,0:0:0:0:
75,36,111044,2,0,P|112:52|145:53,1,62.9999980773926,2|0,0:0|0:0,0:0:0:0:
210,23,111389,1,8,0:0:0:0:
275,72,111561,1,2,0:0:0:0:
200,106,111734,6,0,L|216:181,1,62.9999980773926
182,243,112078,2,0,P|137:239|110:225,1,62.9999980773926,8|2,0:0|0:0,0:0:0:0:
267,232,112423,2,0,P|296:221|327:221,1,62.9999980773926,2|2,0:0|0:0,0:0:0:0:
392,272,112768,1,8,0:0:0:0:
467,239,112941,1,2,0:0:0:0:
404,186,113113,6,0,L|387:56,1,125.999996154785,0|8,1:0|0:0,0:0:0:0:
319,14,113630,1,0,0:0:0:0:
270,80,113803,2,0,P|243:99|208:108,1,62.9999980773926,2|0,0:0|0:0,0:0:0:0:
139,160,114147,2,0,P|169:169|194:187,1,62.9999980773926,8|2,0:0|0:0,0:0:0:0:
252,245,114492,6,0,L|241:335,2,62.9999980773926,0|0|8,0:0|0:0|0:0,0:0:0:0:
171,262,115010,2,0,P|120:294|35:306,1,125.999996154785,2|0,0:0|0:0,0:0:0:0:
15,235,115527,2,0,L|5:167,1,62.9999980773926,8|0,0:0|0:0,0:0:0:0:
63,114,115872,6,0,L|188:136,1,125.999996154785,0|8,1:0|0:0,0:0:0:0:
254,88,116389,1,0,0:0:0:0:
318,137,116561,2,0,L|395:118,2,62.9999980773926,2|0|8,0:0|0:0|0:0,0:0:0:0:
254,188,117078,1,2,0:0:0:0:
302,254,117251,6,0,P|336:279|368:290,1,62.9999980773926
436,278,117596,1,8,0:0:0:0:
402,352,117768,2,0,P|342:338|267:357,1,125.999996154785,2|0,0:0|0:0,0:0:0:0:
222,291,118285,2,0,L|188:353,1,62.9999980773926,8|0,0:0|0:0,0:0:0:0:
133,288,118630,6,0,P|93:222|52:180,1,125.999996154785,0|8,1:0|0:0,0:0:0:0:
78,106,119147,1,2,0:0:0:0:
150,143,119320,2,0,P|193:151|224:147,1,62.9999980773926,0|0,1:0|0:0,0:0:0:0:
280,103,119665,1,8,0:0:0:0:
315,176,119837,6,0,L|302:249,1,62.9999980773926,0|0,1:0|0:0,0:0:0:0:
376,277,120182,2,0,L|389:350,1,62.9999980773926,0|8,1:0|0:0,0:0:0:0:
462,307,120527,2,0,L|481:176,1,125.999996154785,0|0,1:0|1:0,0:0:0:0:
438,111,121044,1,8,0:0:0:0:
367,152,121216,1,0,0:0:0:0:
294,113,121389,6,0,P|266:87|251:52,1,62.9999980773926,4|0,0:0|0:0,0:0:0:0:
185,109,121734,1,8,0:0:0:0:
130,48,121906,2,0,P|70:33|2:51,1,125.999996154785,2|0,0:0|0:0,0:0:0:0:
53,116,122423,1,8,0:0:0:0:
8,185,122596,2,0,L|39:318,1,125.999996154785,2|2,0:0|0:0,0:0:0:0:
104,353,123113,5,8,0:0:0:0:
174,312,123285,1,2,0:0:0:0:
255,324,123458,2,0,P|300:343|331:363,1,62.9999980773926,2|2,0:0|0:0,0:0:0:0:
401,248,123803,2,0,P|373:262|343:274,1,62.9999980773926,8|2,0:0|0:0,0:0:0:0:
269,239,124147,6,0,P|247:176|244:95,1,125.999996154785,0|8,1:0|0:0,0:0:0:0:
298,56,124665,1,0,0:0:0:0:
369,95,124837,2,0,P|391:132|400:159,1,62.9999980773926,2|0,0:0|0:0,0:0:0:0:
471,115,125182,1,8,0:0:0:0:
464,196,125354,6,0,P|447:258|449:339,1,125.999996154785,2|0,0:0|0:0,0:0:0:0:
366,295,125872,1,8,0:0:0:0:
310,355,126044,2,0,L|177:338,1,125.999996154785,2|0,0:0|0:0,0:0:0:0:
133,275,126561,2,0,L|197:256,1,62.9999980773926,8|0,0:0|0:0,0:0:0:0:
133,193,126906,6,0,P|92:173|34:104,1,125.999996154785,0|8,1:0|0:0,0:0:0:0:
62,35,127423,1,2,0:0:0:0:
144,32,127596,2,0,P|163:61|171:92,1,62.9999980773926,2|0,0:0|0:0,0:0:0:0:
241,41,127941,1,8,0:0:0:0:
314,75,128113,6,0,P|292:153|293:215,1,125.999996154785
209,185,128630,1,8,0:0:0:0:
239,261,128803,2,0,P|236:317|205:390,1,125.999996154785,2|2,0:0|0:0,0:0:0:0:
130,364,129320,2,0,L|56:346,1,62.9999980773926,8|0,0:0|0:0,0:0:0:0:
21,281,129665,1,4,0:0:0:0:
336,315,132423,6,0,P|403:283|434:245,1,112,4|8,0:0|0:0,0:0:0:0:
385,188,132941,2,0,L|269:170,1,112,2|2,0:0|0:0,0:0:0:0:
216,117,133458,1,8,0:0:0:0:
157,168,133630,1,2,0:0:0:0:
92,123,133803,6,0,P|68:93|56:68,2,56,2|0|8,0:0|0:0|0:0,0:0:0:0:
88,201,134320,1,0,0:0:0:0:
157,168,134492,2,0,P|175:221|177:281,1,112,2|8,0:0|0:0,0:0:0:0:
114,324,135010,1,0,0:0:0:0:
187,349,135182,6,0,L|311:332,1,112,0|8,1:0|0:0,0:0:0:0:
375,347,135699,1,2,0:0:0:0:
344,274,135872,2,0,L|333:211,1,56,2|0,0:0|0:0,0:0:0:0:
274,168,136216,1,8,0:0:0:0:
325,108,136389,1,2,0:0:0:0:
383,159,136561,6,0,P|416:162|449:154,1,56
482,92,136906,1,8,0:0:0:0:
430,33,137078,2,0,P|361:19|318:24,1,112,2|0,0:0|0:0,0:0:0:0:
241,24,137596,2,0,L|256:87,1,56,8|0,0:0|0:0,0:0:0:0:
256,157,137941,6,0,P|193:165|128:150,1,112,0|8,1:0|0:0,0:0:0:0:
73,125,138458,2,0,L|57:257,1,112,2|0,0:0|0:0,0:0:0:0:
13,300,138975,1,8,0:0:0:0:
72,350,139147,1,2,0:0:0:0:
147,327,139320,6,0,P|189:324|217:333,1,56
271,252,139665,2,0,P|243:256|215:252,1,56,8|2,0:0|0:0,0:0:0:0:
167,189,140010,2,0,P|153:145|165:73,1,112,2|8,0:0|0:0,0:0:0:0:
217,25,140527,1,0,0:0:0:0:
278,72,140699,6,0,L|354:58,1,56,0|0,1:0|0:0,0:0:0:0:
387,118,141044,2,0,L|463:104,1,56,8|2,0:0|0:0,0:0:0:0:
319,163,141389,2,0,L|243:149,1,56,2|0,0:0|0:0,0:0:0:0:
210,209,141734,1,8,0:0:0:0:
140,172,141906,6,0,P|83:166|15:185,1,112,0|0,1:0|1:0,0:0:0:0:
10,254,142423,2,0,L|28:313,1,56,8|0,0:0|0:0,0:0:0:0:
89,354,142768,1,0,1:0:0:0:
303,287,143113,1,8,0:0:0:0:
157,195,143458,6,0,P|132:126|131:87,1,97.9999970092774,4|8,0:0|0:0,0:0:0:0:
180,41,143975,2,0,L|285:51,1,97.9999970092774,2|0,0:0|0:0,0:0:0:0:
354,34,144492,1,8,0:0:0:0:
328,108,144665,6,0,P|349:175|416:230,2,146.999995513916,2|8|0,0:0|0:0|0:0,0:0:0:0:
404,90,145872,2,0,L|456:84,1,48.9999985046387,8|0,0:0|0:0,0:0:0:0:
498,147,146216,6,0,L|486:254,1,97.9999970092774,0|8,0:0|0:0,0:0:0:0:
435,304,146734,1,0,0:0:0:0:
366,266,146906,2,0,P|311:250|265:254,1,97.9999970092774,2|8,0:0|0:0,0:0:0:0:
200,287,147423,6,0,P|233:236|256:149,2,146.999995513916,2|8|0,0:0|0:0|0:0,0:0:0:0:
123,304,148630,2,0,L|59:295,1,48.9999985046387,8|0,0:0|0:0,0:0:0:0:
31,231,148975,6,0,P|19:196|30:134,1,97.9999970092774,0|8,0:0|0:0,0:0:0:0:
107,134,149492,2,0,P|119:169|108:231,1,97.9999970092774,2|2,0:0|0:0,0:0:0:0:
169,279,150010,2,0,L|224:268,1,48.9999985046387,8|0,0:0|0:0,0:0:0:0:
288,301,150354,6,0,L|394:317,1,97.9999970092774,0|8,0:0|0:0,0:0:0:0:
453,275,150872,2,0,P|479:245|492:178,1,97.9999970092774,2|0,0:0|0:0,0:0:0:0:
439,131,151389,2,0,L|386:144,1,48.9999985046387,8|0,0:0|0:0,0:0:0:0:
312,120,151734,6,0,B|286:94|215:70|136:106|179:193|226:261|196:301|91:316|13:291|-5:228|2:165|38:122|91:89|138:103|198:173|242:206|242:206|271:227|309:247|358:248,1,783.999976074219,2|4,0:0|0:0,0:0:0:0:
394,334,165527,6,0,P|328:214|511:291,1,490,2|0,0:0|0:0,0:0:0:0:
426,240,168285,6,0,B|348:312|180:278|264:83|95:49|19:122,1,490,2|0,0:0|0:0,0:0:0:0:
130,214,171044,6,0,B|226:215|226:215|287:153|287:153|385:153,2,280,2|0|2,0:0|0:0|0:0,0:0:0:0:
52,326,176561,6,0,P|101:315|150:272,1,112,4|0,0:0|0:0,0:0:0:0:
198,208,177078,2,0,P|231:261|277:299,1,112,2|2,0:0|0:0,0:0:0:0:
343,315,177596,1,0,0:0:0:0:
409,274,177768,1,2,0:0:0:0:
365,212,177941,6,0,L|356:145,1,56,0|2,0:0|0:0,0:0:0:0:
429,125,178285,2,0,L|438:58,1,56,2|0,0:0|0:0,0:0:0:0:
376,18,178630,1,2,0:0:0:0:
312,64,178803,2,0,P|265:54|243:40,2,56,0|2|2,0:0|0:0|0:0,0:0:0:0:
350,135,179320,6,0,P|291:164|252:207,1,112,2|0,0:0|0:0,0:0:0:0:
215,262,179837,2,0,P|176:236|108:216,1,112,2|2,0:0|0:0,0:0:0:0:
35,220,180354,1,2,0:0:0:0:
67,148,180527,1,0,0:0:0:0:
13,91,180699,6,0,L|1:26,1,56,2|2,0:0|0:0,0:0:0:0:
80,20,181044,2,0,L|90:75,1,56,0|2,0:0|0:0,0:0:0:0:
147,128,181389,1,2,0:0:0:0:
220,100,181561,1,0,0:0:0:0:
286,145,181734,2,0,P|296:181|293:221,1,56,2|0,0:0|0:0,0:0:0:0:
288,277,182078,6,0,P|336:225|381:200,1,112,2|0,0:0|0:0,0:0:0:0:
445,178,182596,2,0,L|326:135,1,112,2|2,0:0|0:0,0:0:0:0:
289,78,183113,1,0,0:0:0:0:
227,127,183285,2,0,P|189:152|111:167,1,112,2|2,0:0|0:0,0:0:0:0:
58,210,183803,5,0,0:0:0:0:
101,274,183975,1,2,0:0:0:0:
176,257,184147,2,0,L|236:286,1,56,2|0,0:0|0:0,0:0:0:0:
276,342,184492,2,0,L|336:313,1,56,2|0,0:0|0:0,0:0:0:0:
349,242,184837,6,0,P|412:254|457:288,1,112,2|0,0:0|0:0,0:0:0:0:
491,213,185354,2,0,L|503:99,1,112,2|2,0:0|0:0,0:0:0:0:
447,44,185872,2,0,P|423:67|395:84,1,56,2|0,0:0|0:0,0:0:0:0:
333,45,186216,5,2,0:0:0:0:
275,98,186389,2,0,P|214:80|169:43,1,112,2|2,0:0|0:0,0:0:0:0:
101,26,186906,2,0,L|78:90,1,56,2|0,0:0|0:0,0:0:0:0:
27,135,187251,2,0,L|50:199,1,56,2|2,0:0|0:0,0:0:0:0:
39,287,187596,6,0,P|97:259|178:257,1,132.999996448517,4|8,0:0|0:0,0:0:0:0:
235,305,188113,2,0,L|252:171,1,132.999996448517,2|0,0:0|0:0,0:0:0:0:
320,122,188630,1,8,0:0:0:0:
241,84,188803,6,0,P|189:104|108:103,1,132.999996448517,2|2,0:0|0:0,0:0:0:0:
36,61,189320,1,8,0:0:0:0:
9,142,189492,1,2,0:0:0:0:
71,202,189665,2,0,L|62:283,1,66.4999982242585,0|2,0:0|0:0,0:0:0:0:
121,333,190010,2,0,P|169:319|205:318,1,66.4999982242585,8|0,0:0|0:0,0:0:0:0:
261,358,190354,6,0,L|291:229,1,132.999996448517,0|8,1:0|0:0,0:0:0:0:
351,165,190872,2,0,P|391:155|429:153,1,66.4999982242585,2|0,0:0|0:0,0:0:0:0:
262,147,191216,2,0,P|228:143|196:134,1,66.4999982242585,2|8,0:0|0:0,0:0:0:0:
132,76,191561,1,2,0:0:0:0:
213,46,191734,6,0,L|282:35,2,66.4999982242585,0|2|8,0:0|0:0|0:0,0:0:0:0:
132,76,192251,2,0,P|77:70|56:62,1,66.4999982242585,2|0,0:0|0:0,0:0:0:0:
9,132,192596,1,2,0:0:0:0:
68,194,192768,2,0,L|87:263,1,66.4999982242585,8|0,0:0|0:0,0:0:0:0:
159,312,193113,5,0,1:0:0:0:
159,312,193285,1,0,0:0:0:0:
216,246,193458,1,0,1:0:0:0:
216,246,193630,1,0,0:0:0:0:
285,298,193803,2,0,L|362:281,1,66.4999982242585,0|0,1:0|0:0,0:0:0:0:
409,213,194147,2,0,L|332:196,1,66.4999982242585,0|0,1:0|0:0,0:0:0:0:
270,152,194492,5,0,1:0:0:0:
270,152,194665,1,0,0:0:0:0:
323,84,194837,1,0,1:0:0:0:
323,84,195010,1,0,0:0:0:0:
248,31,195182,2,0,P|201:16|177:14,1,66.4999982242585,0|0,1:0|0:0,0:0:0:0:
111,61,195527,1,0,1:0:0:0:
173,120,195699,1,0,0:0:0:0:
106,175,195872,6,0,L|98:220,3,33.2499991121292,0|0|0|0,3:0|3:0|3:0|3:0,0:0:0:0:
82,246,196216,2,0,L|104:285,3,33.2499991121292,0|0|0|0,3:0|3:0|3:0|3:0,0:0:0:0:
98,318,196561,2,0,L|140:333,3,33.2499991121292,0|0|0|0,3:0|3:0|3:0|3:0,0:0:0:0:
164,354,196906,2,0,L|206:338,3,33.2499991121292,0|0|0|0,3:0|3:0|3:0|3:0,0:0:0:0:
228,313,197251,6,0,L|307:328,1,66.4999982242585,8|8,3:0|3:0,0:0:0:0:
358,268,197596,1,8,3:0:0:0:
358,268,197682,1,8,3:0:0:0:
358,268,197768,1,8,3:0:0:0:
426,320,197941,1,4,3:0:0:0:
494,266,198113,2,0,L|501:232,2,33.2499991121292,4|4|14,3:0|3:0|3:0,0:0:0:0:
384,86,198630,6,0,P|334:116|233:116,1,154.000004699707,4|8,1:0|0:0,0:0:0:0:
176,58,199147,2,0,P|206:119|211:218,1,154.000004699707,2|2,0:0|0:0,0:0:0:0:
146,269,199665,2,0,L|55:251,1,77.0000023498536,8|2,0:0|0:0,0:0:0:0:
220,331,200010,6,0,L|303:314,1,77.0000023498536,0|2,0:0|0:0,0:0:0:0:
363,253,200354,1,8,0:0:0:0:
433,313,200527,2,0,P|467:269|481:165,1,154.000004699707,2|2,0:0|0:0,0:0:0:0:
432,95,201044,2,0,L|346:109,1,77.0000023498536,8|0,0:0|0:0,0:0:0:0:
283,49,201389,6,0,P|219:41|187:28,1,77.0000023498536,0|0,1:0|0:0,0:0:0:0:
123,76,201734,1,8,0:0:0:0:
207,133,201906,1,2,0:0:0:0:
207,133,201992,1,0,0:0:0:0:
207,133,202078,2,0,P|216:178|215:222,1,77.0000023498536,0|2,0:0|0:0,0:0:0:0:
296,254,202423,1,8,0:0:0:0:
213,296,202596,1,2,0:0:0:0:
136,245,202768,6,0,L|50:253,1,77.0000023498536,0|2,0:0|0:0,0:0:0:0:
10,173,203113,1,8,0:0:0:0:
69,102,203285,2,0,P|110:134|224:138,1,154.000004699707,2|2,0:0|0:0,0:0:0:0:
285,90,203803,2,0,P|307:40|311:5,1,77.0000023498536,8|0,0:0|0:0,0:0:0:0:
383,74,204147,6,0,L|408:248,1,154.000004699707,0|8,1:0|0:0,0:0:0:0:
326,269,204665,1,2,0:0:0:0:
326,269,204751,1,0,0:0:0:0:
326,269,204837,2,0,P|285:237|264:198,1,77.0000023498536,0|2,0:0|0:0,0:0:0:0:
246,99,205182,2,0,P|223:129|191:151,1,77.0000023498536,8|2,0:0|0:0,0:0:0:0:
114,99,205527,6,0,L|91:277,1,154.000004699707,0|8,0:0|0:0,0:0:0:0:
29,317,206044,2,0,P|105:283|191:283,1,154.000004699707,2|2,0:0|0:0,0:0:0:0:
257,237,206561,1,8,0:0:0:0:
314,310,206734,1,0,0:0:0:0:
397,270,206906,6,0,L|418:104,1,154.000004699707,0|8,1:0|0:0,0:0:0:0:
232,31,207596,2,0,L|246:112,1,77.0000023498536,0|0,1:0|0:0,0:0:0:0:
245,199,207941,1,8,0:0:0:0:
153,190,208113,6,0,P|126:144|118:99,1,77.0000023498536,0|0,1:0|0:0,0:0:0:0:
138,30,208458,1,0,1:0:0:0:
232,31,208630,2,0,P|287:60|376:54,1,154.000004699707,8|0,0:0|1:0,0:0:0:0:
489,271,209320,1,8,0:0:0:0:
489,271,209665,6,0,L|325:253,1,154.000004699707,4|8,1:0|0:0,0:0:0:0:
270,318,210182,2,0,P|239:282|202:262,1,77.0000023498536,2|0,0:0|0:0,0:0:0:0:
185,178,210527,2,0,P|153:199|129:229,1,77.0000023498536,2|8,0:0|0:0,0:0:0:0:
95,309,210872,2,0,L|71:141,1,154.000004699707,2|2,0:0|0:0,0:0:0:0:
6,92,211389,1,8,0:0:0:0:
82,41,211561,2,0,P|144:69|236:77,1,154.000004699707,2|2,0:0|0:0,0:0:0:0:
309,31,212078,2,0,L|334:115,1,77.0000023498536,8|0,0:0|0:0,0:0:0:0:
421,126,212423,6,0,L|396:210,1,77.0000023498536,0|0,1:0|0:0,0:0:0:0:
308,220,212768,1,8,0:0:0:0:
383,290,212941,1,2,0:0:0:0:
383,290,213027,1,0,0:0:0:0:
383,290,213113,2,0,P|432:301|470:294,1,77.0000023498536,0|2,0:0|0:0,0:0:0:0:
289,310,213458,2,0,P|250:307|213:317,1,77.0000023498536,8|2,0:0|0:0,0:0:0:0:
143,257,213803,6,0,L|121:332,1,77.0000023498536,0|2,0:0|0:0,0:0:0:0:
45,278,214147,1,8,0:0:0:0:
72,189,214320,2,0,P|134:161|218:194,1,154.000004699707,2|2,0:0|0:0,0:0:0:0:
282,247,214837,2,0,P|326:266|367:268,1,77.0000023498536,8|0,0:0|0:0,0:0:0:0:
423,330,215182,6,0,L|458:172,1,154.000004699707,0|8,1:0|0:0,0:0:0:0:
506,101,215699,2,0,P|451:135|350:139,1,154.000004699707,2|2,0:0|0:0,0:0:0:0:
283,95,216216,2,0,P|286:50|296:8,1,77.0000023498536,8|2,0:0|0:0,0:0:0:0:
227,168,216561,6,0,P|234:205|236:244,1,77.0000023498536,0|2,0:0|0:0,0:0:0:0:
182,319,216906,1,8,0:0:0:0:
103,270,217078,2,0,P|69:211|59:116,1,154.000004699707,2|2,0:0|0:0,0:0:0:0:
120,57,217596,2,0,L|201:69,1,77.0000023498536,8|0,0:0|0:0,0:0:0:0:
283,38,217941,1,4,1:0:0:0:
256,192,218113,12,0,220354,0:0:0:0:
422,160,220699,6,0,P|358:157|285:199,1,140,4|8,1:0|0:0,0:0:0:0:
209,176,221216,2,0,L|228:264,1,70,2|0,0:0|0:0,0:0:0:0:
239,327,221561,2,0,L|164:322,1,70,2|8,0:0|0:0,0:0:0:0:
94,361,221906,1,2,0:0:0:0:
32,304,222078,6,0,P|17:258|26:167,1,140,0|8,0:0|0:0,0:0:0:0:
25,83,222596,2,0,L|175:99,1,140,2|2,0:0|0:0,0:0:0:0:
224,156,223113,2,0,P|267:138|293:114,1,70,8|0,0:0|0:0,0:0:0:0:
355,77,223458,6,0,L|377:145,1,70,0|0,1:0|0:0,0:0:0:0:
320,206,223803,1,8,0:0:0:0:
379,264,223975,2,0,L|363:337,1,70,2|0,0:0|0:0,0:0:0:0:
283,357,224320,2,0,P|247:339|207:331,1,70,2|8,0:0|0:0,0:0:0:0:
144,291,224665,1,2,0:0:0:0:
217,251,224837,6,0,P|270:243|341:186,1,140,0|8,0:0|0:0,0:0:0:0:
301,115,225354,2,0,P|353:160|421:174,1,140,2|2,0:0|0:0,0:0:0:0:
481,115,225872,2,0,L|501:33,1,70,8|0,0:0|0:0,0:0:0:0:
419,15,226216,6,0,P|376:26|345:44,1,70,0|0,1:0|0:0,0:0:0:0:
275,5,226561,1,8,0:0:0:0:
230,76,226734,2,0,P|159:102|84:99,1,140,2|2,0:0|0:0,0:0:0:0:
38,39,227251,1,8,0:0:0:0:
9,117,227423,1,2,0:0:0:0:
66,178,227596,6,0,L|54:258,2,70,0|2|8,0:0|0:0|0:0,0:0:0:0:
145,223,228113,2,0,L|177:361,1,140,2|2,0:0|0:0,0:0:0:0:
256,332,228630,2,0,P|299:328|331:317,1,70,8|0,0:0|0:0,0:0:0:0:
392,270,228975,6,0,P|401:228|366:131,1,140,0|8,1:0|0:0,0:0:0:0:
208,178,229665,2,0,L|197:254,2,70,0|0|8,1:0|0:0|0:0,0:0:0:0:
200,94,230182,6,0,P|161:72|61:60,1,140,0|0,1:0|1:0,0:0:0:0:
23,130,230699,2,0,L|45:214,1,70,8|0,0:0|0:0,0:0:0:0:
124,206,231044,2,0,L|269:171,1,140,0|8,1:0|0:0,0:0:0:0:
425,262,231734,6,0,P|377:304|286:323,1,140,4|8,1:0|0:0,0:0:0:0:
239,376,232251,2,0,P|171:358|118:314,1,140,2|2,0:0|0:0,0:0:0:0:
91,234,232768,1,8,0:0:0:0:
140,165,232941,1,2,0:0:0:0:
223,155,233113,6,0,P|267:174|292:197,2,70,0|2|8,0:0|0:0|0:0,0:0:0:0:
140,165,233630,2,0,P|114:134|100:97,1,70,2|0,0:0|0:0,0:0:0:0:
134,29,233975,1,2,0:0:0:0:
211,59,234147,2,0,L|283:47,1,70,8|0,0:0|0:0,0:0:0:0:
359,19,234492,6,0,P|362:87|381:170,1,140,0|8,1:0|0:0,0:0:0:0:
332,229,235010,2,0,P|364:255|391:270,1,70,2|0,0:0|0:0,0:0:0:0:
448,328,235354,2,0,P|417:345|391:368,1,70,2|8,0:0|0:0,0:0:0:0:
320,321,235699,6,0,P|257:297|170:303,1,140,2|0,0:0|0:0,0:0:0:0:
106,327,236216,1,8,0:0:0:0:
43,269,236389,2,0,L|25:117,1,140,2|2,0:0|0:0,0:0:0:0:
70,58,236906,2,0,P|100:89|110:122,1,70,8|0,0:0|0:0,0:0:0:0:
186,79,237251,6,0,P|188:147|151:217,1,140,0|8,1:0|0:0,0:0:0:0:
99,272,237768,2,0,L|21:263,1,70,2|0,0:0|0:0,0:0:0:0:
167,330,238113,2,0,L|245:321,1,70,2|8,0:0|0:0,0:0:0:0:
285,253,238458,1,2,0:0:0:0:
360,290,238630,6,0,P|382:337|389:363,2,70,0|2|8,0:0|0:0|0:0,0:0:0:0:
428,241,239147,2,0,P|436:172|469:95,1,140,2|2,0:0|0:0,0:0:0:0:
364,115,239665,2,0,P|311:129|279:132,1,70,8|0,0:0|0:0,0:0:0:0:
214,86,240010,5,4,1:0:0:0:
256,192,240182,12,4,242768,0:1:0:0:
