osu file format v14

[General]
AudioFilename: audio.ogg
AudioLeadIn: 0
PreviewTime: 66216
Countdown: 0
SampleSet: Soft
StackLeniency: 0.7
Mode: 0
LetterboxInBreaks: 0
WidescreenStoryboard: 1

[Editor]
Bookmarks: 143529
DistanceSpacing: 1
BeatDivisor: 4
GridSize: 8
TimelineZoom: 1

[Metadata]
Title:All This Time
TitleUnicode:All This Time
Artist:Fox Stevenson
ArtistUnicode:Fox Stevenson
Creator:Kyshiro
Version:Easy
Source:
Tags:drum and bass dnb electronic english stan sb AnimeStyle Asphyxia
BeatmapID:3047421
BeatmapSetID:956634

[Difficulty]
HPDrainRate:2
CircleSize:2.5
OverallDifficulty:2
ApproachRate:3
SliderMultiplier:0.899999999999999
SliderTickRate:1

[Events]
//Background and Video events
0,0,"wallpaper-1406694.jpg",0,0
//Break Periods
2,107796,108914
2,129865,130983
2,154692,164087
2,174003,175121
//Storyboard Layer 0 (Background)
//Storyboard Layer 1 (Fail)
//Storyboard Layer 2 (Pass)
//Storyboard Layer 3 (Foreground)
//Storyboard Layer 4 (Overlay)
//Storyboard Sound Samples

[TimingPoints]
10,344.827586206897,4,2,1,50,1,0
22078,-100,4,2,1,50,0,0
33113,-100,4,2,1,65,0,0
43889,-100,4,2,1,65,0,0
44147,-100,4,2,1,65,0,0
55182,-100,4,2,1,60,0,0
64837,-100,4,2,1,60,0,0
66216,-100,4,2,1,95,0,1
76906,-100,4,2,1,95,0,0
77251,-100,4,2,1,95,0,1
85527,-100,4,2,1,75,0,1
88285,-100,4,2,1,80,0,0
96561,-100,4,2,1,80,0,0
99320,-100,4,2,1,80,0,0
107596,-100,4,2,1,80,0,0
110354,-100,4,2,1,80,0,0
129665,-100,4,2,1,75,0,0
129837,-100,4,2,1,50,0,0
132423,-100,4,2,1,80,0,0
143458,-100,4,2,1,60,0,0
153285,-100,4,2,1,50,0,0
176561,-100,4,2,1,50,0,0
187596,-100,4,2,1,65,0,0
197941,-100,4,2,1,70,0,0
198630,-100,4,2,1,95,0,1
209320,-100,4,2,1,95,0,0
209665,-100,4,2,1,95,0,1
217941,-100,4,2,1,95,0,1
220699,-100,4,2,1,80,0,0
228975,-100,4,2,1,80,0,0
231734,-100,4,2,1,80,0,0
240010,-100,4,2,1,50,0,0

[Colours]
Combo1 : 236,233,113
Combo2 : 248,193,192
Combo3 : 247,253,189
Combo4 : 255,113,116

[HitObjects]
12,97,22078,6,0,P|133:53|309:180,1,360,2|0,0:0|0:0,0:0:0:0:
395,198,23803,2,0,P|421:235|459:267,2,89.9999999999999,2|2|2,0:0|0:0|0:0,0:0:0:0:
330,261,24837,2,0,B|242:274|188:361|188:361|163:257|81:221,1,360,2|0,0:0|0:0,0:0:0:0:
230,28,27596,6,0,P|168:105|312:75,1,360,2|0,0:0|0:0,0:0:0:0:
482,142,29665,2,0,P|444:189|416:309,1,180,2|2,0:0|0:0,0:0:0:0:
221,75,33113,6,0,L|78:96,2,135,2|2|0,0:0|0:0|0:0,0:0:0:0:
310,78,34492,2,0,P|340:119|345:244,1,180,2|0,0:0|0:0,0:0:0:0:
171,292,35872,5,2,0:0:0:0:
82,307,36216,1,0,0:0:0:0:
43,224,36561,2,0,P|99:201|177:93,1,180,2|0,0:0|0:0,0:0:0:0:
223,35,37596,1,0,0:0:0:0:
285,101,37941,2,0,L|297:193,1,89.9999999999999,2|0,0:0|0:0,0:0:0:0:
317,277,38630,6,0,P|403:263|464:183,2,180,2|2|0,0:0|0:0|0:0,0:0:0:0:
247,219,40354,1,0,0:0:0:0:
158,232,40699,1,0,0:0:0:0:
143,320,41044,1,2,0:0:0:0:
223,366,41389,6,0,B|271:359|319:333|339:222|336:77|226:54|102:153|103:303|214:315|347:263|390:232|461:271,1,629.999999999999,2|8,0:0|3:0,0:0:0:0:
479,180,44147,6,0,L|492:40,2,135,4|2|0,0:0|0:0|0:0,0:0:0:0:
408,236,45527,2,0,P|333:258|255:187,1,180,2|0,0:0|0:0,0:0:0:0:
111,95,46906,1,2,0:0:0:0:
87,273,47596,1,0,0:0:0:0:
266,267,48285,2,0,P|331:216|426:202,2,180,2|0|2,0:0|0:0|0:0,0:0:0:0:
225,91,50354,5,0,0:0:0:0:
44,113,51044,2,0,L|62:306,2,180,2|0|2,0:0|0:0|1:2,0:0:0:0:
104,46,52768,5,0,1:0:0:0:
167,110,53113,2,0,P|213:136|256:144,1,89.9999999999999,0|0,1:0|1:0,0:0:0:0:
317,202,53803,2,0,P|401:173|500:167,1,180,0|0,1:0|1:0,0:0:0:0:
429,335,55182,5,6,1:2:0:0:
250,307,55872,1,0,1:0:0:0:
161,336,56216,1,0,1:0:0:0:
77,302,56561,2,0,P|46:257|39:167,2,135,2|2|0,1:2|0:0|1:0,0:0:0:0:
146,244,57941,6,0,L|169:55,1,180,2|0,1:2|1:0,0:0:0:0:
248,24,58975,1,0,1:0:0:0:
329,61,59320,2,0,P|380:110|404:228,1,180,2|0,1:2|1:0,0:0:0:0:
227,233,60699,6,0,P|133:166|264:137,2,315,8|0|0,1:3|1:0|0:0,0:0:0:0:
235,322,63458,2,0,P|42:171|302:48,1,629.999999999999,2|14,0:0|3:0,0:0:0:0:
336,122,66216,6,0,P|301:194|294:258,2,135,4|2|0,1:0|0:0|0:0,0:0:0:0:
425,114,67596,1,0,1:0:0:0:
271,20,68285,1,2,0:0:0:0:
122,121,68975,6,0,L|152:305,1,180,0|2,1:0|0:0,0:0:0:0:
95,369,70010,1,0,0:0:0:0:
30,306,70354,2,0,P|9:263|14:171,2,135,0|2|0,1:0|0:0|0:0,0:0:0:0:
117,267,71734,5,0,1:0:0:0:
294,240,72423,1,2,0:0:0:0:
359,305,72768,1,0,0:0:0:0:
443,272,73113,2,0,L|473:89,1,180,0|2,1:0|0:0,0:0:0:0:
299,42,74492,6,0,P|257:81|46:84,1,270,0|2,1:0|0:0,0:0:0:0:
18,172,75872,2,0,L|52:312,2,135,0|2|2,1:0|0:0|0:0,0:0:0:0:
93,122,77251,6,0,B|183:110|183:110|220:138|220:138|308:124,2,225,4|2|0,1:0|0:0|0:0,0:0:0:0:
36,191,79320,1,2,0:0:0:0:
39,280,79665,1,0,0:0:0:0:
111,331,80010,6,0,P|171:301|287:284,1,180,0|2,1:0|0:0,0:0:0:0:
365,317,81044,1,0,0:0:0:0:
446,277,81389,2,0,P|475:229|481:150,2,135,0|2|0,1:0|0:0|0:0,0:0:0:0:
367,232,82768,5,0,1:0:0:0:
349,143,83113,1,0,0:0:0:0:
291,76,83458,2,0,P|238:105|120:108,1,180,2|0,0:0|1:0,0:0:0:0:
42,153,84492,1,0,0:0:0:0:
50,242,84837,1,2,0:0:0:0:
202,339,85527,6,0,P|298:261|486:371,1,360,4|0,0:0|0:0,0:0:0:0:
402,115,88285,6,0,L|421:257,2,135,4|2|0,1:0|0:0|0:0,0:0:0:0:
333,56,89665,2,0,P|257:28|119:154,1,270,0|0,1:0|0:0,0:0:0:0:
57,197,91044,6,0,P|71:249|65:334,2,135,0|2|0,1:0|0:0|0:0,0:0:0:0:
13,118,92423,2,0,P|53:178|245:183,1,270,0|0,1:0|0:0,0:0:0:0:
303,131,93803,5,0,1:0:0:0:
480,160,94492,1,2,0:0:0:0:
359,284,95182,2,0,P|313:249|233:226,2,135,0|2|0,1:0|0:0|0:0,0:0:0:0:
286,336,96561,6,0,B|164:351|84:278|84:278|176:275|236:237|236:237|182:206|147:175|147:175|177:171|206:140|206:140|182:115|176:71,1,629.999999999999,0|0,1:0|0:0,0:0:0:0:
256,31,99320,6,0,P|340:22|430:83,1,180,4|2,1:0|0:0,0:0:0:0:
478,136,100354,1,0,0:0:0:0:
411,197,100699,2,0,B|386:243|386:243|415:340,2,135,0|2|0,1:0|0:0|0:0,0:0:0:0:
351,129,102078,5,0,1:0:0:0:
182,64,102768,1,2,0:0:0:0:
126,237,103458,2,0,P|133:304|132:327,1,89.9999999999999,0|0,1:0|0:0,0:0:0:0:
213,364,104147,2,0,L|316:349,1,89.9999999999999,2|0,0:0|0:0,0:0:0:0:
360,282,104837,6,0,P|393:227|456:168,2,135,0|2|0,1:0|0:0|0:0,0:0:0:0:
279,241,106216,1,0,1:0:0:0:
108,298,106906,1,2,0:0:0:0:
150,122,107596,1,4,0:0:0:0:
68,231,110354,6,0,B|209:204|174:328|315:301,1,270,4|0,0:0|0:0,0:0:0:0:
398,269,111734,2,0,P|421:235|331:54,1,270,2|0,0:0|0:0,0:0:0:0:
245,68,113113,2,0,B|218:154|218:154|264:233|264:233|233:324,1,270,0|0,1:0|0:0,0:0:0:0:
150,345,114492,2,0,B|96:297|30:284|30:284|87:234|90:165,1,270,2|0,0:0|0:0,0:0:0:0:
8,128,115872,6,0,P|74:79|168:214,1,270,0|0,1:0|0:0,0:0:0:0:
220,273,117251,2,0,B|260:240|302:239|302:239|373:294|373:294|421:291|452:256,1,270,2|0,0:0|0:0,0:0:0:0:
461,166,118630,2,0,P|405:97|225:93,2,270,0|2|0,1:0|0:0|0:0,0:0:0:0:
403,337,121389,6,0,P|272:347|176:258,1,270,4|0,0:0|0:0,0:0:0:0:
170,168,122768,2,0,P|127:126|104:255,1,270,2|0,0:0|0:0,0:0:0:0:
176,258,124147,5,0,1:0:0:0:
356,272,124837,1,0,0:0:0:0:
472,136,125527,1,2,0:0:0:0:
324,32,126216,1,0,0:0:0:0:
204,167,126906,6,0,P|162:183|36:136,2,180,0|2|0,1:0|0:0|0:0,0:0:0:0:
354,67,128975,1,2,0:0:0:0:
460,211,129665,1,4,0:0:0:0:
86,171,132423,6,0,B|266:105|246:277|427:211,1,360,4|2,0:0|0:0,0:0:0:0:
478,139,134147,1,0,0:0:0:0:
433,60,134492,2,0,P|387:34|338:23,1,89.9999999999999,2|0,0:0|0:0,0:0:0:0:
274,72,135182,6,0,L|288:258,1,180,0|2,1:0|0:0,0:0:0:0:
224,315,136216,1,0,0:0:0:0:
136,294,136561,2,0,P|78:248|55:188,2,135,2|2|0,0:0|0:0|0:0,0:0:0:0:
206,237,137941,5,0,1:0:0:0:
377,182,138630,1,2,0:0:0:0:
344,359,139320,2,0,L|249:345,1,89.9999999999999,2|0,0:0|0:0,0:0:0:0:
172,309,140010,1,2,0:0:0:0:
87,339,140354,1,0,0:0:0:0:
17,281,140699,6,0,P|13:229|85:129,1,180,0|2,1:0|0:0,0:0:0:0:
162,76,141734,2,0,L|342:106,1,180,0|2,1:0|0:0,0:0:0:0:
415,153,142768,2,0,L|427:257,1,89.9999999999999,0|0,1:0|0:0,0:0:0:0:
368,312,143458,5,4,0:0:0:0:
239,185,144147,1,2,0:0:0:0:
125,324,144837,2,0,P|78:313|8:251,2,135,0|2|2,1:0|0:0|0:0,0:0:0:0:
210,295,146216,5,0,0:0:0:0:
114,142,146906,1,2,0:0:0:0:
275,63,147596,2,0,B|303:112|303:112|284:205,2,135,0|2|2,1:0|0:0|0:0,0:0:0:0:
211,126,148975,5,0,0:0:0:0:
378,192,149665,1,2,0:0:0:0:
217,273,150354,2,0,L|82:253,2,135,0|2|2,1:0|0:0|0:0,0:0:0:0:
256,192,151734,12,4,154492,0:0:0:0:
81,124,165527,6,0,B|152:132|224:255|225:370|144:393|66:381|23:315|11:231|117:185|259:201|295:263,1,629.999999999999,2|0,0:0|0:0,0:0:0:0:
304,352,168285,6,0,B|367:349|419:293|407:231|381:172|335:133|297:126|254:150|233:152|171:164|151:29|207:-7|248:-17|325:7|350:43|306:132,1,629.999999999999,2|0,0:0|0:0,0:0:0:0:
274,202,171044,6,0,P|159:192|83:57,2,270,2|0|0,0:0|0:0|0:0,0:0:0:0:
393,67,173803,1,2,0:0:0:0:
61,282,176561,6,0,P|143:285|194:317,2,135,4|2|0,0:0|0:0|0:0,0:0:0:0:
34,195,177941,2,0,L|12:99,1,89.9999999999999,2|2,0:0|0:0,0:0:0:0:
86,54,178630,1,2,0:0:0:0:
173,74,178975,1,2,0:0:0:0:
223,148,179320,6,0,P|292:127|350:70,2,135,2|2|0,0:0|0:0|0:0,0:0:0:0:
134,161,180699,2,0,L|167:347,1,180,2|2,0:0|0:0,0:0:0:0:
253,363,181734,1,0,0:0:0:0:
326,311,182078,6,0,P|358:270|382:180,2,135,2|2|0,0:0|0:0|0:0,0:0:0:0:
254,255,183458,1,2,0:0:0:0:
238,75,184147,1,2,0:0:0:0:
317,32,184492,1,0,0:0:0:0:
394,77,184837,2,0,B|394:167|394:167|445:242|445:242|448:350,2,270,2|2|0,0:0|0:0|0:0,0:0:0:0:
229,150,187596,6,0,P|186:108|171:234,1,270,4|0,0:0|0:0,0:0:0:0:
244,241,188975,2,0,P|305:241|371:271,2,135,2|2|0,0:0|0:0|0:0,0:0:0:0:
195,317,190354,5,0,1:0:0:0:
30,271,191044,2,0,P|6:218|56:108,1,180,2|0,0:0|0:0,0:0:0:0:
132,75,192078,1,0,0:0:0:0:
204,128,192423,2,0,L|214:217,1,89.9999999999999,2|0,0:0|0:0,0:0:0:0:
269,288,193113,6,0,P|332:320|473:212,1,270,0|0,1:0|1:0,0:0:0:0:
440,129,194492,2,0,P|377:97|236:205,1,270,0|0,1:0|1:0,0:0:0:0:
176,271,195872,6,0,B|97:310|22:262|11:168|37:116|96:73|199:81|221:118|260:168|301:195|383:192|440:128,1,629.999999999999,4|14,0:0|3:0,0:0:0:0:
379,61,198630,6,0,L|338:330,1,270,4|2,1:0|0:0,0:0:0:0:
252,356,200010,2,0,P|217:350|171:321,1,89.9999999999999,0|0,1:0|0:0,0:0:0:0:
101,264,200699,1,2,0:0:0:0:
166,202,201044,1,0,0:0:0:0:
93,148,201389,6,0,L|56:14,2,135,0|2|0,1:0|0:0|0:0,0:0:0:0:
175,111,202768,1,0,1:0:0:0:
348,61,203458,1,2,0:0:0:0:
408,127,203803,1,0,0:0:0:0:
352,194,204147,6,0,P|330:250|322:289,1,89.9999999999999,0|0,1:0|0:0,0:0:0:0:
305,367,204837,2,0,L|123:340,1,180,2|0,0:0|1:0,0:0:0:0:
60,279,205872,1,0,0:0:0:0:
86,193,206216,2,0,P|128:174|188:165,1,89.9999999999999,2|0,0:0|0:0,0:0:0:0:
247,118,206906,6,0,P|277:150|489:148,1,270,0|2,1:0|0:0,0:0:0:0:
416,92,208285,2,0,L|396:274,1,180,0|0,1:0|0:0,0:0:0:0:
316,313,209320,1,2,0:0:0:0:
226,287,209665,6,0,P|171:260|88:254,2,135,4|2|0,1:0|0:0|0:0,0:0:0:0:
278,213,211044,2,0,P|243:152|201:97,2,135,0|2|0,1:0|0:0|0:0,0:0:0:0:
350,160,212423,6,0,L|376:17,2,135,0|2|0,1:0|0:0|0:0,0:0:0:0:
390,240,213803,2,0,P|455:202|512:187,2,135,0|2|0,1:0|0:0|0:0,0:0:0:0:
365,326,215182,5,0,1:0:0:0:
241,194,215872,1,2,0:0:0:0:
110,318,216561,2,0,P|72:278|52:243,1,89.9999999999999,0|0,1:0|0:0,0:0:0:0:
34,159,217251,1,2,0:0:0:0:
161,31,217941,2,0,B|229:89|229:89|319:74|319:74|402:109|402:109|445:189,1,360,4|0,1:0|0:0,0:0:0:0:
166,307,220699,6,0,P|116:288|68:220,2,135,4|2|0,1:0|0:0|0:0,0:0:0:0:
239,255,222078,1,2,0:0:0:0:
384,361,222768,1,2,0:0:0:0:
487,209,223458,6,0,P|461:153|359:85,1,180,0|2,1:0|0:0,0:0:0:0:
292,138,224492,1,0,0:0:0:0:
203,119,224837,2,0,P|159:96|106:29,2,135,2|2|0,0:0|0:0|0:0,0:0:0:0:
292,138,226216,6,0,L|298:227,1,89.9999999999999,0|0,1:0|0:0,0:0:0:0:
235,293,226906,1,2,0:0:0:0:
65,232,227596,1,2,0:0:0:0:
131,63,228285,1,2,0:0:0:0:
205,113,228630,1,0,0:0:0:0:
286,74,228975,6,0,P|345:64|463:120,2,180,0|0|0,1:0|1:0|1:0,0:0:0:0:
219,134,230699,1,2,0:0:0:0:
289,190,231044,2,0,L|308:281,1,89.9999999999999,0|0,1:0|0:0,0:0:0:0:
394,303,231734,6,0,P|433:274|451:142,1,180,4|2,1:0|0:0,0:0:0:0:
308,46,233113,1,0,0:0:0:0:
178,171,233803,1,2,0:0:0:0:
39,56,234492,6,0,L|22:191,2,135,0|2|0,1:0|0:0|0:0,0:0:0:0:
122,91,235872,2,0,P|159:104|293:61,1,180,0|2,0:0|0:0,0:0:0:0:
368,24,236906,1,0,0:0:0:0:
432,87,237251,6,0,L|447:272,1,180,0|2,1:0|0:0,0:0:0:0:
276,326,238630,2,0,P|238:284|127:232,1,180,0|2,0:0|0:0,0:0:0:0:
281,137,240010,1,4,1:0:0:0:
256,192,240354,12,4,242768,0:1:0:0:
