osu file format v14

[General]
AudioFilename: audio.ogg
AudioLeadIn: 0
PreviewTime: 66216
Countdown: 0
SampleSet: Soft
StackLeniency: 0.7
Mode: 0
LetterboxInBreaks: 0
WidescreenStoryboard: 0

[Editor]
Bookmarks: 143529
DistanceSpacing: 1.6
BeatDivisor: 4
GridSize: 32
TimelineZoom: 1

[Metadata]
Title:All This Time
TitleUnicode:All This Time
Artist:Fox Stevenson
ArtistUnicode:Fox Stevenson
Creator:Kyshiro
Version:Black Skies
Source:
Tags:drum and bass dnb electronic english stan sb AnimeStyle Asphyxia
BeatmapID:2002663
BeatmapSetID:956634

[Difficulty]
HPDrainRate:5.5
CircleSize:4
OverallDifficulty:8.5
ApproachRate:9
SliderMultiplier:1.8
SliderTickRate:1

[Events]
//Background and Video events
0,0,"wallpaper-1406694.jpg",0,0
//Break Periods
2,162968,164927
2,174003,175961
//Storyboard Layer 0 (Background)
//Storyboard Layer 1 (Fail)
//Storyboard Layer 2 (Pass)
//Storyboard Layer 3 (Foreground)
//Storyboard Layer 4 (Overlay)
//Storyboard Sound Samples

[TimingPoints]
10,344.827586206897,4,2,1,50,1,0
22078,-133.333333333333,4,2,1,50,0,0
33113,-117.647058823529,4,2,1,50,0,0
43889,-117.647058823529,4,2,1,5,0,0
44147,-108.695652173913,4,2,1,50,0,0
55182,-100,4,2,1,60,0,0
64837,-76.9230769230769,4,2,1,60,0,0
66216,-81.9672131147541,4,2,1,95,0,1
76906,-81.9672131147541,4,2,1,95,0,0
77251,-81.9672131147541,4,2,1,95,0,1
85527,-125,4,2,1,75,0,1
88285,-100,4,2,1,80,0,0
96561,-133.333333333333,4,2,1,80,0,0
99320,-100,4,2,1,80,0,0
107596,-133.333333333333,4,2,1,80,0,0
110354,-100,4,2,1,80,0,0
129665,-151.515151515152,4,2,1,75,0,0
129837,-151.515151515152,4,2,1,50,0,0
132423,-100,4,2,1,80,0,0
143458,-117.647058823529,4,2,1,60,0,0
153285,-200,4,2,1,50,0,0
176561,-133.333333333333,4,2,1,50,0,0
187596,-108.695652173913,4,2,1,65,0,0
197941,-76.9230769230769,4,2,1,70,0,0
198630,-79.3650793650794,4,2,1,95,0,1
209320,-79.3650793650794,4,2,1,95,0,0
209665,-79.3650793650794,4,2,1,95,0,1
217941,-125,4,2,1,95,0,1
220699,-94.3396226415094,4,2,1,80,0,0
228975,-119.047619047619,4,2,1,80,0,0
231734,-100,4,2,1,80,0,0
240010,-151.515151515152,4,2,1,50,0,0

[Colours]
Combo1 : 236,233,113
Combo2 : 248,193,192
Combo3 : 247,253,189
Combo4 : 255,113,116

[HitObjects]
234,54,22078,6,0,L|216:196,1,135.000005149842,2|0,0:0|0:0,0:0:0:0:
85,178,22768,2,0,B|223:139|198:265|337:227,1,270.000010299683,2|0,0:0|0:0,0:0:0:0:
490,93,23630,5,2,0:0:0:0:
419,40,23803,1,2,0:0:0:0:
356,101,23975,1,0,0:0:0:0:
426,152,24147,2,0,L|433:236,1,67.5000025749208,2|0,0:0|0:0,0:0:0:0:
333,322,24492,2,0,L|338:254,1,67.5000025749208,2|0,0:0|0:0,0:0:0:0:
266,169,24837,6,0,P|203:162|139:206,1,135.000005149842,2|0,0:0|0:0,0:0:0:0:
118,375,25527,2,0,B|200:344|223:249|223:249|242:305|306:341,1,270.000010299683,2|0,0:0|0:0,0:0:0:0:
440,94,27078,6,0,L|427:234,1,135.000005149842,2|0,0:0|0:0,0:0:0:0:
312,183,27596,2,0,P|336:261|334:327,1,135.000005149842,2|0,0:0|0:0,0:0:0:0:
87,231,28285,2,0,P|41:139|142:177,1,270.000010299683,2|0,0:0|0:0,0:0:0:0:
275,21,29493,5,0,0:0:0:0:
269,109,29665,1,2,0:0:0:0:
332,173,29837,2,0,P|392:190|508:113,1,202.500007724762,0|2,0:0|0:0,0:0:0:0:
142,87,32596,5,2,0:0:0:0:
56,33,32768,1,2,0:0:0:0:
13,125,32941,1,2,0:0:0:0:
100,177,33113,6,0,L|195:172,1,76.5000014591217,2|0,0:0|0:0,0:0:0:0:
356,109,33458,1,0,0:0:0:0:
274,57,33630,2,0,L|260:227,1,153.000002918243,2|0,0:0|0:0,0:0:0:0:
386,290,34147,1,0,0:0:0:0:
131,302,34320,6,0,P|206:286|278:339,1,153.000002918243,2|0,0:0|0:0,0:0:0:0:
374,189,34837,1,0,0:0:0:0:
259,145,35010,1,2,0:0:0:0:
349,93,35182,2,0,P|399:85|437:65,1,76.5000014591217
208,59,35527,2,0,P|172:44|134:40,1,76.5000014591217
27,213,35872,6,0,L|41:299,1,76.5000014591217,2|0,0:0|0:0,0:0:0:0:
121,164,36216,1,0,0:0:0:0:
146,339,36389,2,0,P|170:264|229:202,1,153.000002918243,2|0,0:0|0:0,0:0:0:0:
393,138,36906,1,0,0:0:0:0:
315,247,37078,6,0,L|300:89,1,153.000002918243,2|0,0:0|0:0,0:0:0:0:
179,29,37596,1,0,0:0:0:0:
101,137,37768,1,2,0:0:0:0:
202,229,37941,2,0,L|213:132,1,76.5000014591217
83,257,38285,2,0,L|91:333,1,76.5000014591217
268,364,38630,6,0,P|367:315|422:316,1,153.000002918243,2|0,0:0|0:0,0:0:0:0:
281,233,39147,1,0,0:0:0:0:
512,232,39320,2,0,P|436:222|372:182,1,153.000002918243,2|0,0:0|0:0,0:0:0:0:
296,84,39837,1,0,0:0:0:0:
412,15,40010,6,0,P|433:67|433:94,2,76.5000014591217,2|0|0,0:0|0:0|0:0,0:0:0:0:
159,72,40527,2,0,B|204:109|204:109|315:78,1,153.000002918243,2|0,0:0|0:0,0:0:0:0:
105,161,41044,1,0,0:0:0:0:
313,202,41216,6,0,P|237:193|173:249,1,153.000002918243,2|0,0:0|0:0,0:0:0:0:
234,358,41734,2,0,P|260:322|265:284,1,76.5000014591217
359,95,42078,2,0,P|366:132|390:161,1,76.5000014591217,2|0,0:0|0:0,0:0:0:0:
469,291,42423,2,0,L|377:274,1,76.5000014591217
246,178,42768,5,0,3:0:0:0:
219,183,42854,1,0,3:0:0:0:
192,188,42941,1,0,3:0:0:0:
165,193,43027,1,0,3:0:0:0:
138,198,43113,2,0,L|88:186,3,38.2500007295609,0|0|0|0,3:0|3:0|3:0|3:0,3:0:0:0:
134,93,43458,1,8,3:0:0:0:
163,68,43544,1,8,3:0:0:0:
199,58,43630,1,8,3:0:0:0:
237,56,43716,1,8,3:0:0:0:
273,69,43803,2,8,L|329:54,1,38.2500007295609,8|0,3:0|0:0,3:0:0:0:
496,229,44147,6,0,P|432:188|338:201,1,165.599994440918,4|0,0:0|0:0,0:0:0:0:
328,325,44665,2,0,B|375:319|403:292|403:292|419:333|461:353,1,165.599994440918,2|0,0:0|0:0,0:0:0:0:
72,350,45354,6,0,L|43:177,1,165.599994440918,2|0,0:0|0:0,0:0:0:0:
104,88,45872,1,2,0:0:0:0:
160,250,46044,2,0,P|187:178|259:120,1,165.599994440918,2|0,0:0|0:0,0:0:0:0:
262,315,46561,2,0,P|334:299|400:318,1,124.199995830689,2|0,0:0|0:0,0:0:0:0:
404,327,46906,6,0,B|449:285|449:285|424:183,1,165.599994440918,2|0,0:0|0:0,0:0:0:0:
306,42,47423,2,0,L|296:222,1,165.599994440918,2|0,0:0|0:0,0:0:0:0:
296,207,48113,6,0,P|256:162|151:158,1,165.599994440918,2|0,0:0|0:0,0:0:0:0:
200,251,48630,1,2,0:0:0:0:
103,297,48803,2,0,P|143:342|248:346,1,165.599994440918,2|0,0:0|0:0,0:0:0:0:
355,231,49320,2,0,L|227:247,1,124.199995830689,2|0,0:0|0:0,0:0:0:0:
200,251,49665,5,2,0:0:0:0:
200,251,50182,2,0,L|178:78,1,165.599994440918,2|0,0:0|0:0,0:0:0:0:
179,86,50872,6,0,B|265:82|246:139|332:136,1,165.599994440918,2|0,0:0|0:0,0:0:0:0:
321,41,51389,1,2,0:0:0:0:
188,180,51561,2,0,B|101:176|120:233|34:230,1,165.599994440918,2|0,0:0|0:0,0:0:0:0:
42,132,52078,1,2,0:0:0:0:
42,132,52423,6,0,L|27:48,2,82.7999972204591,2|0|0,1:2|0:0|1:0,0:0:0:0:
207,193,52941,2,0,P|163:213|123:213,1,82.7999972204591,2|0,0:0|1:0,0:0:0:0:
285,112,53285,2,0,P|326:114|362:133,1,82.7999972204591,2|0,0:0|1:0,0:0:0:0:
476,258,53630,2,0,L|381:246,1,82.7999972204591,2|0,0:0|1:0,0:0:0:0:
194,336,53975,2,0,L|289:324,1,82.7999972204591,2|0,0:0|1:0,0:0:0:0:
207,193,54320,1,2,0:0:0:0:
73,246,54492,2,0,P|48:283|39:322,1,82.7999972204591,0|2,1:0|0:0,0:0:0:0:
207,193,54837,2,0,L|194:58,1,124.199995830689,2|0,1:2|0:0,0:0:0:0:
173,88,55182,6,0,P|120:84|84:70,1,90,6|0,1:2|0:0,0:0:0:0:
272,22,55527,1,0,1:0:0:0:
126,203,55699,2,0,P|199:167|297:187,1,180,2|2,0:0|0:0,0:0:0:0:
224,300,56216,1,0,1:0:0:0:
421,256,56389,1,2,0:0:0:0:
347,360,56561,6,0,P|330:309|334:260,1,90,0|2,1:0|0:0,0:0:0:0:
456,140,56906,2,0,P|455:184|440:226,1,90,0|2,1:0|0:0,0:0:0:0:
254,157,57251,2,0,L|362:165,1,90,0|2,1:0|0:0,0:0:0:0:
199,275,57596,2,0,L|56:264,1,135,0|0,1:0|0:0,0:0:0:0:
31,264,57941,6,0,P|11:325|17:365,1,90,2|0,1:2|0:0,0:0:0:0:
112,171,58285,1,0,1:0:0:0:
209,254,58458,2,0,P|235:180|199:82,1,180,2|2,0:0|0:0,0:0:0:0:
303,20,58975,1,0,1:0:0:0:
446,161,59147,6,0,L|346:140,1,90,2|0,0:0|1:0,0:0:0:0:
509,82,59492,1,2,0:0:0:0:
302,219,59665,1,0,1:0:0:0:
386,63,59837,2,0,L|412:254,1,180,2|2,0:0|0:0,0:0:0:0:
290,335,60354,2,0,L|300:237,1,90,0|0,1:0|0:0,0:0:0:0:
192,41,60699,5,8,1:3:0:0:
100,214,60872,1,0,1:0:0:0:
59,81,61044,1,8,1:3:0:0:
233,174,61216,1,0,1:0:0:0:
48,97,61389,2,0,P|29:35|34:1,1,90,8|0,1:3|1:0,1:0:0:0:
244,162,61734,2,0,P|263:224|258:258,1,90,8|0,1:3|1:0,1:0:0:0:
103,199,62078,5,8,1:3:0:0:
376,114,62251,1,0,1:0:0:0:
148,98,62423,1,8,1:3:0:0:
400,227,62596,1,0,1:0:0:0:
129,298,62768,2,0,L|33:281,1,90,8|0,1:3|1:0,1:0:0:0:
345,23,63113,2,0,L|441:40,1,90,8|0,1:3|1:0,1:0:0:0:
288,321,63458,5,0,3:0:0:0:
279,305,63544,1,0,3:0:0:0:
271,288,63630,1,0,3:0:0:0:
263,271,63716,1,0,3:0:0:0:
256,254,63803,1,0,3:0:0:0:
250,236,63889,1,0,3:0:0:0:
244,218,63975,1,0,3:0:0:0:
240,200,64061,1,0,3:0:0:0:
237,182,64147,2,0,L|243:128,3,45,0|0|0|0,3:0|3:0|3:0|3:0,3:0:0:0:
378,164,64492,2,0,L|324:170,3,45,0|0|0|0,3:0|3:0|3:0|3:0,3:0:0:0:
318,42,64837,5,8,3:0:0:0:
280,66,64923,1,8,3:0:0:0:
235,73,65010,1,8,3:0:0:0:
190,68,65096,1,8,3:0:0:0:
151,44,65182,1,8,3:0:0:0:
106,36,65268,1,8,3:0:0:0:
62,45,65354,1,8,3:0:0:0:
27,74,65441,1,8,3:0:0:0:
16,117,65527,6,4,P|12:169|19:199,1,58.4999973220826,4|4,3:0|3:0,3:0:0:0:
235,190,65699,2,4,P|191:160|162:151,1,58.4999973220826,4|4,3:0|3:0,3:0:0:0:
114,319,65872,1,14,3:0:0:0:
123,335,66216,6,0,B|198:309|198:309|331:366,1,219.599990952759,4|8,1:0|0:0,0:0:0:0:
472,228,66734,1,2,0:0:0:0:
437,245,66820,1,0,3:0:0:0:
400,256,66906,1,2,0:0:0:0:
362,263,66992,1,0,3:0:0:0:
323,261,67078,1,2,0:0:0:0:
200,102,67251,2,0,L|319:117,1,109.79999547638,8|2,0:0|0:0,0:0:0:0:
338,121,67510,5,0,3:0:0:0:
338,121,67596,1,0,0:0:0:0:
240,204,67768,1,2,0:0:0:0:
305,28,67941,1,10,0:0:0:0:
443,142,68113,1,2,0:0:0:0:
448,174,68199,1,0,3:0:0:0:
453,206,68285,1,2,0:0:0:0:
459,238,68372,1,0,3:0:0:0:
465,270,68458,1,2,0:0:0:0:
328,357,68630,2,0,L|337:245,1,109.79999547638,10|0,0:0|0:0,0:0:0:0:
340,212,68889,5,0,3:0:0:0:
340,212,68975,2,0,P|267:177|154:245,1,219.599990952759,2|8,1:2|0:0,0:0:0:0:
12,92,69492,2,0,P|67:129|119:134,1,109.79999547638,2|0,0:0|0:0,0:0:0:0:
244,330,69837,2,0,L|257:204,1,109.79999547638,2|8,0:0|0:0,0:0:0:0:
248,78,70182,1,2,0:0:0:0:
248,78,70268,1,0,3:0:0:0:
248,78,70354,1,0,0:0:0:0:
155,212,70527,5,2,0:0:0:0:
360,88,70699,1,10,0:0:0:0:
157,31,70872,1,2,0:0:0:0:
154,47,70958,1,0,3:0:0:0:
151,63,71044,1,2,0:0:0:0:
148,79,71130,1,0,3:0:0:0:
145,95,71216,1,2,0:0:0:0:
342,183,71389,1,10,0:0:0:0:
269,32,71561,1,0,0:0:0:0:
97,209,71734,6,0,L|216:196,1,109.79999547638,2|0,1:2|0:0,0:0:0:0:
29,118,72078,1,8,0:0:0:0:
320,101,72251,2,0,P|214:112|115:30,1,219.599990952759,2|2,0:0|0:0,0:0:0:0:
413,34,72768,1,8,0:0:0:0:
311,200,72941,1,2,0:0:0:0:
455,259,73113,6,0,L|422:148,1,109.79999547638,0|2,0:0|0:0,0:0:0:0:
380,335,73458,1,10,0:0:0:0:
332,91,73630,1,2,0:0:0:0:
327,118,73716,1,0,3:0:0:0:
322,146,73803,1,2,0:0:0:0:
317,173,73889,1,0,3:0:0:0:
311,200,73975,1,2,0:0:0:0:
229,63,74147,2,0,P|209:25|204:2,1,54.8999977381898,10|0,0:0|0:0,0:0:0:0:
164,159,74320,2,0,P|155:184|140:208,1,54.8999977381898
44,315,74492,6,0,P|110:297|165:317,1,109.79999547638,0|0,1:0|0:0,0:0:0:0:
383,306,74837,2,0,P|325:312|238:244,1,164.699993214569,8|0,0:0|0:0,0:0:0:0:
235,223,75182,2,0,L|246:114,1,109.79999547638,0|0,1:0|0:0,0:0:0:0:
112,33,75527,2,0,L|116:95,1,54.8999977381898,8|0,0:0|0:0,0:0:0:0:
157,167,75699,6,0,L|41:155,1,109.79999547638,0|0,1:0|0:0,0:0:0:0:
19,155,75958,1,8,0:0:0:0:
19,155,76044,1,0,1:0:0:0:
123,307,76216,2,0,P|214:272|282:277,1,164.699993214569,8|0,0:0|0:0,0:0:0:0:
353,212,76561,2,0,L|371:330,1,109.79999547638,0|0,1:0|0:0,0:0:0:0:
412,39,76906,1,8,0:0:0:0:
412,39,77251,6,0,L|289:22,1,109.79999547638,4|0,1:0|0:0,0:0:0:0:
497,125,77596,1,8,0:0:0:0:
210,189,77768,2,0,B|269:167|285:114|285:114|320:158|385:153,1,219.599990952759,2|2,0:0|0:0,0:0:0:0:
171,75,78285,1,8,0:0:0:0:
319,236,78458,1,2,0:0:0:0:
336,256,78544,1,0,3:0:0:0:
354,276,78630,6,0,L|334:395,1,109.79999547638,0|2,0:0|0:0,0:0:0:0:
229,297,78975,1,10,0:0:0:0:
458,342,79147,1,2,0:0:0:0:
454,314,79234,1,0,3:0:0:0:
451,286,79320,1,2,0:0:0:0:
448,258,79406,1,0,3:0:0:0:
444,230,79492,1,2,0:0:0:0:
222,162,79665,2,0,P|280:198|327:203,1,109.79999547638,10|0,0:0|0:0,0:0:0:0:
113,266,80010,6,0,L|-4:286,1,109.79999547638,2|0,1:2|0:0,0:0:0:0:
208,179,80354,1,8,0:0:0:0:
38,132,80527,2,0,B|151:163|130:60|244:91,1,219.599990952759,2|2,0:0|0:0,0:0:0:0:
251,307,81044,2,0,P|216:242|218:202,1,109.79999547638,8|2,0:0|0:0,0:0:0:0:
398,63,81389,5,0,0:0:0:0:
314,228,81561,1,2,0:0:0:0:
475,144,81734,1,10,0:0:0:0:
296,117,81905,1,2,0:0:0:0:
274,123,81992,1,0,3:0:0:0:
253,129,82078,1,2,0:0:0:0:
231,135,82165,1,0,3:0:0:0:
210,141,82251,1,2,0:0:0:0:
425,245,82423,1,10,0:0:0:0:
253,262,82596,1,0,0:0:0:0:
274,266,82682,1,0,3:0:0:0:
295,270,82768,6,0,P|314:333|306:378,1,109.79999547638,2|0,1:2|0:0,0:0:0:0:
186,332,83113,1,8,0:0:0:0:
371,177,83285,2,0,P|301:148|173:247,1,219.599990952759,2|2,0:0|0:0,0:0:0:0:
440,83,83803,1,8,0:0:0:0:
470,227,83975,1,2,0:0:0:0:
467,248,84061,1,0,3:0:0:0:
464,269,84147,1,0,0:0:0:0:
327,65,84320,5,2,0:0:0:0:
509,153,84492,1,10,0:0:0:0:
253,167,84665,1,2,0:0:0:0:
404,136,84837,1,0,0:0:0:0:
309,306,85010,1,2,0:0:0:0:
307,51,85182,1,10,0:0:0:0:
352,214,85354,1,0,0:0:0:0:
352,214,85441,1,0,3:0:0:0:
352,214,85527,6,0,B|246:197|246:197|210:133|210:133|160:182|160:182|42:164,1,360,4|2,0:0|0:0,0:0:0:0:
123,82,86561,1,2,0:0:0:0:
341,50,86734,2,0,L|306:126,1,72,2|0,0:0|0:0,0:0:0:0:
201,272,87078,5,2,0:0:0:0:
346,233,87251,1,2,0:0:0:0:
139,176,87423,1,0,0:0:0:0:
214,292,87596,1,2,0:0:0:0:
16,241,87768,1,0,0:0:0:0:
265,140,87941,1,2,0:0:0:0:
80,372,88113,1,2,0:0:0:0:
133,104,88285,6,0,L|149:285,1,180,4|8,1:0|0:0,0:0:0:0:
365,229,88803,1,2,0:0:0:0:
344,205,88889,1,0,3:0:0:0:
319,185,88975,1,0,0:0:0:0:
291,170,89061,1,0,3:0:0:0:
261,160,89147,1,2,0:0:0:0:
308,335,89320,1,8,0:0:0:0:
479,264,89492,1,2,0:0:0:0:
479,264,89578,1,0,3:0:0:0:
479,264,89665,6,0,P|491:200|482:157,1,90,0|2,0:0|0:0,0:0:0:0:
441,59,90010,1,10,0:0:0:0:
283,151,90182,1,2,0:0:0:0:
287,182,90268,1,0,3:0:0:0:
292,213,90354,1,0,0:0:0:0:
297,244,90441,1,0,3:0:0:0:
302,274,90527,1,2,0:0:0:0:
194,353,90699,2,0,L|47:337,1,135,10|0,0:0|3:0,0:0:0:0:
28,332,91044,6,0,P|12:281|17:238,1,90,2|0,1:2|0:0,0:0:0:0:
82,137,91389,1,8,0:0:0:0:
241,235,91561,1,2,0:0:0:0:
241,235,91647,1,0,3:0:0:0:
241,235,91734,2,0,L|138:240,1,90,0|2,0:0|0:0,0:0:0:0:
328,313,92078,1,8,0:0:0:0:
181,141,92251,6,0,P|256:128|341:197,1,180,2|2,0:0|0:0,0:0:0:0:
471,129,92768,1,10,0:0:0:0:
471,307,92941,2,0,P|431:244|426:216,1,90,2|0,0:0|0:0,0:0:0:0:
335,288,93285,1,2,0:0:0:0:
377,103,93458,1,10,0:0:0:0:
246,375,93630,1,0,0:0:0:0:
246,375,93716,1,0,3:0:0:0:
246,375,93803,6,0,P|207:340|183:254,1,135,2|0,1:2|0:0,0:0:0:0:
184,230,94147,1,8,0:0:0:0:
124,101,94320,1,2,0:0:0:0:
121,132,94406,1,0,3:0:0:0:
113,162,94492,1,0,0:0:0:0:
98,189,94578,1,0,3:0:0:0:
77,213,94665,1,2,0:0:0:0:
30,54,94837,1,8,0:0:0:0:
207,33,95010,1,2,0:0:0:0:
207,33,95096,1,0,3:0:0:0:
207,33,95182,6,0,L|304:48,1,90,0|2,0:0|0:0,0:0:0:0:
142,114,95527,1,10,0:0:0:0:
350,152,95699,2,0,P|274:148|194:211,1,180,2|2,0:0|0:0,0:0:0:0:
307,275,96216,1,10,0:0:0:0:
109,310,96389,1,0,0:0:0:0:
109,310,96475,1,0,3:0:0:0:
109,310,96561,6,0,L|91:192,1,101.250003862381,0|0,1:0|0:0,0:0:0:0:
89,178,96906,1,8,0:0:0:0:
211,37,97165,1,0,0:0:0:0:
211,37,97251,2,0,P|195:91|200:132,1,67.5000025749208,0|0,1:0|0:0,0:0:0:0:
254,255,97596,1,8,0:0:0:0:
391,141,97768,6,0,P|329:135|276:152,1,101.250003862381,0|8,1:0|0:0,0:0:0:0:
271,157,98113,1,0,1:0:0:0:
348,318,98285,2,0,L|453:303,1,101.250003862381,8|0,0:0|0:0,0:0:0:0:
475,300,98630,1,0,1:0:0:0:
96,179,98975,1,8,0:0:0:0:
96,179,99320,6,0,B|191:166|176:232|271:219,1,180,4|8,1:0|0:0,0:0:0:0:
336,101,99837,2,0,P|271:111|241:133,1,90,2|0,0:0|0:0,0:0:0:0:
30,256,100182,2,0,P|69:276|114:278,1,90,2|8,0:0|0:0,0:0:0:0:
172,109,100527,6,0,L|200:298,1,180,2|2,0:0|0:0,0:0:0:0:
301,197,101044,1,10,0:0:0:0:
370,317,101216,1,2,0:0:0:0:
378,286,101303,1,0,3:0:0:0:
393,258,101389,1,0,0:0:0:0:
414,235,101475,1,0,3:0:0:0:
440,218,101561,1,2,0:0:0:0:
321,42,101734,2,0,P|345:85|352:131,1,90,10|0,0:0|0:0,0:0:0:0:
340,155,101992,5,0,3:0:0:0:
340,155,102078,2,0,L|235:143,1,90,2|0,1:2|0:0,0:0:0:0:
414,235,102423,1,8,0:0:0:0:
147,289,102596,2,0,P|213:245|317:260,1,180,2|2,0:0|0:0,0:0:0:0:
86,193,103113,1,8,0:0:0:0:
180,57,103285,1,2,0:0:0:0:
180,57,103372,1,0,3:0:0:0:
180,57,103458,6,0,L|169:162,1,90,0|2,0:0|0:0,0:0:0:0:
281,28,103803,1,10,0:0:0:0:
40,123,103975,2,0,P|83:185|109:289,1,180,2|2,0:0|0:0,0:0:0:0:
238,198,104492,2,0,P|274:134|325:96,1,135,10|0,0:0|3:0,0:0:0:0:
349,96,104837,6,0,L|456:108,1,90,2|0,1:2|0:0,0:0:0:0:
436,315,105182,1,8,0:0:0:0:
468,207,105354,1,2,0:0:0:0:
436,203,105441,1,0,3:0:0:0:
404,206,105527,1,0,0:0:0:0:
375,219,105613,1,0,3:0:0:0:
351,239,105699,1,2,0:0:0:0:
285,359,105872,1,8,0:0:0:0:
237,234,106044,1,2,0:0:0:0:
237,234,106130,1,0,3:0:0:0:
237,234,106216,6,0,L|130:246,1,90,0|2,0:0|0:0,0:0:0:0:
295,139,106561,1,10,0:0:0:0:
52,140,106734,2,0,P|112:149|210:67,1,180,2|2,0:0|0:0,0:0:0:0:
374,167,107251,2,0,L|270:154,1,90,10|0,0:0|0:0,0:0:0:0:
115,260,107596,6,0,B|160:191|260:179|384:286|378:340|325:396|279:397|210:383|183:344|200:257|287:181|366:233|409:242|455:213|455:213|501:180|520:101|475:26|345:40|339:108|345:145,1,945.000036048891,4|0,0:0|0:0,0:0:0:0:
344,126,110354,6,0,L|251:113,1,90,4|0,0:0|0:0,0:0:0:0:
55,157,110699,1,8,0:0:0:0:
150,213,110872,1,2,0:0:0:0:
152,181,110958,1,0,0:0:0:0:
154,149,111044,1,2,0:0:0:0:
157,117,111130,1,0,0:0:0:0:
160,85,111216,1,0,0:0:0:0:
40,175,111389,2,0,P|37:226|59:277,1,90,8|2,0:0|0:0,0:0:0:0:
73,282,111647,5,0,0:0:0:0:
73,282,111734,2,0,L|167:272,1,90,2|0,0:0|0:0,0:0:0:0:
351,217,112078,1,8,0:0:0:0:
185,163,112251,1,2,0:0:0:0:
288,305,112423,1,2,0:0:0:0:
288,130,112596,1,2,0:0:0:0:
185,271,112768,1,8,0:0:0:0:
351,217,112941,1,2,0:0:0:0:
185,163,113113,6,0,P|162:111|164:68,1,90,0|0,1:0|0:0,0:0:0:0:
288,305,113458,2,0,P|272:357|249:386,1,90,8|0,0:0|0:0,0:0:0:0:
333,166,113803,2,0,L|440:176,1,90,2|0,0:0|0:0,0:0:0:0:
250,225,114147,1,8,0:0:0:0:
487,277,114320,1,2,0:0:0:0:
487,277,114406,1,0,0:0:0:0:
487,277,114492,6,0,P|413:284|382:305,1,90,2|0,0:0|0:0,0:0:0:0:
297,368,114837,1,8,0:0:0:0:
178,242,115010,1,2,0:0:0:0:
205,256,115096,1,0,0:0:0:0:
234,265,115182,1,2,0:0:0:0:
265,267,115268,1,0,0:0:0:0:
296,263,115354,1,0,0:0:0:0:
211,134,115527,2,0,L|116:139,1,90,8|0,0:0|0:0,0:0:0:0:
358,162,115872,6,0,P|416:136|449:106,1,90,0|0,1:0|0:0,0:0:0:0:
265,267,116216,2,0,P|258:330|267:373,1,90,8|0,0:0|0:0,0:0:0:0:
211,134,116561,2,0,P|159:96|117:83,1,90,2|0,0:0|0:0,0:0:0:0:
150,238,116906,1,8,0:0:0:0:
326,173,117078,1,2,0:0:0:0:
326,173,117165,1,0,0:0:0:0:
326,173,117251,6,0,L|338:68,1,90,2|0,0:0|0:0,0:0:0:0:
419,215,117596,1,8,0:0:0:0:
230,137,117768,1,2,0:0:0:0:
234,168,117854,1,0,0:0:0:0:
238,199,117941,1,2,0:0:0:0:
242,230,118027,1,0,0:0:0:0:
247,261,118113,1,0,0:0:0:0:
196,363,118285,1,8,0:0:0:0:
130,236,118458,1,0,0:0:0:0:
417,220,118630,6,0,B|322:207|337:273|242:260,1,180,0|8,1:0|0:0,0:0:0:0:
208,99,119147,1,0,0:0:0:0:
208,99,119234,1,0,0:0:0:0:
208,99,119320,2,0,P|247:133|267:177,1,90,0|0,1:0|0:0,0:0:0:0:
156,197,119665,1,8,0:0:0:0:
335,97,119837,6,0,L|424:108,1,90,0|0,1:0|0:0,0:0:0:0:
156,197,120182,2,0,L|90:205,1,45,0|0,1:0|0:0,0:0:0:0:
35,147,120354,1,8,0:0:0:0:
170,55,120527,1,0,0:0:0:0:
196,72,120613,1,0,0:0:0:0:
218,93,120699,1,0,1:0:0:0:
237,117,120785,1,0,0:0:0:0:
251,145,120872,1,0,0:0:0:0:
334,63,121044,2,0,P|351:33|367:18,1,45,8|0,0:0|0:0,0:0:0:0:
404,146,121216,2,0,P|418:163|428:183,1,45
316,254,121389,6,0,P|266:238|149:297,1,180,4|8,0:0|0:0,0:0:0:0:
20,157,121906,1,2,0:0:0:0:
20,157,121992,1,0,0:0:0:0:
20,157,122078,2,0,P|65:180|118:183,1,90,2|0,0:0|0:0,0:0:0:0:
257,147,122423,1,8,0:0:0:0:
112,94,122596,6,0,L|95:291,1,180,2|2,0:0|0:0,0:0:0:0:
290,230,123113,2,0,L|179:215,1,90,8|2,0:0|0:0,0:0:0:0:
456,176,123458,1,2,0:0:0:0:
353,318,123630,1,2,0:0:0:0:
353,143,123803,1,8,0:0:0:0:
456,284,123975,1,2,0:0:0:0:
290,230,124147,6,0,P|255:185|246:135,1,90,0|0,1:0|0:0,0:0:0:0:
456,284,124492,2,0,P|442:326|412:360,1,90,8|0,0:0|0:0,0:0:0:0:
184,87,124837,2,0,P|272:67|337:138,1,180,2|8,0:0|0:0,0:0:0:0:
134,194,125354,1,2,0:0:0:0:
134,194,125441,1,0,0:0:0:0:
134,194,125527,6,0,L|30:181,1,90,2|0,0:0|0:0,0:0:0:0:
122,327,125872,1,8,0:0:0:0:
231,242,126044,1,2,0:0:0:0:
257,225,126130,1,0,0:0:0:0:
286,215,126216,1,2,0:0:0:0:
317,208,126303,1,0,0:0:0:0:
348,208,126389,1,0,0:0:0:0:
441,315,126561,2,0,L|347:299,1,90,8|0,0:0|0:0,0:0:0:0:
244,149,126906,5,0,1:0:0:0:
416,149,127078,1,0,0:0:0:0:
416,149,127165,1,0,0:0:0:0:
416,149,127251,1,8,0:0:0:0:
243,261,127423,1,2,0:0:0:0:
211,255,127510,1,0,0:0:0:0:
179,249,127596,1,2,0:0:0:0:
147,244,127682,1,0,0:0:0:0:
115,239,127768,1,0,0:0:0:0:
235,74,127941,2,0,P|282:129|296:167,1,90,8|0,0:0|0:0,0:0:0:0:
324,347,128285,6,0,P|346:307|378:276,1,90,0|0,1:0|0:0,0:0:0:0:
498,224,128630,1,8,0:0:0:0:
259,246,128803,2,0,P|196:242|115:160,1,180,2|2,0:0|0:0,0:0:0:0:
226,40,129320,2,0,L|234:136,1,90,8|0,0:0|0:0,0:0:0:0:
20,74,129665,5,4,0:0:0:0:
102,26,129837,1,0,0:0:0:0:
155,104,130010,1,0,0:0:0:0:
75,156,130182,2,0,L|82:205,4,29.6999999093628,2|0|2|0|0,0:0|0:0|0:0|0:0|0:0,0:0:0:0:
329,151,130699,5,0,0:0:0:0:
323,55,130871,2,0,L|277:36,4,29.6999999093628,2|0|2|0|0,0:0|0:0|0:0|0:0|0:0,0:0:0:0:
202,275,131389,5,0,0:0:0:0:
288,317,131561,2,0,L|326:286,4,29.6999999093628,2|0|2|0|0,0:0|0:0|0:0|0:0|0:0,0:0:0:0:
209,155,132078,2,0,P|176:174|138:187,1,59.3999998187256
34,278,132423,6,0,P|112:270|192:337,1,180,4|8,0:0|0:0,0:0:0:0:
299,256,132941,2,0,P|365:312|453:307,1,180,2|2,0:0|0:0,0:0:0:0:
405,197,133458,1,8,0:0:0:0:
223,165,133630,1,2,0:0:0:0:
223,165,133716,1,0,0:0:0:0:
223,165,133803,6,0,L|119:180,1,90,2|0,0:0|0:0,0:0:0:0:
336,96,134147,2,0,L|440:111,1,90,8|0,0:0|0:0,0:0:0:0:
440,246,134492,2,0,P|344:243|286:313,1,180,2|8,0:0|0:0,0:0:0:0:
99,249,135010,1,0,0:0:0:0:
200,363,135182,6,0,L|186:184,1,180,0|8,1:0|0:0,0:0:0:0:
315,70,135699,1,2,0:0:0:0:
316,101,135785,1,0,0:0:0:0:
314,132,135872,1,2,0:0:0:0:
307,162,135958,1,0,0:0:0:0:
294,190,136044,1,0,0:0:0:0:
93,83,136216,2,0,L|190:95,1,90,8|2,0:0|0:0,0:0:0:0:
212,82,136475,1,0,0:0:0:0:
212,82,136561,1,2,0:0:0:0:
17,154,136734,5,0,0:0:0:0:
213,203,136906,1,8,0:0:0:0:
16,273,137078,1,2,0:0:0:0:
44,258,137165,1,0,0:0:0:0:
74,250,137251,1,2,0:0:0:0:
105,248,137337,1,0,0:0:0:0:
136,251,137423,1,0,0:0:0:0:
189,370,137596,2,0,P|127:362|96:348,1,90,8|0,0:0|0:0,0:0:0:0:
276,290,137941,6,0,B|371:277|356:343|451:330,1,180,0|8,1:0|0:0,0:0:0:0:
451,151,138458,1,2,0:0:0:0:
451,151,138544,1,0,0:0:0:0:
451,151,138630,2,0,P|427:195|424:241,1,90,2|0,0:0|0:0,0:0:0:0:
325,118,138975,2,0,P|319:73|297:34,1,90,8|2,0:0|0:0,0:0:0:0:
267,24,139234,5,0,0:0:0:0:
267,24,139320,2,0,L|165:37,1,90,2|0,0:0|0:0,0:0:0:0:
62,104,139665,1,8,0:0:0:0:
161,181,139837,1,2,0:0:0:0:
186,163,139923,1,0,0:0:0:0:
214,149,140010,1,2,0:0:0:0:
244,141,140096,1,0,0:0:0:0:
275,137,140182,1,0,0:0:0:0:
383,244,140354,2,0,L|289:239,1,90,8|0,0:0|0:0,0:0:0:0:
61,307,140699,6,0,P|150:288|230:334,1,180,0|8,1:0|0:0,0:0:0:0:
368,370,141216,1,2,0:0:0:0:
368,370,141303,1,0,0:0:0:0:
368,370,141389,2,0,P|341:306|336:263,1,90,2|0,1:2|0:0,0:0:0:0:
332,145,141734,1,8,0:0:0:0:
456,209,141906,6,0,L|446:303,1,90,2|0,1:2|0:0,0:0:0:0:
426,112,142251,1,2,1:2:0:0:
368,370,142423,2,0,P|351:308|275:206,1,180,8|0,0:0|1:0,0:0:0:0:
92,304,142941,2,0,L|149:321,1,45,2|2,1:2|0:2,0:0:0:0:
211,268,143113,1,8,0:0:0:0:
64,34,143458,6,0,P|38:89|34:129,2,76.5000014591217,4|0|8,0:0|0:0|0:0,0:0:0:0:
127,164,143975,2,0,L|133:212,4,38.2500007295609,2|0|2|0|0,0:0|0:0|0:0|0:0|0:0,0:0:0:0:
219,56,144492,2,0,L|312:67,1,76.5000014591217,8|0,0:0|0:0,0:0:0:0:
441,147,144837,6,0,P|391:145|302:201,1,153.000002918243,0|8,0:0|0:0,0:0:0:0:
404,304,145354,2,0,L|448:298,4,38.2500007295609,2|0|2|0|0,0:0|0:0|0:0|0:0|0:0,0:0:0:0:
255,355,145872,2,0,L|151:344,1,76.5000014591217,8|0,0:0|0:0,0:0:0:0:
94,170,146216,6,0,P|159:196|182:218,1,76.5000014591217
306,268,146561,2,0,P|296:198|303:167,1,76.5000014591217,8|0,0:0|0:0,0:0:0:0:
278,38,146906,2,0,P|222:81|192:90,1,76.5000014591217,2|0,0:0|0:0,0:0:0:0:
366,114,147251,1,8,0:0:0:0:
185,197,147423,1,0,0:0:0:0:
328,266,147596,6,0,L|319:370,1,76.5000014591217
428,206,147941,1,8,0:0:0:0:
276,162,148113,2,0,L|266:109,4,38.2500007295609,2|0|2|0|0,0:0|0:0|0:0|0:0|0:0,0:0:0:0:
197,311,148630,2,0,P|146:324|105:321,1,76.5000014591217,8|0,0:0|0:0,0:0:0:0:
24,158,148975,6,0,P|96:158|166:197,1,153.000002918243,0|8,0:0|0:0,0:0:0:0:
276,162,149492,2,0,P|341:199|417:200,1,153.000002918243,2|2,0:0|0:0,0:0:0:0:
206,17,150010,2,0,L|193:100,1,76.5000014591217,8|0,0:0|0:0,0:0:0:0:
256,276,150354,5,0,0:0:0:0:
312,98,150527,1,0,0:0:0:0:
155,199,150699,1,8,0:0:0:0:
349,208,150872,2,0,L|399:196,4,38.2500007295609,2|0|2|0|0,0:0|0:0|0:0|0:0|0:0,0:0:0:0:
164,293,151389,2,0,L|76:286,1,76.5000014591217,8|0,0:0|0:0,0:0:0:0:
29,128,151734,6,0,B|226:72|190:252|389:198,1,382.500007295609,2|2,0:0|0:0,0:0:0:0:
475,125,152768,5,2,0:0:0:0:
300,28,152941,2,0,L|314:114,1,76.5000014591217,2|0,0:0|0:0,0:0:0:0:
475,243,153285,6,0,P|384:227|281:307,1,225,2|0,0:0|0:0,0:0:0:0:
407,362,154492,6,0,P|332:173|4:290,1,630,4|0,0:0|0:0,0:0:0:0:
144,340,157251,6,0,B|199:295|223:203|184:140|129:94|129:94|188:132|257:127|315:85|315:85|307:139|329:181|382:210,1,630,2|0,0:0|0:0,0:0:0:0:
430,100,160010,6,0,B|429:243|315:184|313:328,2,270,2|0|0,0:0|0:0|0:0,0:0:0:0:
470,317,162768,5,2,0:0:0:0:
28,88,165527,6,0,B|58:17|117:5|196:0|248:98|222:178|165:205|98:200|98:200|39:191|-4:207|-17:290|40:323|90:303,1,630,2|0,0:0|0:0,0:0:0:0:
504,271,168285,6,0,B|448:331|328:321|274:228|306:131|306:131|283:208|198:224|198:224|184:149|115:113,1,630,2|0,0:0|0:0,0:0:0:0:
192,311,171044,6,0,B|335:310|276:196|420:194,2,270.000010299683,2|0|0,0:0|0:0|0:0,0:0:0:0:
206,192,173803,5,2,0:0:0:0:
22,127,176561,6,0,P|93:129|156:170,1,135.000005149842,4|0,0:0|0:0,0:0:0:0:
225,72,177078,2,0,L|370:53,1,135.000005149842,2|2,0:0|0:0,0:0:0:0:
465,114,177596,1,0,0:0:0:0:
393,199,177768,6,0,P|331:210|257:162,1,135.000005149842,2|2,0:0|0:0,0:0:0:0:
185,59,178285,1,2,0:0:0:0:
96,24,178458,1,0,0:0:0:0:
25,86,178630,1,2,0:0:0:0:
46,178,178803,1,0,0:0:0:0:
138,197,178975,1,2,0:0:0:0:
184,279,179147,1,2,0:0:0:0:
128,356,179320,6,0,P|77:372|48:367,1,67.5000025749208,2|0,0:0|0:0,0:0:0:0:
74,274,179665,1,0,0:0:0:0:
207,281,179837,2,0,L|346:295,1,135.000005149842,2|2,0:0|0:0,0:0:0:0:
493,145,180354,5,2,0:0:0:0:
430,73,180527,1,0,0:0:0:0:
336,84,180699,1,2,0:0:0:0:
305,173,180872,1,2,0:0:0:0:
217,207,181044,1,0,0:0:0:0:
139,153,181216,1,2,0:0:0:0:
139,58,181389,2,0,L|225:43,1,67.5000025749208,2|0,0:0|0:0,0:0:0:0:
115,153,181734,2,0,L|29:138,1,67.5000025749208,2|0,0:0|0:0,0:0:0:0:
153,269,182078,6,0,P|224:250|297:253,1,135.000005149842,2|0,0:0|0:0,0:0:0:0:
422,195,182596,2,0,P|371:181|347:164,1,67.5000025749208,2|0,0:0|0:0,0:0:0:0:
465,37,182941,2,0,L|470:111,1,67.5000025749208,2|0,0:0|0:0,0:0:0:0:
286,94,183285,6,0,L|142:109,2,135.000005149842,2|2|2,0:0|0:0|0:0,0:0:0:0:
459,232,184147,1,2,0:0:0:0:
404,309,184320,1,0,0:0:0:0:
309,313,184492,1,2,0:0:0:0:
235,253,184665,1,0,0:0:0:0:
142,270,184837,6,0,P|98:300|80:327,2,67.5000025749208,2|0|0,0:0|0:0|0:0,0:0:0:0:
328,218,185354,2,0,P|272:172|246:111,1,135.000005149842,2|2,0:0|0:0,0:0:0:0:
94,89,185872,2,0,P|116:129|121:154,1,67.5000025749208,2|0,0:0|0:0,0:0:0:0:
142,343,186216,5,2,0:0:0:0:
67,238,186389,2,0,L|220:253,1,135.000005149842,2|2,0:0|0:0,0:0:0:0:
361,336,186906,1,2,0:0:0:0:
440,285,187078,1,0,0:0:0:0:
357,238,187251,1,2,0:0:0:0:
436,186,187423,1,2,0:0:0:0:
277,152,187596,6,0,L|175:165,1,82.7999972204591,4|0,0:0|0:0,0:0:0:0:
86,99,187941,1,8,0:0:0:0:
233,45,188113,1,2,0:0:0:0:
261,48,188199,1,0,0:0:0:0:
289,51,188285,1,0,0:0:0:0:
318,54,188372,1,0,0:0:0:0:
346,57,188458,1,2,0:0:0:0:
450,141,188630,1,8,0:0:0:0:
312,177,188803,6,0,P|295:245|315:340,1,165.599994440918,2|2,0:0|0:0,0:0:0:0:
406,279,189320,1,10,0:0:0:0:
207,211,189492,1,2,0:0:0:0:
202,321,189665,2,0,L|291:302,1,82.7999972204591,0|2,0:0|0:0,0:0:0:0:
101,223,190010,2,0,L|12:204,1,82.7999972204591,10|0,0:0|0:0,0:0:0:0:
167,60,190354,6,0,P|234:56|312:117,1,165.599994440918,0|8,1:0|0:0,0:0:0:0:
442,64,190872,2,0,L|421:241,1,165.599994440918,2|2,0:0|0:0,0:0:0:0:
217,166,191389,1,8,0:0:0:0:
321,304,191561,6,0,L|308:209,2,82.7999972204591,2|0|2,0:0|0:0|0:0,0:0:0:0:
217,166,192078,1,10,0:0:0:0:
248,351,192251,2,0,P|329:320|408:336,1,165.599994440918,2|2,0:0|0:0,0:0:0:0:
149,290,192768,2,0,P|98:283|54:259,1,82.7999972204591,8|0,0:0|0:0,0:0:0:0:
71,123,193113,5,0,1:0:0:0:
264,177,193285,1,0,0:0:0:0:
150,191,193458,1,0,1:0:0:0:
308,90,193630,1,0,0:0:0:0:
186,71,193803,5,0,1:0:0:0:
379,17,193975,1,0,0:0:0:0:
265,3,194148,1,0,1:0:0:0:
423,104,194320,1,0,0:0:0:0:
140,162,194492,6,0,L|51:150,1,82.7999972204591,0|0,1:0|0:0,0:0:0:0:
286,238,194837,2,0,L|375:226,1,82.7999972204591,0|0,1:0|0:0,0:0:0:0:
115,264,195182,2,0,P|57:275|16:296,1,82.7999972204591,0|0,1:0|0:0,0:0:0:0:
300,131,195527,2,0,P|340:125|379:110,1,82.7999972204591,0|0,1:0|0:0,0:0:0:0:
192,23,195872,5,0,3:0:0:0:
184,37,195958,1,0,3:0:0:0:
176,51,196044,1,0,3:0:0:0:
169,66,196130,1,0,3:0:0:0:
162,81,196216,1,0,3:0:0:0:
156,96,196303,1,0,3:0:0:0:
150,111,196389,1,0,3:0:0:0:
145,126,196475,1,0,3:0:0:0:
140,141,196561,2,0,L|96:131,3,41.3999986102295,0|0|0|0,3:0|3:0|3:0|3:0,3:0:0:0:
207,205,196906,2,0,L|251:195,3,41.3999986102295,0|0|0|0,3:0|3:0|3:0|3:0,3:0:0:0:
103,292,197251,5,8,3:0:0:0:
142,279,197337,1,8,3:0:0:0:
183,279,197423,1,8,3:0:0:0:
222,293,197510,1,8,3:0:0:0:
252,320,197596,1,8,3:0:0:0:
291,331,197682,1,8,3:0:0:0:
332,329,197768,1,8,3:0:0:0:
369,311,197854,1,8,3:0:0:0:
396,279,197941,6,4,P|406:237|404:216,1,58.4999973220826,4|4,3:0|3:0,3:0:0:0:
207,181,198113,2,4,L|289:199,1,58.4999973220826,4|4,3:0|3:0,3:0:0:0:
360,96,198285,1,14,3:0:0:0:
33,136,198630,6,0,B|149:169|128:62|246:94,1,226.799993078614,4|8,1:0|0:0,0:0:0:0:
367,208,199147,1,2,0:0:0:0:
327,201,199234,1,0,3:0:0:0:
287,194,199320,1,2,0:0:0:0:
247,187,199406,1,0,3:0:0:0:
207,181,199492,1,2,0:0:0:0:
123,267,199665,1,8,0:0:0:0:
333,330,199837,1,2,0:0:0:0:
333,330,199923,1,0,3:0:0:0:
333,330,200010,6,0,L|448:312,1,113.399996539307,0|2,0:0|0:0,0:0:0:0:
250,241,200354,1,10,0:0:0:0:
510,201,200527,2,0,P|394:215|316:144,1,226.799993078614,2|2,0:0|0:0,0:0:0:0:
429,11,201044,2,0,B|450:63|450:63|431:126,1,113.399996539307,10|0,0:0|0:0,0:0:0:0:
228,316,201389,6,0,B|183:253|183:253|237:101,1,226.799993078614,0|8,1:0|0:0,0:0:0:0:
71,38,201906,1,2,0:0:0:0:
90,72,201992,1,0,3:0:0:0:
103,109,202078,1,2,0:0:0:0:
111,148,202165,1,0,3:0:0:0:
115,187,202251,1,2,0:0:0:0:
6,167,202423,1,8,0:0:0:0:
184,32,202596,1,2,0:0:0:0:
184,32,202682,1,0,3:0:0:0:
184,32,202768,6,0,L|299:47,1,113.399996539307,0|2,0:0|0:0,0:0:0:0:
103,109,203113,1,10,0:0:0:0:
317,193,203285,2,0,B|249:195|216:148|216:148|198:203|134:223,1,226.799993078614,2|2,0:0|0:0,0:0:0:0:
276,350,203803,2,0,P|358:302|433:306,1,170.09999480896,10|0,0:0|0:0,0:0:0:0:
458,313,204147,6,0,P|416:249|409:203,1,113.399996539307,2|0,1:2|0:0,0:0:0:0:
416,30,204492,1,8,0:0:0:0:
507,113,204664,1,2,0:0:0:0:
467,117,204750,1,0,3:0:0:0:
427,121,204837,1,2,0:0:0:0:
387,125,204923,1,0,3:0:0:0:
347,129,205009,1,2,0:0:0:0:
290,22,205182,1,8,0:0:0:0:
236,129,205354,1,2,0:0:0:0:
236,129,205441,1,0,3:0:0:0:
236,129,205527,6,0,P|181:90|164:46,1,113.399996539307,0|2,0:0|0:0,0:0:0:0:
202,221,205872,1,10,0:0:0:0:
30,107,206044,2,0,P|102:215|83:308,1,226.799993078614,2|2,0:0|0:0,0:0:0:0:
314,208,206561,2,0,L|191:222,1,113.399996539307,10|0,0:0|0:0,0:0:0:0:
311,332,206906,6,0,P|393:339|428:358,1,113.399996539307,0|0,1:0|0:0,0:0:0:0:
487,39,207251,2,0,L|510:212,1,170.09999480896,8|0,0:0|0:0,0:0:0:0:
510,229,207596,2,0,P|457:249|401:249,1,113.399996539307,0|0,1:0|0:0,0:0:0:0:
227,183,207941,1,8,0:0:0:0:
317,109,208113,6,0,L|301:290,1,170.09999480896,0|8,1:0|0:0,0:0:0:0:
298,306,208458,1,0,1:0:0:0:
40,257,208630,2,0,P|111:230|148:233,1,113.399996539307,8|0,0:0|0:0,0:0:0:0:
172,244,208889,1,0,0:0:0:0:
172,244,208975,2,0,L|186:378,1,113.399996539307,0|0,1:0|0:0,0:0:0:0:
222,144,209320,1,8,0:0:0:0:
222,144,209665,6,0,P|161:134|119:100,1,113.399996539307,4|0,1:0|0:0,0:0:0:0:
339,215,210010,1,8,0:0:0:0:
125,266,210182,2,0,B|243:282|224:199|339:215,1,226.799993078614,2|2,0:0|0:0,0:0:0:0:
313,335,210699,1,8,0:0:0:0:
453,301,210872,1,2,0:0:0:0:
453,301,210958,1,0,3:0:0:0:
453,301,211044,6,0,P|482:233|470:175,1,113.399996539307,0|2,0:0|0:0,0:0:0:0:
403,69,211389,1,10,0:0:0:0:
297,179,211561,1,2,0:0:0:0:
301,218,211647,1,0,3:0:0:0:
305,257,211734,1,2,0:0:0:0:
309,296,211820,1,0,3:0:0:0:
313,335,211906,1,2,0:0:0:0:
174,366,212078,2,0,P|112:354|56:264,1,170.09999480896,10|0,0:0|3:0,0:0:0:0:
58,243,212423,6,0,P|31:302|-13:343,1,113.399996539307,2|0,1:2|0:0,0:0:0:0:
171,263,212768,1,8,0:0:0:0:
60,146,212941,2,0,B|107:143|136:114|136:114|166:184|250:189,1,226.799993078614,2|2,0:0|0:0,0:0:0:0:
247,67,213458,1,8,0:0:0:0:
363,133,213630,1,2,0:0:0:0:
363,133,213716,1,0,3:0:0:0:
363,133,213803,6,0,L|352:256,1,113.399996539307,0|2,0:0|0:0,0:0:0:0:
482,195,214147,1,10,0:0:0:0:
429,346,214320,1,2,0:0:0:0:
391,332,214406,1,0,3:0:0:0:
351,332,214492,1,2,0:0:0:0:
312,343,214578,1,0,3:0:0:0:
282,370,214665,1,2,0:0:0:0:
93,322,214837,2,0,P|150:348|206:342,1,113.399996539307,10|0,0:0|0:0,0:0:0:0:
154,130,215182,6,0,L|162:253,1,113.399996539307,2|0,1:2|0:0,0:0:0:0:
42,190,215527,1,8,0:0:0:0:
317,46,215699,2,0,B|205:88|204:4|96:45,1,226.799993078614,2|2,0:0|0:0,0:0:0:0:
261,169,216216,2,0,L|389:158,1,113.399996539307,8|2,0:0|0:0,0:0:0:0:
405,159,216475,5,0,3:0:0:0:
405,159,216561,2,0,P|438:223|443:273,1,113.399996539307,0|2,0:0|0:0,0:0:0:0:
496,108,216906,1,10,0:0:0:0:
327,260,217078,1,2,0:0:0:0:
237,60,217251,1,0,0:0:0:0:
358,116,217423,1,2,0:0:0:0:
214,203,217596,1,10,0:0:0:0:
104,72,217768,1,0,0:0:0:0:
66,336,217941,6,0,B|171:349|171:349|228:301|228:301|338:319,1,288,4|0,1:0|0:0,0:0:0:0:
139,239,218803,1,2,0:0:0:0:
231,115,218975,2,0,L|242:211,1,72,0|2,0:0|0:0,0:0:0:0:
346,19,219320,1,0,0:0:0:0:
84,96,219492,6,0,P|40:87|0:64,2,72,2|2|0,0:0|0:0|0:0,0:0:0:0:
269,38,220010,1,2,0:0:0:0:
180,255,220182,1,2,0:0:0:0:
334,190,220354,1,0,0:0:0:0:
115,102,220527,1,2,0:0:0:0:
403,124,220699,6,0,B|426:187|426:187|390:305,1,190.800000291138,4|8,1:0|0:0,0:0:0:0:
218,202,221216,2,0,L|319:191,1,95.4000001455689,2|0,0:0|0:0,0:0:0:0:
186,314,221561,2,0,L|85:303,1,95.4000001455689,2|8,0:0|0:0,0:0:0:0:
31,96,221906,1,2,0:0:0:0:
31,96,221992,1,0,3:0:0:0:
31,96,222078,6,0,P|84:141|103:178,1,95.4000001455689,0|2,0:0|0:0,0:0:0:0:
148,32,222423,1,10,0:0:0:0:
182,224,222596,2,0,P|194:167|295:69,1,190.800000291138,2|2,0:0|0:0,0:0:0:0:
355,202,223113,2,0,L|373:311,1,95.4000001455689,10|0,0:0|0:0,0:0:0:0:
379,328,223372,5,0,3:0:0:0:
379,328,223458,2,0,P|449:346|488:335,1,95.4000001455689,2|0,1:2|0:0,0:0:0:0:
441,199,223803,1,8,0:0:0:0:
254,234,223975,1,2,0:0:0:0:
258,267,224061,1,0,3:0:0:0:
262,300,224147,1,0,0:0:0:0:
266,333,224234,1,0,3:0:0:0:
271,365,224320,1,2,0:0:0:0:
132,276,224492,2,0,L|143:168,1,95.4000001455689,8|2,0:0|0:0,0:0:0:0:
131,41,224837,5,0,0:0:0:0:
6,181,225010,1,2,0:0:0:0:
215,98,225182,1,10,0:0:0:0:
26,75,225354,2,0,B|12:172|80:157|67:255,1,190.800000291138,2|2,0:0|0:0,0:0:0:0:
275,64,225872,2,0,P|218:54|136:104,1,143.100000218353,10|0,0:0|3:0,0:0:0:0:
141,113,226216,6,0,L|238:140,1,95.4000001455689,2|0,1:2|0:0,0:0:0:0:
59,177,226561,1,8,0:0:0:0:
276,236,226734,2,0,P|187:223|103:295,1,190.800000291138,2|2,0:0|0:0,0:0:0:0:
214,341,227251,1,8,0:0:0:0:
374,312,227423,1,2,0:0:0:0:
374,312,227510,1,0,3:0:0:0:
374,312,227596,6,0,P|398:251|388:204,1,95.4000001455689,0|2,0:0|0:0,0:0:0:0:
355,32,227941,1,10,0:0:0:0:
292,120,228113,1,2,0:0:0:0:
324,124,228199,1,0,3:0:0:0:
356,128,228285,1,0,0:0:0:0:
389,132,228372,1,0,3:0:0:0:
421,137,228458,1,2,0:0:0:0:
281,222,228630,2,0,L|178:236,1,95.4000001455689,10|0,0:0|0:0,0:0:0:0:
63,84,228975,6,0,P|138:90|172:110,1,113.399996539307,0|0,1:0|0:0,0:0:0:0:
190,127,229320,1,8,0:0:0:0:
85,295,229578,1,0,0:0:0:0:
85,295,229665,2,0,L|72:211,1,75.5999976928712,0|0,1:0|0:0,0:0:0:0:
168,354,230010,1,8,0:0:0:0:
279,163,230182,6,0,P|237:217|227:279,1,113.399996539307,0|8,1:0|0:0,0:0:0:0:
234,288,230527,1,0,1:0:0:0:
393,236,230699,2,0,L|377:113,1,113.399996539307,8|0,0:0|0:0,0:0:0:0:
375,97,231044,2,0,P|427:86|456:92,1,75.5999976928712,0|0,1:0|0:0,0:0:0:0:
267,42,231389,1,8,0:0:0:0:
267,42,231734,6,0,P|218:83|95:92,1,180,4|8,1:0|0:0,0:0:0:0:
0,197,232251,2,0,P|53:199|106:230,1,90,2|0,0:0|0:0,0:0:0:0:
225,258,232596,2,0,P|200:211|200:149,1,90,2|8,0:0|0:0,0:0:0:0:
375,223,232941,1,2,0:0:0:0:
375,223,233027,1,0,3:0:0:0:
375,223,233113,6,0,L|368:339,1,90,0|2,0:0|0:0,0:0:0:0:
304,142,233458,1,10,0:0:0:0:
484,285,233630,2,0,L|469:106,1,180,2|2,0:0|0:0,0:0:0:0:
287,29,234147,2,0,P|332:57|382:60,1,90,10|0,0:0|0:0,0:0:0:0:
207,113,234492,6,0,P|162:120|126:145,1,90,2|0,1:2|0:0,0:0:0:0:
178,17,234837,1,8,0:0:0:0:
301,136,235010,1,2,0:0:0:0:
300,167,235096,1,0,3:0:0:0:
299,198,235182,1,0,0:0:0:0:
298,229,235268,1,0,3:0:0:0:
297,260,235354,1,2,0:0:0:0:
401,206,235527,1,8,0:0:0:0:
188,232,235699,1,2,0:0:0:0:
188,232,235785,1,0,3:0:0:0:
188,232,235872,6,0,L|198:333,1,90,0|2,0:0|0:0,0:0:0:0:
99,152,236216,1,10,0:0:0:0:
316,131,236389,2,0,P|287:199|321:316,1,180,2|2,0:0|0:0,0:0:0:0:
198,116,236906,2,0,P|179:54|146:17,1,90,10|0,0:0|0:0,0:0:0:0:
30,263,237251,6,0,B|125:276|110:210|205:223,1,180,2|8,1:2|0:0,0:0:0:0:
354,366,237768,2,0,P|306:333|288:300,1,90,2|0,0:0|0:0,0:0:0:0:
346,108,238113,2,0,P|341:166|321:198,1,90,2|8,0:0|0:0,0:0:0:0:
148,119,238458,1,2,0:0:0:0:
148,119,238544,1,0,3:0:0:0:
148,119,238630,6,0,L|259:129,1,90,0|2,0:0|0:0,0:0:0:0:
76,207,238975,1,10,0:0:0:0:
271,260,239147,1,2,0:0:0:0:
239,255,239234,1,0,3:0:0:0:
207,259,239320,1,0,0:0:0:0:
179,273,239406,1,0,3:0:0:0:
156,294,239492,1,2,0:0:0:0:
352,349,239665,2,0,P|383:297|384:255,1,90,10|0,0:0|0:0,0:0:0:0:
276,107,240010,6,0,B|237:144|224:181|224:181|233:216|276:252|276:252|224:231|184:227|184:227|158:254|135:299|135:299|134:249|125:215|125:215|93:189|51:180|51:180|93:166|122:141|122:141|135:102|137:60|137:60|158:99|191:123|191:123|231:123|269:108,1,831.599997462158,4|0,1:0|0:0,0:0:0:0:
167,174,242768,5,4,0:1:0:0:
