osu file format v14

[General]
AudioFilename: capu.mp3
AudioLeadIn: 0
PreviewTime: 43682
Countdown: 0
SampleSet: Normal
StackLeniency: 0.7
Mode: 1
LetterboxInBreaks: 0
WidescreenStoryboard: 0

[Editor]
DistanceSpacing: 1
BeatDivisor: 4
GridSize: 32
TimelineZoom: 1.9

[Metadata]
Title:Hoohah (VIP Edit) (Cut Ver.)
TitleUnicode:Hoohah (VIP Edit) (Cut Ver.)
Artist:Fox Stevenson & Curbi
ArtistUnicode:Fox Stevenson & Curbi
Creator:Capu
Version:Kantan
Source:
Tags:electronic instrumental short version dnb drum and bass spinning spinnin' records remixes &
BeatmapID:2112499
BeatmapSetID:1009084

[Difficulty]
HPDrainRate:8
CircleSize:2
OverallDifficulty:3
ApproachRate:9
SliderMultiplier:1.4
SliderTickRate:1

[Events]
//Background and Video events
0,0,"cat.jpg",0,-80
//Break Periods
2,22158,32737
//Storyboard Layer 0 (Background)
//Storyboard Layer 1 (Fail)
//Storyboard Layer 2 (Pass)
//Storyboard Layer 3 (Foreground)
//Storyboard Layer 4 (Overlay)
//Storyboard Sound Samples

[TimingPoints]
234,344.827586206897,4,1,0,75,1,0
234,-100,4,1,0,75,0,0
11268,-100,4,1,0,85,0,0
44371,-100,4,1,0,100,0,1
54371,-100,4,1,0,100,0,0
55406,-100,4,1,0,100,0,1
65061,-100,4,1,0,100,0,0
66440,-100,4,1,0,85,0,0
77475,-100,4,1,0,75,0,0

[HitObjects]
256,192,234,5,0,0:0:0:0:
256,192,751,1,8,0:0:0:0:
256,192,1440,1,0,0:0:0:0:
256,192,1785,1,0,0:0:0:0:
256,192,2820,1,8,0:0:0:0:
256,192,3165,1,8,0:0:0:0:
256,192,4199,1,8,0:0:0:0:
256,192,4544,1,0,0:0:0:0:
256,192,4889,1,0,0:0:0:0:
256,192,5234,1,8,0:0:0:0:
256,192,5751,1,0,0:0:0:0:
256,192,6268,1,8,0:0:0:0:
256,192,6958,1,0,0:0:0:0:
256,192,7302,1,8,0:0:0:0:
256,192,8337,1,8,0:0:0:0:
256,192,8682,1,0,0:0:0:0:
256,192,9716,1,8,0:0:0:0:
256,192,10061,1,0,0:0:0:0:
256,192,10406,1,0,0:0:0:0:
256,192,10751,1,8,0:0:0:0:
256,192,11268,1,0,0:0:0:0:
256,192,11785,1,8,0:0:0:0:
256,192,12475,1,8,0:0:0:0:
256,192,12820,1,0,0:0:0:0:
256,192,13854,1,8,0:0:0:0:
256,192,14199,1,8,0:0:0:0:
256,192,15234,1,8,0:0:0:0:
256,192,15578,1,0,0:0:0:0:
256,192,15923,1,8,0:0:0:0:
256,192,16268,1,8,0:0:0:0:
256,192,16785,1,0,0:0:0:0:
256,192,17302,1,8,0:0:0:0:
256,192,17992,1,0,0:0:0:0:
256,192,18337,1,0,0:0:0:0:
256,192,19371,1,8,0:0:0:0:
256,192,19716,1,0,0:0:0:0:
256,192,20923,1,0,0:0:0:0:
256,192,21268,1,0,0:0:0:0:
256,192,21613,1,0,0:0:0:0:
256,192,21958,1,0,0:0:0:0:
256,192,33337,5,0,0:0:0:0:
256,192,33854,1,8,0:0:0:0:
256,192,34371,1,8,0:0:0:0:
256,192,34716,1,0,0:0:0:0:
256,192,35234,1,0,0:0:0:0:
256,192,35751,1,0,0:0:0:0:
256,192,36096,1,8,0:0:0:0:
256,192,36613,1,8,0:0:0:0:
256,192,37130,1,8,0:0:0:0:
256,192,37475,1,0,0:0:0:0:
256,192,38509,1,8,0:0:0:0:
256,192,38854,1,0,0:0:0:0:
256,192,39544,1,0,0:0:0:0:
256,192,40234,1,0,0:0:0:0:
256,192,40923,1,0,0:0:0:0:
256,192,41613,1,8,0:0:0:0:
256,192,41958,1,8,0:0:0:0:
256,192,42302,1,8,0:0:0:0:
256,192,42647,1,8,0:0:0:0:
256,192,42992,1,0,0:0:0:0:
256,192,44371,5,4,0:0:0:0:
256,192,44716,1,8,0:0:0:0:
256,192,45061,1,0,0:0:0:0:
256,192,45751,1,8,0:0:0:0:
256,192,46096,1,0,0:0:0:0:
256,192,46440,1,8,0:0:0:0:
256,192,46785,1,0,0:0:0:0:
256,192,47130,1,8,0:0:0:0:
256,192,47820,1,0,0:0:0:0:
256,192,48509,1,8,0:0:0:0:
256,192,48854,1,8,0:0:0:0:
256,192,49199,1,0,0:0:0:0:
256,192,49544,1,0,0:0:0:0:
256,192,49889,1,8,0:0:0:0:
256,192,50578,1,8,0:0:0:0:
256,192,51268,1,8,0:0:0:0:
256,192,51613,1,8,0:0:0:0:
256,192,51958,1,0,0:0:0:0:
256,192,52302,1,0,0:0:0:0:
256,192,52647,1,8,0:0:0:0:
256,192,53337,1,0,0:0:0:0:
256,192,54027,1,8,0:0:0:0:
256,192,54371,1,0,0:0:0:0:
256,192,55406,1,12,0:0:0:0:
256,192,56096,1,8,0:0:0:0:
256,192,56440,1,8,0:0:0:0:
256,192,56785,1,8,0:0:0:0:
256,192,57475,1,0,0:0:0:0:
256,192,57820,1,0,0:0:0:0:
256,192,58165,1,0,0:0:0:0:
256,192,58509,1,8,0:0:0:0:
256,192,58854,1,8,0:0:0:0:
256,192,59199,1,0,0:0:0:0:
256,192,59544,1,0,0:0:0:0:
256,192,60234,1,0,0:0:0:0:
256,192,60578,1,8,0:0:0:0:
256,192,60923,1,0,0:0:0:0:
256,192,61268,1,8,0:0:0:0:
256,192,61613,1,8,0:0:0:0:
256,192,61958,1,0,0:0:0:0:
256,192,62302,1,0,0:0:0:0:
256,192,62992,1,8,0:0:0:0:
256,192,63337,1,8,0:0:0:0:
256,192,63682,1,0,0:0:0:0:
256,192,64027,1,8,0:0:0:0:
256,192,64371,1,0,0:0:0:0:
256,192,64716,1,8,0:0:0:0:
256,192,65061,1,8,0:0:0:0:
256,192,65751,1,0,0:0:0:0:
256,192,66096,1,8,0:0:0:0:
256,192,66440,1,0,0:0:0:0:
256,192,66958,1,8,0:0:0:0:
256,192,67647,1,0,0:0:0:0:
256,192,67992,1,0,0:0:0:0:
256,192,69027,1,8,0:0:0:0:
256,192,69371,1,8,0:0:0:0:
256,192,70406,1,0,0:0:0:0:
256,192,70751,1,8,0:0:0:0:
256,192,71096,1,8,0:0:0:0:
256,192,71440,1,0,0:0:0:0:
256,192,71958,1,0,0:0:0:0:
256,192,72475,1,8,0:0:0:0:
256,192,73165,1,0,0:0:0:0:
256,192,73509,1,0,0:0:0:0:
256,192,74544,1,8,0:0:0:0:
256,192,74889,1,8,0:0:0:0:
256,192,75923,1,0,0:0:0:0:
256,192,76268,1,8,0:0:0:0:
256,192,76613,1,0,0:0:0:0:
256,192,76958,1,8,0:0:0:0:
256,192,77475,1,0,0:0:0:0:
256,192,77992,1,0,0:0:0:0:
256,192,78509,1,8,0:0:0:0:
256,192,78854,1,0,0:0:0:0:
256,192,80234,1,0,0:0:0:0:
256,192,80751,1,8,0:0:0:0:
256,192,81268,1,8,0:0:0:0:
256,192,81613,1,0,0:0:0:0:
256,192,81958,1,8,0:0:0:0:
256,192,82647,1,8,0:0:0:0:
256,192,82992,1,0,0:0:0:0:
256,192,83509,1,0,0:0:0:0:
256,192,84027,1,8,0:0:0:0:
256,192,84371,1,0,0:0:0:0:
256,192,84716,1,8,0:0:0:0:
256,192,85751,1,0,0:0:0:0:
256,192,86268,1,8,0:0:0:0:
256,192,86785,1,8,0:0:0:0:
256,192,87130,1,0,0:0:0:0:
256,192,87992,1,8,0:0:0:0:
256,192,88165,1,8,0:0:0:0:
