osu file format v14

[General]
AudioFilename: capu.mp3
AudioLeadIn: 0
PreviewTime: 43682
Countdown: 0
SampleSet: Normal
StackLeniency: 0.7
Mode: 1
LetterboxInBreaks: 0
WidescreenStoryboard: 1

[Editor]
DistanceSpacing: 1
BeatDivisor: 4
GridSize: 32
TimelineZoom: 1.5

[Metadata]
Title:Hoohah (VIP Edit) (Cut Ver.)
TitleUnicode:Hoohah (VIP Edit) (Cut Ver.)
Artist:Fox Stevenson & Curbi
ArtistUnicode:Fox Stevenson & Curbi
Creator:Capu
Version:Futsuu
Source:
Tags:electronic instrumental short version dnb drum and bass spinning spinnin' records remixes &
BeatmapID:2112498
BeatmapSetID:1009084

[Difficulty]
HPDrainRate:7
CircleSize:2
OverallDifficulty:4
ApproachRate:9
SliderMultiplier:1.4
SliderTickRate:1

[Events]
//Background and Video events
0,0,"cat.jpg",0,-80
//Break Periods
2,22158,32737
//Storyboard Layer 0 (Background)
//Storyboard Layer 1 (Fail)
//Storyboard Layer 2 (Pass)
//Storyboard Layer 3 (Foreground)
//Storyboard Layer 4 (Overlay)
//Storyboard Sound Samples

[TimingPoints]
234,344.827586206897,4,1,0,75,1,0
234,-100,4,1,0,75,0,0
11268,-100,4,1,0,85,0,0
44371,-100,4,1,0,100,0,1
54371,-100,4,1,0,100,0,0
55406,-100,4,1,0,100,0,1
65061,-100,4,1,0,100,0,0
66440,-100,4,1,0,85,0,0
77475,-100,4,1,0,75,0,0

[HitObjects]
256,192,234,5,0,0:0:0:0:
256,192,578,1,8,0:0:0:0:
256,192,1096,1,0,0:0:0:0:
256,192,1268,1,8,0:0:0:0:
256,192,1613,1,0,0:0:0:0:
256,192,2475,1,0,0:0:0:0:
256,192,2647,1,8,0:0:0:0:
256,192,2992,1,0,0:0:0:0:
256,192,3854,1,0,0:0:0:0:
256,192,4027,1,8,0:0:0:0:
256,192,4371,1,0,0:0:0:0:
256,192,4716,1,8,0:0:0:0:
256,192,4975,1,0,0:0:0:0:
256,192,5234,1,0,0:0:0:0:
256,192,5406,1,8,0:0:0:0:
256,192,5751,1,0,0:0:0:0:
256,192,6095,1,8,0:0:0:0:
256,192,6613,1,0,0:0:0:0:
256,192,6785,1,8,0:0:0:0:
256,192,7130,1,0,0:0:0:0:
256,192,7992,1,0,0:0:0:0:
256,192,8164,1,8,0:0:0:0:
256,192,8509,1,0,0:0:0:0:
256,192,9371,1,0,0:0:0:0:
256,192,9544,1,8,0:0:0:0:
256,192,9889,1,8,0:0:0:0:
256,192,10061,1,0,0:0:0:0:
256,192,10234,1,8,0:0:0:0:
256,192,10578,1,8,0:0:0:0:
256,192,10923,1,8,0:0:0:0:
256,192,11268,1,0,0:0:0:0:
256,192,11613,1,8,0:0:0:0:
256,192,12130,1,0,0:0:0:0:
256,192,12302,1,8,0:0:0:0:
256,192,12647,1,0,0:0:0:0:
256,192,12992,1,8,0:0:0:0:
256,192,13509,1,0,0:0:0:0:
256,192,13682,1,8,0:0:0:0:
256,192,14027,1,0,0:0:0:0:
256,192,14371,1,8,0:0:0:0:
256,192,14889,1,0,0:0:0:0:
256,192,15061,1,8,0:0:0:0:
256,192,15406,1,0,0:0:0:0:
256,192,15751,1,8,0:0:0:0:
256,192,16009,1,0,0:0:0:0:
256,192,16268,1,0,0:0:0:0:
256,192,16440,1,8,0:0:0:0:
256,192,16785,1,0,0:0:0:0:
256,192,17130,1,8,0:0:0:0:
256,192,17820,1,8,0:0:0:0:
256,192,18165,1,0,0:0:0:0:
256,192,18509,1,8,0:0:0:0:
256,192,19027,1,0,0:0:0:0:
256,192,19199,1,8,0:0:0:0:
256,192,19544,1,0,0:0:0:0:
256,192,19889,1,8,0:0:0:0:
256,192,20406,1,0,0:0:0:0:
256,192,20578,1,8,0:0:0:0:
256,192,20923,1,0,0:0:0:0:
256,192,21268,1,0,0:0:0:0:
256,192,21613,1,0,0:0:0:0:
256,192,21958,1,0,0:0:0:0:
256,192,33337,5,0,0:0:0:0:
256,192,33682,1,8,0:0:0:0:
256,192,33854,1,8,0:0:0:0:
256,192,34027,1,8,0:0:0:0:
256,192,34371,1,0,0:0:0:0:
256,192,34716,1,8,0:0:0:0:
256,192,35061,1,0,0:0:0:0:
256,192,35234,1,8,0:0:0:0:
256,192,35578,1,0,0:0:0:0:
256,192,35751,1,8,0:0:0:0:
256,192,35923,1,0,0:0:0:0:
256,192,36096,1,0,0:0:0:0:
256,192,36440,1,8,0:0:0:0:
256,192,36613,1,8,0:0:0:0:
256,192,36785,1,8,0:0:0:0:
256,192,37130,1,8,0:0:0:0:
256,192,37302,1,0,0:0:0:0:
256,192,37475,1,8,0:0:0:0:
256,192,37820,1,0,0:0:0:0:
256,192,37992,1,8,0:0:0:0:
256,192,38337,1,0,0:0:0:0:
256,192,38509,1,8,0:0:0:0:
256,192,38682,1,8,0:0:0:0:
256,192,38854,1,0,0:0:0:0:
256,192,39199,1,8,0:0:0:0:
256,192,39544,1,8,0:0:0:0:
256,192,39889,1,0,0:0:0:0:
256,192,40234,1,0,0:0:0:0:
256,192,40578,1,8,0:0:0:0:
256,192,40923,1,0,0:0:0:0:
256,192,41268,1,8,0:0:0:0:
256,192,41613,1,8,0:0:0:0:
256,192,41785,1,0,0:0:0:0:
256,192,41958,1,8,0:0:0:0:
256,192,42302,1,8,0:0:0:0:
256,192,42475,1,0,0:0:0:0:
256,192,42647,1,8,0:0:0:0:
256,192,42992,12,8,43682,0:0:0:0:
256,192,44371,5,4,0:0:0:0:
256,192,44716,1,8,0:0:0:0:
256,192,45061,1,8,0:0:0:0:
256,192,45406,1,0,0:0:0:0:
256,192,45751,1,8,0:0:0:0:
256,192,45923,1,8,0:0:0:0:
256,192,46096,1,8,0:0:0:0:
256,192,46440,1,8,0:0:0:0:
256,192,46613,1,8,0:0:0:0:
256,192,46785,1,8,0:0:0:0:
256,192,47130,1,0,0:0:0:0:
256,192,47475,1,8,0:0:0:0:
256,192,47820,1,8,0:0:0:0:
256,192,48165,1,0,0:0:0:0:
256,192,48509,1,8,0:0:0:0:
256,192,48682,1,0,0:0:0:0:
256,192,48854,1,0,0:0:0:0:
256,192,49199,1,8,0:0:0:0:
256,192,49889,1,0,0:0:0:0:
256,192,50234,1,8,0:0:0:0:
256,192,50578,1,8,0:0:0:0:
256,192,50923,1,0,0:0:0:0:
256,192,51268,1,8,0:0:0:0:
256,192,51440,1,8,0:0:0:0:
256,192,51613,1,0,0:0:0:0:
256,192,51958,1,8,0:0:0:0:
256,192,52130,1,8,0:0:0:0:
256,192,52302,1,0,0:0:0:0:
256,192,52647,1,0,0:0:0:0:
256,192,52992,1,8,0:0:0:0:
256,192,53337,1,8,0:0:0:0:
256,192,53682,1,0,0:0:0:0:
256,192,54027,1,8,0:0:0:0:
256,192,54199,1,8,0:0:0:0:
256,192,54371,1,0,0:0:0:0:
256,192,54544,1,0,0:0:0:0:
256,192,54716,1,8,0:0:0:0:
256,192,55406,1,12,0:0:0:0:
256,192,55751,1,8,0:0:0:0:
256,192,56096,1,8,0:0:0:0:
256,192,56268,1,0,0:0:0:0:
256,192,56440,1,8,0:0:0:0:
256,192,56613,1,0,0:0:0:0:
256,192,56785,1,8,0:0:0:0:
256,192,57302,1,0,0:0:0:0:
256,192,57475,1,8,0:0:0:0:
256,192,57647,1,8,0:0:0:0:
256,192,57820,1,0,0:0:0:0:
256,192,57992,1,8,0:0:0:0:
256,192,58165,1,0,0:0:0:0:
256,192,58509,1,8,0:0:0:0:
256,192,58854,1,8,0:0:0:0:
256,192,59027,1,0,0:0:0:0:
256,192,59199,1,8,0:0:0:0:
256,192,59371,1,0,0:0:0:0:
256,192,59544,1,8,0:0:0:0:
256,192,60061,1,0,0:0:0:0:
256,192,60234,1,8,0:0:0:0:
256,192,60406,1,8,0:0:0:0:
256,192,60578,1,0,0:0:0:0:
256,192,60923,1,8,0:0:0:0:
256,192,61613,1,8,0:0:0:0:
256,192,61785,1,0,0:0:0:0:
256,192,61958,1,8,0:0:0:0:
256,192,62130,1,0,0:0:0:0:
256,192,62302,1,8,0:0:0:0:
256,192,62820,1,0,0:0:0:0:
256,192,62992,1,8,0:0:0:0:
256,192,63165,1,8,0:0:0:0:
256,192,63337,1,0,0:0:0:0:
256,192,63509,1,8,0:0:0:0:
256,192,63682,1,0,0:0:0:0:
256,192,64027,1,8,0:0:0:0:
256,192,64371,1,8,0:0:0:0:
256,192,64544,1,0,0:0:0:0:
256,192,64716,1,8,0:0:0:0:
256,192,64889,1,8,0:0:0:0:
256,192,65061,1,0,0:0:0:0:
256,192,65578,1,8,0:0:0:0:
256,192,65751,1,0,0:0:0:0:
256,192,65923,1,0,0:0:0:0:
256,192,66096,1,8,0:0:0:0:
256,192,66440,1,0,0:0:0:0:
256,192,66785,1,8,0:0:0:0:
256,192,67475,1,8,0:0:0:0:
256,192,67820,1,0,0:0:0:0:
256,192,68165,1,8,0:0:0:0:
256,192,68682,1,0,0:0:0:0:
256,192,68854,1,8,0:0:0:0:
256,192,69199,1,0,0:0:0:0:
256,192,69544,1,8,0:0:0:0:
256,192,70061,1,0,0:0:0:0:
256,192,70234,1,8,0:0:0:0:
256,192,70578,1,0,0:0:0:0:
256,192,70923,1,8,0:0:0:0:
256,192,71182,1,0,0:0:0:0:
256,192,71440,1,0,0:0:0:0:
256,192,71613,1,8,0:0:0:0:
256,192,71958,1,0,0:0:0:0:
256,192,72302,1,8,0:0:0:0:
256,192,72992,1,8,0:0:0:0:
256,192,73337,1,0,0:0:0:0:
256,192,73682,1,8,0:0:0:0:
256,192,74199,1,0,0:0:0:0:
256,192,74371,1,8,0:0:0:0:
256,192,74716,1,0,0:0:0:0:
256,192,75061,1,8,0:0:0:0:
256,192,75578,1,0,0:0:0:0:
256,192,75751,1,8,0:0:0:0:
256,192,76268,1,0,0:0:0:0:
256,192,76440,1,8,0:0:0:0:
256,192,76958,1,0,0:0:0:0:
256,192,77130,1,8,0:0:0:0:
256,192,77475,1,0,0:0:0:0:
256,192,77820,1,8,0:0:0:0:
256,192,78337,1,0,0:0:0:0:
256,192,78509,1,8,0:0:0:0:
256,192,78854,1,0,0:0:0:0:
256,192,79716,1,0,0:0:0:0:
256,192,79889,1,8,0:0:0:0:
256,192,80234,1,0,0:0:0:0:
256,192,81096,1,0,0:0:0:0:
256,192,81268,1,8,0:0:0:0:
256,192,81613,1,0,0:0:0:0:
256,192,81958,1,8,0:0:0:0:
256,192,82216,1,0,0:0:0:0:
256,192,82475,1,0,0:0:0:0:
256,192,82647,1,8,0:0:0:0:
256,192,82992,1,0,0:0:0:0:
256,192,83337,1,8,0:0:0:0:
256,192,83854,1,0,0:0:0:0:
256,192,84027,1,8,0:0:0:0:
256,192,84371,1,0,0:0:0:0:
256,192,85234,1,0,0:0:0:0:
256,192,85406,1,8,0:0:0:0:
256,192,85751,1,0,0:0:0:0:
256,192,86613,1,0,0:0:0:0:
256,192,86785,1,8,0:0:0:0:
256,192,87130,1,0,0:0:0:0:
256,192,87992,1,0,0:0:0:0:
256,192,88165,1,8,0:0:0:0:
256,192,88509,1,0,0:0:0:0:
