osu file format v14

[General]
AudioFilename: audio.mp3
AudioLeadIn: 0
PreviewTime: 44378
Countdown: 1
SampleSet: Normal
StackLeniency: 0.4
Mode: 0
LetterboxInBreaks: 0
WidescreenStoryboard: 0

[Editor]
Bookmarks: 44378,54551,55413,66447
DistanceSpacing: 1.2
BeatDivisor: 4
GridSize: 4
TimelineZoom: 2.5

[Metadata]
Title:Hoohah (VIP Edit)
TitleUnicode:Hoohah (VIP Edit)
Artist:Fox Stevenson & Curbi
ArtistUnicode:Fox Stevenson & Curbi
Creator:Alumetri
Version:Reform
Source:
Tags:dnb fox stevenson curbi vip edit livstvichka djulus
BeatmapID:1404674
BeatmapSetID:663629

[Difficulty]
HPDrainRate:6
CircleSize:4
OverallDifficulty:9
ApproachRate:9
SliderMultiplier:1.8
SliderTickRate:1

[Events]
//Background and Video events
0,0,"bg.jpeg",0,0
//Break Periods
2,22509,29985
//Storyboard Layer 0 (Background)
//Storyboard Layer 1 (Fail)
//Storyboard Layer 2 (Pass)
//Storyboard Layer 3 (Foreground)
//Storyboard Sound Samples

[TimingPoints]
241,344.827586206897,4,1,1,30,1,0
241,-133.333333333333,4,1,1,30,0,0
11275,-125,4,1,1,40,0,0
21965,-200,4,1,1,40,0,0
22309,-200,4,1,1,5,0,0
32654,-125,4,1,1,5,0,0
32827,-66.6666666666667,4,1,1,40,0,1
33085,-66.6666666666667,4,1,1,40,0,0
33344,-100,4,1,1,60,0,0
36103,-100,4,1,1,60,0,0
38861,-90.9090909090909,4,1,1,65,0,0
42999,-90.9090909090909,4,1,1,65,0,0
43861,-66.6666666666667,4,1,1,60,0,1
44120,-66.6666666666667,4,1,1,60,0,0
44378,-83.3333333333333,4,1,1,75,0,1
46103,-62.5,4,1,1,75,0,1
47137,-66.6666666666667,4,1,1,75,0,1
47482,-83.3333333333333,4,1,1,75,0,1
54551,-83.3333333333333,4,1,1,60,0,0
55413,-83.3333333333333,4,1,1,75,0,1
66447,-133.333333333333,4,1,1,40,0,0
77482,-133.333333333333,4,1,1,35,0,0
88516,-100,4,1,1,35,0,0
88861,-100,4,1,1,5,0,0

[HitObjects]
160,158,241,6,0,L|86:163,1,67.5000025749208
132,76,585,2,0,L|268:68,1,135.000005149842
294,148,1103,1,0,0:0:0:0:
112,4,1275,1,0,0:0:0:0:
112,4,1620,6,0,B|76:16|56:60,1,67.5000025749208
25,168,1965,2,0,L|159:157,1,135.000005149842
132,76,2482,1,0,0:0:0:0:
127,237,2654,1,0,0:0:0:0:
127,237,2999,6,0,B|170:245|170:245|270:229,2,135.000005149842
95,318,3861,1,0,0:0:0:0:
159,156,4034,1,0,0:0:0:0:
159,156,4378,6,0,L|243:142,1,67.5000025749208
266,68,4723,1,0,0:0:0:0:
320,184,4896,1,2,0:0:0:0:
320,184,4982,1,2,0:0:0:0:
320,184,5068,1,2,0:0:0:0:
266,68,5241,1,2,0:0:0:0:
356,260,5413,1,0,0:0:0:0:
192,218,5758,6,0,P|126:211|69:245,2,135.000005149842
192,218,6620,1,0,0:0:0:0:
215,31,6792,1,0,0:0:0:0:
215,31,7137,6,0,B|210:105,1,67.5000025749208
100,140,7482,2,0,B|105:66,1,67.5000025749208
258,208,7827,2,0,L|192:218,1,67.5000025749208
144,288,8172,1,0,0:0:0:0:
144,288,8516,6,0,P|116:256|104:216,1,67.5000025749208
210,98,8861,2,0,L|276:88,1,67.5000025749208
258,208,9206,2,0,L|192:218,1,67.5000025749208
215,31,9551,1,0,0:0:0:0:
258,208,9896,5,0,0:0:0:0:
215,31,10068,1,0,0:0:0:0:
360,92,10241,1,0,0:0:0:0:
185,151,10413,1,0,0:0:0:0:
188,184,10499,1,0,0:0:0:0:
192,218,10585,1,0,0:0:0:0:
352,22,10758,5,0,0:0:0:0:
356,56,10844,1,0,0:0:0:0:
360,92,10930,1,0,0:0:0:0:
360,92,11275,6,0,L|438:81,1,72
179,106,11620,1,0,0:0:0:0:
360,92,11965,1,0,0:0:0:0:
360,92,12137,1,0,0:0:0:0:
179,106,12309,1,0,0:0:0:0:
179,106,12654,6,0,L|108:112,1,72
176,245,12999,2,0,L|247:239,1,72
336,148,13344,2,0,L|265:154,1,72
108,112,13689,1,0,0:0:0:0:
108,112,14034,6,0,L|24:116,1,72
188,184,14378,1,0,0:0:0:0:
188,184,14896,1,0,0:0:0:0:
191,28,15068,1,0,0:0:0:0:
191,28,15413,6,0,B|119:30,1,72
119,29,15758,1,0,0:0:0:0:
36,115,15930,1,2,0:0:0:0:
36,115,16016,1,2,0:0:0:0:
36,115,16103,1,2,0:0:0:0:
188,166,16275,1,2,0:0:0:0:
100,306,16447,1,0,0:0:0:0:
100,306,16792,6,0,L|173:298,1,72
260,160,17137,2,0,L|186:167,1,72
188,166,17654,1,0,0:0:0:0:
352,248,17827,1,0,0:0:0:0:
352,248,18172,6,0,L|279:256,1,72
344,48,18516,2,0,L|417:40,1,72
415,40,19034,1,0,0:0:0:0:
191,28,19206,1,0,0:0:0:0:
188,166,19551,6,0,B|260:164,1,72
191,28,19896,2,0,B|119:30,1,72
264,80,20413,1,0,0:0:0:0:
404,44,20585,1,0,0:0:0:0:
404,44,20930,6,0,P|376:12|336:0,1,72
264,80,21275,2,0,L|192:86,1,72
408,125,21620,2,0,L|479:118,1,72
244,250,21965,6,0,L|152:256,1,90
256,192,30585,12,0,32654,0:0:0:0:
106,135,32827,6,4,P|108:168|132:201,1,67.5000025749208
154,255,32999,2,0,P|142:216|117:188,1,67.5000025749208,4|0,0:0|0:0,0:0:0:0:
236,144,33344,6,0,L|356:140,1,90
400,136,33689,2,0,L|404:92,2,45
304,220,34034,2,0,L|308:264,2,45
400,304,34378,1,0,0:0:0:0:
325,141,34551,1,0,0:0:0:0:
272,364,34723,1,0,0:0:0:0:
236,144,34896,1,0,0:0:0:0:
476,240,35068,5,0,0:0:0:0:
308,264,35241,1,2,0:0:0:0:
308,264,35327,1,2,0:0:0:0:
404,92,35499,1,2,0:0:0:0:
404,92,35585,1,2,0:0:0:0:
236,144,35758,2,0,P|176:148|144:132,1,90
315,51,36103,2,0,L|323:179,1,90
197,333,36447,5,0,0:0:0:0:
194,288,36533,1,0,0:0:0:0:
191,243,36619,1,0,0:0:0:0:
320,140,36792,2,0,L|326:225,2,45
191,243,37137,6,0,L|66:226,1,90
249,94,37482,1,0,0:0:0:0:
249,94,37654,1,0,0:0:0:0:
344,308,37827,1,0,0:0:0:0:
320,140,37999,5,2,0:0:0:0:
320,140,38085,1,2,0:0:0:0:
163,305,38258,1,2,0:0:0:0:
163,305,38344,1,2,0:0:0:0:
249,94,38516,1,0,0:0:0:0:
325,229,38689,1,0,0:0:0:0:
152,80,38861,6,0,L|36:64,1,99.0000030212403
64,318,39206,2,0,L|180:302,1,99.0000030212403
250,93,39551,6,0,L|134:77,1,99.0000030212403
162,304,39896,2,0,L|278:288,1,99.0000030212403
348,106,40241,6,0,L|232:90,1,99.0000030212403
260,290,40586,2,0,L|376:274,1,99.0000030212403
446,119,40930,6,0,L|330:103,1,99.0000030212403
358,276,41275,2,0,L|474:260,1,99.0000030212403
347,105,41620,5,0,0:0:0:0:
358,276,41792,1,0,0:0:0:0:
249,92,41965,5,0,0:0:0:0:
260,290,42137,1,0,0:0:0:0:
151,79,42309,5,0,0:0:0:0:
162,304,42482,1,0,0:0:0:0:
53,66,42654,5,0,0:0:0:0:
64,318,42827,1,0,0:0:0:0:
160,227,42999,5,0,0:0:0:0:
202,203,43085,1,0,0:0:0:0:
251,205,43172,1,0,0:0:0:0:
239,157,43258,1,0,0:0:0:0:
208,119,43344,1,0,0:0:0:0:
164,99,43430,1,0,0:0:0:0:
115,100,43516,1,0,0:0:0:0:
71,124,43603,1,0,0:0:0:0:
43,164,43689,2,0,L|48:80,1,49.5000015106202
65,249,43861,6,4,L|62:329,1,67.5000025749208
160,227,44034,2,0,L|149:160,1,67.5000025749208
171,324,44378,6,0,L|43:316,1,107.999996704102
276,204,44723,2,0,L|404:212,1,107.999996704102
383,210,45068,1,0,0:0:0:0:
320,336,45241,1,0,0:0:0:0:
260,128,45413,1,0,0:0:0:0:
320,352,45585,1,0,0:0:0:0:
460,132,45758,5,0,0:0:0:0:
320,368,45930,1,0,0:0:0:0:
276,204,46103,2,0,B|316:224|316:224|428:200,2,144
498,209,46620,1,0,0:0:0:0:
260,128,46792,1,0,0:0:0:0:
460,132,46965,1,0,0:0:0:0:
356,304,47137,1,0,0:0:0:0:
356,304,47482,5,0,0:0:0:0:
188,352,47654,1,0,0:0:0:0:
284,176,47827,1,0,0:0:0:0:
368,384,47999,1,0,0:0:0:0:
236,264,48172,1,0,0:0:0:0:
440,224,48344,1,0,0:0:0:0:
284,176,48516,6,0,L|152:172,1,107.999996704102
236,264,48861,1,0,0:0:0:0:
332,96,49034,1,2,0:0:0:0:
332,96,49120,1,2,0:0:0:0:
332,96,49206,2,0,L|380:156,1,53.9999983520508
400,304,49378,1,2,0:0:0:0:
284,176,49551,1,0,0:0:0:0:
236,264,49723,1,0,0:0:0:0:
332,96,49896,1,0,0:0:0:0:
332,96,50241,5,0,0:0:0:0:
236,264,50413,1,0,0:0:0:0:
344,68,50585,1,0,0:0:0:0:
332,308,50758,1,0,0:0:0:0:
356,40,50930,1,0,0:0:0:0:
432,224,51103,1,0,0:0:0:0:
176,172,51275,5,0,0:0:0:0:
368,12,51447,1,0,0:0:0:0:
236,264,51620,2,0,L|88:248,1,107.999996704102
52,244,51965,1,0,0:0:0:0:
168,344,52137,1,0,0:0:0:0:
249,156,52309,1,0,0:0:0:0:
84,312,52482,1,0,0:0:0:0:
236,264,52654,2,0,P|248:200|248:136,1,107.999996704102
249,156,52999,5,0,0:0:0:0:
84,312,53172,1,0,0:0:0:0:
192,84,53344,1,0,0:0:0:0:
236,264,53517,1,0,0:0:0:0:
424,192,53689,1,0,0:0:0:0:
249,156,53861,1,0,0:0:0:0:
249,156,54034,1,0,0:0:0:0:
332,308,54206,1,0,0:0:0:0:
172,176,54378,2,0,L|24:160,1,107.999996704102
64,164,54637,5,2,0:0:0:0:
64,164,54723,1,2,0:0:0:0:
99,247,54896,1,2,0:0:0:0:
139,251,54982,1,2,0:0:0:0:
182,257,55068,2,0,L|267:267,1,53.9999983520508
302,331,55413,6,0,B|262:351|218:335|218:335|158:359,1,107.999996704102
84,312,55758,1,0,0:0:0:0:
279,202,55930,1,0,0:0:0:0:
198,342,56103,1,0,0:0:0:0:
152,112,56275,1,0,0:0:0:0:
279,202,56447,1,0,0:0:0:0:
64,164,56620,1,0,0:0:0:0:
152,112,56792,6,0,P|204:124|276:124,1,107.999996704102
208,36,57137,1,0,0:0:0:0:
208,36,57309,1,0,0:0:0:0:
172,192,57482,2,0,P|232:204|296:195,1,107.999996704102
336,144,57827,2,0,L|348:76,2,53.9999983520508
216,289,58172,6,0,L|324:300,1,107.999996704102
235,105,58516,1,0,0:0:0:0:
279,202,58689,1,0,0:0:0:0:
172,192,58861,1,0,0:0:0:0:
208,36,59034,1,0,0:0:0:0:
336,144,59206,1,0,0:0:0:0:
216,289,59378,1,0,0:0:0:0:
44,120,59551,6,0,L|188:108,1,107.999996704102
293,94,59896,2,0,L|273:246,1,107.999996704102
279,202,60154,1,2,0:0:0:0:
279,202,60241,1,2,0:0:0:0:
151,111,60413,1,2,0:0:0:0:
384,64,60585,2,0,L|364:216,1,107.999996704102
165,218,60930,6,0,L|145:66,1,107.999996704102
236,317,61275,1,0,0:0:0:0:
92,212,61447,1,0,0:0:0:0:
255,332,61620,1,0,0:0:0:0:
150,110,61792,1,0,0:0:0:0:
275,346,61965,1,0,0:0:0:0:
19,206,62137,1,0,0:0:0:0:
165,218,62309,6,0,L|271:201,1,107.999996704102
150,110,62654,1,0,0:0:0:0:
130,334,62827,2,0,P|191:332|236:317,1,107.999996704102
150,110,63172,1,0,0:0:0:0:
72,197,63344,1,0,0:0:0:0:
271,200,63516,1,0,0:0:0:0:
150,110,63689,6,0,L|20:119,1,107.999996704102
296,128,64034,1,0,0:0:0:0:
236,316,64206,1,0,0:0:0:0:
271,200,64378,1,0,0:0:0:0:
320,361,64551,1,0,0:0:0:0:
296,128,64723,1,0,0:0:0:0:
151,270,64896,1,0,0:0:0:0:
321,56,65068,1,0,0:0:0:0:
321,56,65585,5,0,0:0:0:0:
84,224,65758,1,0,0:0:0:0:
320,361,65930,1,0,0:0:0:0:
150,110,66103,2,0,P|96:96|24:120,1,107.999996704102
84,224,66447,6,0,L|250:214,1,135.000005149842
218,215,67137,1,0,0:0:0:0:
338,138,67309,1,0,0:0:0:0:
150,110,67482,1,0,0:0:0:0:
150,110,67827,6,0,L|218:105,1,67.5000025749208
84,224,68172,2,0,L|16:229,1,67.5000025749208
151,270,68516,1,0,0:0:0:0:
151,270,68689,1,0,0:0:0:0:
24,124,68861,1,0,0:0:0:0:
278,201,69034,1,0,0:0:0:0:
84,224,69206,6,0,L|-4:228,1,67.5000025749208
210,204,69551,2,0,L|298:200,1,67.5000025749208
277,200,70068,1,0,0:0:0:0:
158,116,70241,2,0,L|90:119,1,67.5000025749208
203,28,70585,6,0,L|270:24,2,67.5000025749208
278,201,71103,1,2,0:0:0:0:
278,201,71189,1,2,0:0:0:0:
278,201,71275,1,2,0:0:0:0:
158,116,71447,1,2,0:0:0:0:
321,56,71620,1,0,0:0:0:0:
277,200,71965,6,0,L|193:204,1,67.5000025749208
321,56,72309,2,0,L|405:52,1,67.5000025749208
388,52,72827,1,0,0:0:0:0:
149,109,72999,1,0,0:0:0:0:
149,109,73344,6,0,L|65:113,2,67.5000025749208
294,224,73861,2,0,L|378:220,1,67.5000025749208
149,109,74206,1,0,0:0:0:0:
324,56,74378,1,0,0:0:0:0:
218,264,74551,1,0,0:0:0:0:
203,28,74723,6,0,L|119:32,1,67.5000025749208
224,136,75068,2,0,L|308:132,2,67.5000025749208
135,31,75585,1,0,0:0:0:0:
150,264,75758,2,0,L|230:264,1,67.5000025749208
218,264,76103,5,0,0:0:0:0:
291,132,76274,1,0,0:0:0:0:
389,317,76447,1,0,0:0:0:0:
324,56,76620,1,0,0:0:0:0:
304,296,76792,1,0,0:0:0:0:
324,56,76965,1,0,0:0:0:0:
361,220,77137,1,0,0:0:0:0:
149,109,77309,1,0,0:0:0:0:
338,138,77482,6,0,L|250:142,1,67.5000025749208
150,267,77827,2,0,L|238:263,1,67.5000025749208
217,263,78344,1,0,0:0:0:0:
149,109,78516,1,0,0:0:0:0:
149,109,78861,2,0,L|216:105,2,67.5000025749208
73,149,79378,1,0,0:0:0:0:
228,32,79551,5,0,0:0:0:0:
293,223,79723,1,0,0:0:0:0:
149,109,79896,1,0,0:0:0:0:
160,236,80068,1,0,0:0:0:0:
160,236,80241,6,0,L|227:232,1,67.5000025749208
216,104,80585,2,0,L|149:108,1,67.5000025749208
149,109,81103,1,0,0:0:0:0:
135,31,81275,2,0,L|68:35,1,67.5000025749208
160,236,81620,1,0,0:0:0:0:
135,31,81792,1,0,0:0:0:0:
227,231,81965,1,0,0:0:0:0:
260,76,82137,1,0,0:0:0:0:
260,76,82223,1,0,0:0:0:0:
260,76,82309,6,0,L|326:80,1,67.5000025749208
149,109,82654,1,0,0:0:0:0:
293,223,82827,1,0,0:0:0:0:
135,31,82999,6,0,L|202:27,1,67.5000025749208
149,109,83344,2,0,L|82:113,2,67.5000025749208
260,76,83861,1,0,0:0:0:0:
260,76,84034,1,0,0:0:0:0:
164,244,84206,1,0,0:0:0:0:
202,26,84378,5,0,0:0:0:0:
340,80,84551,1,0,0:0:0:0:
212,160,84723,1,0,0:0:0:0:
318,194,84896,1,0,0:0:0:0:
240,236,85068,6,0,L|172:239,1,67.5000025749208
340,80,85413,1,0,0:0:0:0:
312,280,85585,1,0,0:0:0:0:
212,160,85758,6,0,L|144:163,1,67.5000025749208
311,279,86103,2,0,L|378:275,1,67.5000025749208
378,274,86620,1,0,0:0:0:0:
405,134,86792,1,0,0:0:0:0:
405,134,87137,2,0,L|472:130,1,67.5000025749208
279,156,87482,2,0,L|211:159,1,67.5000025749208
324,55,87827,5,0,0:0:0:0:
240,236,87999,1,0,0:0:0:0:
184,84,88172,1,0,0:0:0:0:
279,156,88344,1,0,0:0:0:0:
279,156,88516,6,2,B|319:137|355:165|355:165|395:153|395:153|454:169|480:152,1,180
