osu file format v14

[General]
AudioFilename: audio.mp3
AudioLeadIn: 0
PreviewTime: 57523
Countdown: 0
SampleSet: Soft
StackLeniency: 0.5
Mode: 0
LetterboxInBreaks: 0
WidescreenStoryboard: 1

[Editor]
DistanceSpacing: 1.8
BeatDivisor: 8
GridSize: 4
TimelineZoom: 1.9

[Metadata]
Title:Major\Minor
TitleUnicode:Major\Minor
Artist:Fox Amoore
ArtistUnicode:Fox Amoore
Creator:Renia Xenophere
Version:Destruction
Source:Major\Minor
Tags:furry grand music disaster rpg maker visual novel orchestral
BeatmapID:1225763
BeatmapSetID:576879

[Difficulty]
HPDrainRate:6.5
CircleSize:5
OverallDifficulty:8
ApproachRate:9
SliderMultiplier:1.8
SliderTickRate:1

[Events]
//Background and Video events
0,0,"BG.png",0,0
//Break Periods
//Storyboard Layer 0 (Background)
//Storyboard Layer 1 (Fail)
//Storyboard Layer 2 (Pass)
//Storyboard Layer 3 (Foreground)
//Storyboard Sound Samples

[TimingPoints]
681,422.535211267606,4,2,0,20,1,0
2020,536.935211267605,4,2,0,20,1,0
3128,421.335211267606,4,2,0,20,1,0
5280,421.335211267606,4,2,0,20,1,0
5280,-200,4,2,0,20,0,0
5823,561.454545454546,4,2,0,20,1,0
6618,381.571428571429,4,2,0,20,1,0
8152,400,4,2,0,20,1,0
9402,471.394545454546,4,2,0,20,1,0
9402,-133.333333333333,4,2,0,20,0,0
10920,402,4,2,0,20,1,0
12126,-133.333333333333,4,2,0,20,0,0
13270,386.996774193548,4,2,0,20,1,0
13850,483.714727832429,4,2,0,20,1,0
14091,582.297842708539,4,2,0,20,1,0
14428,386.996774193548,4,2,0,20,1,0
14963,479.846249532528,4,2,0,20,1,0
15445,483.714727832429,4,2,0,20,1,0
15686,458.730466032627,4,2,0,20,1,0
15686,-80,4,2,0,20,0,0
16514,357.577569022876,4,2,0,20,1,0
16877,398.376774193549,4,2,0,20,1,0
17593,391.296774193549,4,2,0,20,1,0
17865,391.296774193549,4,2,0,20,1,0
18713,389.16326530612,4,2,0,20,1,0
19881,438.763265306121,4,2,0,20,1,0
20200,438.763265306121,4,2,0,20,1,0
21299,426.763265306121,4,2,0,20,1,0
21619,-200,4,2,0,20,0,0
23148,535.714285714286,4,2,1,40,1,0
23773,535.714285714286,4,2,1,40,1,0
31630,-100,4,2,1,40,0,0
33825,535.714285714286,4,2,1,40,1,0
34845,535.714285714286,4,2,1,40,1,0
36038,535.714285714286,4,2,1,40,1,0
36987,535.714285714286,4,2,1,40,1,0
40379,535.714285714286,4,2,2,40,1,0
40380,-100,4,2,2,40,0,0
44665,-80,4,2,2,40,0,0
57521,-80,4,2,3,60,0,1
74664,-133.333333333333,4,2,4,40,0,0
74755,-133.333333333333,4,2,4,15,0,0
77076,714.285714285714,4,2,4,15,1,0
77076,-133.333333333333,4,2,4,15,0,0
77746,-133.333333333333,4,2,4,15,0,0
77846,-133.333333333333,4,2,4,15,0,0
78817,392.156862745098,4,2,4,15,1,0
79352,357.142857142857,4,2,4,15,1,0
80021,357.142857142857,4,2,4,15,1,0
80558,357.142857142857,4,2,4,15,1,0
80959,357.142857142857,4,2,4,15,1,0
81094,-100,4,2,4,25,0,0
81137,535.714285714286,4,2,4,25,1,0
81680,405.405405405405,4,2,4,25,1,0
81998,331.491712707182,4,2,4,25,1,0
82329,535.714285714286,4,2,4,25,1,0
82968,357.142857142857,4,2,4,25,1,0
83146,408.163265306122,4,2,4,25,1,0
83299,408.163265306122,4,2,4,25,1,0
83540,535.714285714286,4,2,4,25,1,0
83807,535.714285714286,4,2,4,25,1,0
83937,465.116279069767,4,2,4,25,1,0
84140,504.201680672269,4,2,4,25,1,0
84440,504.201680672269,4,2,4,25,1,0
84440,-133.333333333333,4,2,4,25,0,0
86450,535.714285714286,4,2,4,25,1,0
86450,-133.333333333333,4,2,4,25,0,0
87565,-100,4,2,4,25,0,0
87610,535.714285714286,4,2,4,25,1,0
87610,-100,4,2,4,25,0,0
88636,-133.333333333333,4,2,4,25,0,0
88661,535.714285714286,4,2,4,25,1,0
89665,535.714285714286,4,2,4,25,1,0
89800,535.714285714286,4,2,4,25,1,0
92009,-133.333333333333,4,2,4,25,0,0
92010,535.714285714286,4,2,4,25,1,0
92781,535.714285714286,4,2,4,25,1,0
93016,600,4,2,4,25,1,0
93616,535.714285714286,4,2,4,25,1,0
93616,-200,4,2,4,25,0,0
96093,535.714285714286,4,2,4,100,1,0
96093,-90.9090909090909,4,3,4,100,0,0
104128,-90.9090909090909,4,2,3,100,0,0
104664,-90.9090909090909,4,2,3,100,0,0
106005,-80,4,2,3,100,0,0
112433,-66.6666666666667,4,2,3,100,0,0
112701,-57.1428571428571,4,2,3,100,0,0
113414,-200,4,2,3,100,0,0
114307,535.714285714286,4,2,5,100,1,1
114307,-66.6666666666667,4,2,5,100,0,1
131449,-57.1428571428571,4,2,5,100,0,1
143148,-57.1428571428571,4,2,5,100,0,1
144219,-50,4,2,5,100,0,1
146449,-100,4,2,5,100,0,0
148594,-100,4,2,0,90,0,0
149665,-100,4,2,0,80,0,0
151273,-100,4,2,0,70,0,0
153415,-100,4,2,0,60,0,0
156094,-100,4,2,0,40,0,0
158773,-100,4,2,0,30,0,0
161987,-100,4,2,0,20,0,0

[HitObjects]
256,192,610,5,0,0:0:0:0:
256,192,681,2,0,P|224:168|168:176,1,90,2|0,0:0|0:0,0:0:0:0:
104,212,1103,2,0,P|136:236|192:228,1,90
44,172,1526,1,2,0:0:0:0:
48,240,1737,1,2,0:0:0:0:
104,208,1948,1,0,0:0:0:0:
104,208,2020,2,0,P|132:164|136:120,2,90,2|0|2,0:0|0:0|0:0,0:0:0:0:
224,256,3026,5,0,0:0:0:0:
224,256,3128,2,0,P|260:280|292:324,1,90,2|0,0:0|0:0,0:0:0:0:
408,288,3549,2,0,P|372:264|340:220,1,90
396,128,3970,1,2,0:0:0:0:
320,132,4181,1,2,0:0:0:0:
352,56,4392,2,0,P|392:48|456:64,1,90,2|0,0:0|0:0,0:0:0:0:
276,84,4813,2,0,P|236:92|172:76,1,90
344,124,5280,2,0,P|356:160|352:228,1,90,2|0,0:0|0:0,0:0:0:0:
312,264,5823,6,0,P|276:240|216:244,1,90,2|0,0:0|0:0,0:0:0:0:
176,280,6244,1,0,0:0:0:0:
168,212,6384,1,0,0:0:0:0:
328,160,6618,1,2,0:0:0:0:
300,248,6808,1,2,0:0:0:0:
236,184,6999,6,0,P|212:156|152:144,1,90,2|0,0:0|0:0,0:0:0:0:
264,96,7381,2,0,P|288:124|348:136,1,90
444,76,7762,1,2,0:0:0:0:
460,152,7953,1,2,0:0:0:0:
392,128,8152,6,0,P|368:116|300:140,1,90,2|0,0:0|0:0,0:0:0:0:
340,188,8552,2,0,P|314:196|283:261,1,90,2|0,0:0|0:0,0:0:0:0:
256,324,8952,2,0,P|232:336|164:312,1,90,2|0,0:0|0:0,0:0:0:0:
204,264,9302,1,0,0:0:0:0:
204,264,9402,2,0,B|168:248|164:216|172:192|172:192|136:204|112:168|116:120|164:128|164:128|196:116|204:80|203:55|203:55|232:96|258:106|292:96,1,405.000015449525,2|0,0:0|0:0,0:0:0:0:
388,120,10920,6,0,P|352:144|336:200,1,90,2|0,0:0|0:0,0:0:0:0:
404,204,11322,2,0,P|400:240|428:300,1,90,2|0,0:0|0:0,0:0:0:0:
418,289,11724,1,2,0:0:0:0:
312,172,12025,5,0,0:0:0:0:
312,172,12126,2,0,P|292:128|260:96,1,67.5000025749208,2|0,0:0|0:0,0:0:0:0:
400,92,12528,2,0,P|388:128|392:176,2,67.5000025749208,2|0|2,0:0|0:0|0:0,0:0:0:0:
356,248,13198,5,0,0:0:0:0:
356,248,13270,2,0,P|316:232|260:240,1,90,2|0,0:0|0:0,0:0:0:0:
184,292,13656,1,0,0:0:0:0:
100,256,13850,2,0,P|112:216|112:180,1,60
104,176,14091,1,2,0:0:0:0:
196,200,14236,1,2,0:0:0:0:
172,96,14428,6,0,P|172:44|204:8,2,90,2|0|0,0:0|0:0|0:0,0:0:0:0:
252,136,14963,2,0,P|296:128|348:144,1,90,2|0,0:0|0:0,0:0:0:0:
424,232,15445,2,0,P|380:240|328:224,1,90,0|2,0:0|0:0,0:0:0:0:
148,248,15915,2,0,P|224:256|272:288,2,112.5
80,196,16514,5,2,0:0:0:0:
88,124,16692,1,2,0:0:0:0:
148,168,16877,2,0,P|192:180|248:144,1,90,2|0,0:0|0:0,0:0:0:0:
280,248,17275,2,0,P|300:208|296:152,1,90,2|0,0:0|0:0,0:0:0:0:
428,64,17593,2,0,P|424:96|460:160,1,90,2|0,0:0|0:0,0:0:0:0:
460,176,17865,6,0,P|400:160|372:176,1,90,2|0,0:0|0:0,0:0:0:0:
312,256,18256,2,0,P|360:272|416:244,1,90,2|0,0:0|0:0,0:0:0:0:
312,104,18713,5,2,0:0:0:0:
244,136,18907,1,2,0:0:0:0:
248,64,19102,2,0,P|260:36|328:32,1,90,2|0,0:0|0:0,0:0:0:0:
168,104,19491,2,0,P|152:56|168:12,1,90,2|0,0:0|0:0,0:0:0:0:
104,212,19881,2,0,P|168:220|208:200,1,90,2|0,0:0|0:0,0:0:0:0:
252,284,20200,5,0,0:0:0:0:
252,284,20254,1,0,0:0:0:0:
252,284,20309,2,0,P|268:248|272:188,1,90,2|0,0:0|0:0,0:0:0:0:
432,200,20638,2,0,P|412:240|372:272,2,90,2|0|2,0:0|0:0|0:0,0:0:0:0:
396,64,21299,2,0,P|368:88|372:152,1,90,2|0,0:0|0:0,0:0:0:0:
340,128,21565,1,0,0:0:0:0:
308,128,21619,2,0,B|276:132|256:160|256:160|248:104|248:104|232:144|192:168|192:168|224:204|216:256,1,292.5,2|0,0:0|0:0,0:0:0:0:
96,296,23148,6,0,P|84:240|148:156,1,150,4|0,0:0|0:0,0:0:0:0:
224,128,23773,1,10,0:0:0:0:
432,144,24308,1,8,0:0:0:0:
432,144,24665,1,0,0:0:0:0:
432,144,24844,1,10,0:0:0:0:
400,244,25202,5,0,0:0:0:0:
400,244,25380,2,0,P|344:232|280:268,1,120,8|0,0:0|0:0,0:0:0:0:
368,160,25915,1,10,0:0:0:0:
368,160,26451,1,8,0:0:0:0:
368,160,26987,1,10,0:0:0:0:
368,160,27344,5,0,0:0:0:0:
264,184,27523,2,0,P|216:172|192:108,1,120,8|0,0:0|0:0,0:0:0:0:
256,120,28058,1,10,0:0:0:0:
256,120,28415,5,0,0:0:0:0:
200,192,28594,2,0,L|72:208,1,120,8|0,0:0|0:0,0:0:0:0:
204,256,29130,2,0,L|332:240,1,120,10|0,0:0|0:0,0:0:0:0:
384,124,29665,6,8,P|372:184|476:196,1,180,8|10,0:0|0:0,0:0:0:0:
467,206,30558,1,0,0:0:0:0:
384,124,30737,2,0,P|336:116|264:168,1,120,8|0,0:0|0:0,0:0:0:0:
236,234,31273,2,0,P|186:266|128:260,1,120,10|0,0:0|0:0,0:0:0:0:
60,128,31808,6,0,P|132:136|196:112,1,120,10|0,0:0|0:0,0:0:0:0:
248,48,32344,1,0,0:0:0:0:
176,52,32523,1,0,0:0:0:0:
300,104,32701,1,0,0:0:0:0:
248,48,32880,6,0,P|320:28|368:64,1,120,2|0,0:0|0:0,0:0:0:0:
408,108,33415,1,0,0:0:0:0:
304,164,33594,1,0,0:0:0:0:
368,212,33825,6,0,P|372:248|296:320,1,120,2|0,0:0|0:0,0:0:0:0:
460,300,34494,2,0,P|440:260|444:224,1,67.5
392,176,34845,1,0,0:0:0:0:
312,220,35023,6,0,P|260:212|192:236,1,120,8|0,0:0|0:0,0:0:0:0:
236,288,35559,1,0,0:0:0:0:
248,156,35737,1,0,0:0:0:0:
128,208,35916,1,0,0:0:0:0:
64,168,36038,6,0,P|60:132|76:88,2,60,2|0|0,0:0|0:0|0:0,0:0:0:0:
216,140,36573,1,0,0:0:0:0:
156,96,36752,1,0,0:0:0:0:
156,184,36987,1,0,0:0:0:0:
328,180,37165,5,8,0:0:0:0:
364,116,37344,1,0,0:0:0:0:
292,116,37522,1,0,0:0:0:0:
400,180,37701,5,0,0:0:0:0:
364,116,37879,1,0,0:0:0:0:
328,180,38058,1,0,0:0:0:0:
364,240,38237,6,0,P|368:268|392:308,2,60,2|0|0,0:0|0:0|0:0,0:0:0:0:
376,156,38772,1,0,0:0:0:0:
364,240,38951,1,0,0:0:0:0:
280,264,39129,1,0,0:0:0:0:
204,216,39308,2,0,P|160:228|128:248,1,60,8|0,0:0|0:0,0:0:0:0:
104,300,39665,1,0,0:0:0:0:
168,152,39844,1,0,0:0:0:0:
204,216,40022,1,0,0:0:0:0:
280,220,40201,1,0,0:0:0:0:
368,72,40379,5,6,0:0:0:0:
364,256,40557,2,0,P|392:236|408:192,1,60
407,331,40914,2,0,P|415:271|399:203,1,120,2|0,0:0|0:0,0:0:0:0:
248,112,41450,2,0,P|272:136|308:144,1,60,2|0,0:0|0:0,0:0:0:0:
440,76,41807,1,0,0:0:0:0:
256,192,41986,2,0,P|244:232|264:292,2,60
144,256,42521,5,0,0:0:0:0:
200,304,42700,1,0,0:0:0:0:
132,328,42879,1,0,0:0:0:0:
156,184,43057,2,0,L|264:272,1,120
80,200,43593,5,0,0:0:0:0:
156,184,43771,1,0,0:0:0:0:
104,124,43950,1,0,0:0:0:0:
132,256,44129,1,0,0:0:0:0:
156,184,44307,1,0,0:0:0:0:
204,244,44486,1,0,0:0:0:0:
40,168,44664,5,2,0:0:0:0:
248,96,44843,2,0,L|232:172,1,75,2|0,0:0|0:0,0:0:0:0:
216,24,45200,1,2,0:0:0:0:
248,96,45379,1,0,0:0:0:0:
296,36,45557,1,2,0:0:0:0:
88,96,45736,2,0,P|100:128|128:168,2,75,2|0|0,0:0|0:0|0:0,0:0:0:0:
172,216,46271,2,0,P|236:248|336:256,1,150
300,168,46807,5,0,0:0:0:0:
232,140,46986,1,0,0:0:0:0:
288,96,47164,1,0,0:0:0:0:
313,258,47343,2,0,P|261:262|177:326,1,150
432,280,47879,2,0,P|444:244|444:192,2,75
360,172,48414,1,0,0:0:0:0:
356,76,48593,1,0,0:0:0:0:
360,172,48771,1,0,0:0:0:0:
260,120,48950,6,0,P|256:100|256:64,1,37.5,6|0,0:0|0:0,0:0:0:0:
460,136,49129,2,0,P|456:172|424:224,1,75,2|0,0:0|0:0,0:0:0:0:
265,157,49486,6,0,P|261:137|261:101,1,37.5,2|0,0:0|0:0,0:0:0:0:
439,206,49664,1,0,0:0:0:0:
308,308,49843,2,0,P|280:320|252:324,1,37.5,2|0,0:0|0:0,0:0:0:0:
260,120,50021,2,0,P|312:124|344:148,2,75,2|0|0,0:0|0:0|0:0,0:0:0:0:
148,212,50557,1,0,0:0:0:0:
104,272,50736,1,0,0:0:0:0:
176,280,50914,1,0,0:0:0:0:
76,208,51093,5,0,0:0:0:0:
148,212,51271,1,0,0:0:0:0:
112,144,51450,1,0,0:0:0:0:
76,208,51629,1,0,0:0:0:0:
148,212,51807,1,0,0:0:0:0:
184,144,51986,1,0,0:0:0:0:
112,144,52164,5,0,0:0:0:0:
148,212,52343,1,0,0:0:0:0:
184,144,52521,1,0,0:0:0:0:
76,208,52700,1,0,0:0:0:0:
104,272,52879,1,0,0:0:0:0:
176,280,53057,1,0,0:0:0:0:
276,128,53236,6,0,L|276:76,1,37.5,2|0,0:0|0:0,0:0:0:0:
344,172,53414,1,2,0:0:0:0:
272,204,53593,1,0,0:0:0:0:
344,96,53771,1,2,0:0:0:0:
344,172,53950,1,0,0:0:0:0:
272,204,54129,2,0,L|216:224,1,37.5,2|0,0:0|0:0,0:0:0:0:
408,136,54307,2,0,P|452:136|484:176,1,75,2|0,0:0|0:0,0:0:0:0:
328,252,54664,1,0,0:0:0:0:
272,204,54843,1,0,0:0:0:0:
340,180,55021,1,0,0:0:0:0:
260,276,55200,1,0,0:0:0:0:
204,160,55379,6,0,L|204:96,1,37.5,4|0,0:0|0:0,0:0:0:0:
136,228,55557,2,0,L|136:172,1,37.5,4|0,0:0|0:0,0:0:0:0:
136,96,55736,1,0,0:0:0:0:
68,296,55914,2,0,L|68:136,1,150,2|0,0:0|0:0,0:0:0:0:
312,132,56450,6,0,P|324:152|316:184,1,37.5,4|0,0:0|0:0,0:0:0:0:
187,165,56629,2,0,P|189:147|200:132,1,37.5,4|0,0:0|0:0,0:0:0:0:
256,72,56807,1,0,0:0:0:0:
316,232,56986,2,0,P|256:272|196:232,1,150,2|0,0:0|0:0,0:0:0:0:
372,104,57521,6,0,P|412:120|452:116,1,75,4|0,0:0|0:0,0:0:0:0:
420,24,57879,1,0,0:0:0:0:
320,172,58057,1,2,0:0:0:0:
368,104,58236,1,0,0:0:0:0:
284,96,58414,1,0,0:0:0:0:
400,184,58593,2,0,P|420:212|424:264,2,75,0|0|0,1:0|0:0|0:0,0:0:0:0:
240,176,59129,1,0,0:0:0:0:
284,96,59307,1,0,0:0:0:0:
328,176,59486,1,0,0:0:0:0:
236,248,59664,6,0,P|188:228|176:132,1,150,2|0,0:0|0:0,0:0:0:0:
276,80,60200,2,0,P|324:100|336:196,1,150,2|0,0:0|0:0,0:0:0:0:
168,144,60736,1,0,1:0:0:0:
168,36,60914,1,0,0:0:0:0:
260,88,61093,1,0,0:0:0:0:
84,200,61271,1,0,0:0:0:0:
80,92,61450,1,0,0:0:0:0:
168,144,61629,5,0,0:0:0:0:
168,144,61718,1,0,0:0:0:0:
168,144,61807,2,0,P|172:180|164:212,1,37.5,2|0,0:0|0:0,0:0:0:0:
220,300,61986,2,0,P|220:244|236:196,1,75,2|0,0:0|0:0,0:0:0:0:
328,144,62343,2,0,P|336:164|324:200,1,37.5,2|0,0:0|0:0,0:0:0:0:
240,104,62521,1,0,0:0:0:0:
372,72,62700,1,2,0:0:0:0:
336,212,62879,6,0,P|332:248|356:300,1,75,0|0,1:0|0:0,0:0:0:0:
480,176,63236,1,0,0:0:0:0:
404,200,63414,1,0,0:0:0:0:
420,120,63593,1,0,0:0:0:0:
464,248,63771,1,0,0:0:0:0:
292,208,63950,6,0,P|248:208|196:236,1,75,2|0,0:0|0:0,0:0:0:0:
136,280,64307,1,0,0:0:0:0:
292,208,64486,1,2,0:0:0:0:
392,240,64664,1,0,0:0:0:0:
368,136,64843,1,0,0:0:0:0:
316,296,65021,2,0,P|348:328|392:336,1,75,0|0,1:0|0:0,0:0:0:0:
368,136,65379,1,0,0:0:0:0:
292,208,65557,1,0,0:0:0:0:
272,104,65736,1,0,0:0:0:0:
368,136,65914,1,0,0:0:0:0:
196,180,66093,6,0,L|144:152,1,37.5,6|0,0:0|0:0,0:0:0:0:
196,28,66271,2,0,L|232:48,1,37.5,2|0,0:0|0:0,0:0:0:0:
76,104,66450,1,0,0:0:0:0:
284,132,66629,2,0,L|336:144,1,37.5,2|0,0:0|0:0,0:0:0:0:
224,216,66807,1,0,0:0:0:0:
112,192,66986,2,0,L|72:180,1,37.5,2|0,0:0|0:0,0:0:0:0:
284,132,67164,2,0,L|380:156,2,75,0|0|0,1:0|0:0|0:0,0:0:0:0:
344,220,67700,1,0,0:0:0:0:
284,60,67879,2,0,P|244:68|216:116,1,75
148,228,68236,6,0,P|140:180|104:144,1,75,2|0,0:0|0:0,0:0:0:0:
140,300,68593,1,0,0:0:0:0:
204,272,68771,2,0,P|236:244|256:208,2,75,2|0|0,0:0|0:0|0:0,0:0:0:0:
264,148,69307,2,0,L|432:184,1,150,0|0,1:0|0:0,0:0:0:0:
336,236,69843,1,0,0:0:0:0:
368,88,70021,1,0,0:0:0:0:
410,179,70200,1,0,0:0:0:0:
264,148,70379,6,0,P|212:148|168:168,1,75,4|0,0:0|0:0,0:0:0:0:
148,240,70736,1,2,0:0:0:0:
352,316,70914,2,0,P|404:316|448:296,1,75,4|0,0:0|0:0,0:0:0:0:
344,128,71271,2,2,P|316:128|292:136,1,37.5
352,316,71450,6,0,P|400:300|424:272,1,75,4|0,0:0|0:0,0:0:0:0:
344,128,71807,1,2,0:0:0:0:
148,240,71986,2,0,B|136:288|136:288|160:336,1,75,4|0,0:0|0:0,0:0:0:0:
344,128,72343,2,2,L|344:68,1,37.5
148,240,72521,6,0,B|184:256|184:256|240:252,1,75,4|0,0:0|0:0,0:0:0:0:
344,128,72879,1,2,0:0:0:0:
192,148,73057,2,0,P|144:156|104:144,1,75,4|0,0:0|0:0,0:0:0:0:
344,128,73414,2,2,L|368:176,1,37.5
192,148,73593,6,0,P|184:100|196:60,1,75,4|0,0:0|0:0,0:0:0:0:
316,228,73950,5,4,0:0:0:0:
340,288,74039,1,2,0:0:0:0:
316,348,74129,2,0,P|284:352|264:344,1,37.5,2|0,0:0|0:0,0:0:0:0:
224,216,74307,5,6,0:0:0:0:
192,148,74396,1,2,0:0:0:0:
224,80,74486,2,0,P|256:72|276:80,1,37.5,2|0,0:0|0:0,0:0:0:0:
288,296,74664,6,0,B|252:312|252:348|252:348|220:320|180:324|140:368|140:368|104:352|68:308|80:252|116:212|116:212|172:248|244:196,1,506.250019311906,4|2,0:0|0:0,0:0:0:0:
232,203,77076,6,0,P|244:167|244:147,1,33.7500012874604
324,208,77433,2,0,P|332:180|332:156,1,33.7500012874604
416,136,77701,5,0,0:0:0:0:
416,136,77790,2,0,P|412:168|420:184,1,33.7500012874604,2|0,0:0|0:0,0:0:0:0:
440,272,78147,2,0,P|424:264|400:264,1,33.7500012874604
336,276,78504,1,0,0:0:0:0:
272,168,78817,5,2,0:0:0:0:
280,148,78882,1,0,0:0:0:0:
288,128,78947,1,0,0:0:0:0:
212,244,79352,1,0,0:0:0:0:
192,188,79530,1,0,0:0:0:0:
196,128,79709,1,0,0:0:0:0:
212,244,80021,5,2,0:0:0:0:
196,216,80080,1,0,0:0:0:0:
180,188,80140,1,0,0:0:0:0:
392,180,80558,1,0,0:0:0:0:
408,268,80736,1,0,0:0:0:0:
368,348,80959,1,0,0:0:0:0:
312,284,81137,5,6,0:0:0:0:
324,256,81203,1,0,0:0:0:0:
336,228,81270,1,0,0:0:0:0:
268,216,81404,2,0,L|240:292,1,60
168,260,81680,2,0,L|176:168,1,90
140,160,81998,2,0,L|144:60,1,90
264,136,82329,5,2,0:0:0:0:
276,116,82395,1,0,0:0:0:0:
288,96,82462,1,0,0:0:0:0:
376,152,82596,2,0,L|336:244,1,90
280,232,82968,2,0,L|320:140,1,90
412,208,83299,2,0,L|432:152,1,45
436,144,83452,1,0,0:0:0:0:
452,92,83540,5,2,0:0:0:0:
460,268,83807,1,0,0:0:0:0:
396,264,83937,1,0,0:0:0:0:
336,196,84140,1,0,0:0:0:0:
320,88,84440,6,0,P|332:52|344:36,1,50.6250019311906,0|2,0:0|0:0,0:0:0:0:
352,32,84692,1,0,0:0:0:0:
368,24,84755,1,0,0:0:0:0:
376,180,84944,2,0,P|372:208|380:240,1,45.0000017166138
304,216,85280,2,0,P|302:244|314:275,1,45.0000017166138
236,260,85616,2,0,P|237:288|252:317,1,45.0000017166138
160,320,85952,2,0,P|180:352|216:372,1,67.5000025749208
308,314,86450,6,0,P|272:302|248:304,1,45.0000017166138,4|0,0:0|0:0,0:0:0:0:
168,244,86807,1,0,0:0:0:0:
168,244,86985,2,0,P|208:232|312:240,1,135.000005149842,2|0,0:0|0:0,0:0:0:0:
368,260,87610,6,0,P|404:256|440:216,1,60
440,156,88011,1,0,0:0:0:0:
440,156,88145,2,0,B|412:100|412:100|392:120|368:128|352:128,1,120,2|0,0:0|0:0,0:0:0:0:
276,104,88661,6,0,B|240:56|240:56|248:108|264:148|240:216|240:216|224:176|172:180,1,300
112,192,89665,2,0,L|96:168,1,22.5
64,236,89800,6,0,B|84:260|132:268|168:232|168:232|192:288|192:288|200:260|248:248|272:272|272:272|308:240,1,315,2|0,0:0|0:0,0:0:0:0:
380,268,90871,5,0,0:0:0:0:
380,268,90938,2,0,P|400:240|280:260,1,315,2|0,0:0|0:0,0:0:0:0:
336,212,92010,6,0,B|391:97|391:97|351:77|319:21,1,225,2|0,0:0|0:0,0:0:0:0:
256,60,92781,6,0,P|232:88|224:108,1,45,2|0,0:0|0:0,0:0:0:0:
208,168,93016,2,0,P|216:196|256:216,1,60
316,200,93416,1,0,0:0:0:0:
360,268,93616,6,0,P|316:300|168:224,1,225,0|4,0:0|0:0,0:0:0:0:
172,220,96093,6,0,P|168:164|116:96,1,132.00000402832,2|2,0:0|0:0,0:0:0:0:
256,288,96628,2,0,L|256:136,1,132.00000402832,2|2,0:0|0:0,0:0:0:0:
340,220,97164,2,0,P|344:164|396:96,2,132.00000402832,2|2|2,0:0|0:0|0:0,0:0:0:0:
72,304,98235,6,8,P|140:284|128:224,1,132.00000402832
208,292,98771,2,8,P|256:332|304:292,1,132.00000402832
375,233,99307,2,8,P|379:294|440:304,2,132.00000402832
168,168,100378,6,4,L|24:168,1,132.00000402832
188,244,100914,2,4,L|324:244,1,132.00000402832
476,168,101450,2,4,L|344:168,2,132.00000402832
104,104,102521,6,4,P|120:168|88:224,1,132.00000402832
192,304,103057,2,4,P|256:288|320:304,1,132.00000402832
422,222,103593,2,4,P|391:166|408:104,1,132.00000402832
344,216,104128,1,0,3:0:0:0:
316,236,104218,1,0,3:0:0:0:
284,248,104307,1,0,3:0:0:0:
252,252,104396,1,0,3:0:0:0:
220,248,104485,1,0,3:0:0:0:
188,232,104575,1,0,3:0:0:0:
164,212,104664,6,0,P|140:188|128:140,1,66.0000020141602,4|0,0:0|0:0,0:0:0:0:
104,260,105021,1,0,0:0:0:0:
196,152,105200,2,0,P|248:140|280:148,1,66.0000020141602,2|0,0:0|0:0,0:0:0:0:
100,76,105557,1,2,0:0:0:0:
104,260,105735,2,0,P|84:296|28:312,1,99.0000030212403,6|0,1:2|0:0,0:0:0:0:
172,200,106093,2,0,P|184:248|232:296,1,112.5,6|0,1:2|0:0,0:0:0:0:
124,80,106450,2,0,P|124:132|88:200,1,112.5,6|0,1:2|0:0,0:0:0:0:
272,92,106807,5,4,0:0:0:0:
180,132,106985,1,0,0:0:0:0:
196,28,107164,1,0,0:0:0:0:
260,192,107343,1,2,0:0:0:0:
180,132,107521,1,0,0:0:0:0:
272,92,107700,1,2,0:0:0:0:
168,220,107878,2,0,P|128:240|60:216,1,112.5,6|0,1:2|0:0,0:0:0:0:
260,192,108235,2,0,P|264:236|220:308,1,112.5,6|0,1:2|0:0,0:0:0:0:
272,92,108593,2,0,P|316:124|344:192,1,112.5,6|0,1:2|0:0,0:0:0:0:
320,284,108950,6,0,P|300:308|252:332,1,75,4|0,0:0|0:0,0:0:0:0:
256,132,109307,2,0,L|272:80,1,37.5,2|0,0:1|0:0,0:0:0:0:
336,220,109485,2,0,P|368:264|428:236,1,112.5,2|0,0:1|0:0,0:0:0:0:
368,144,109843,1,2,0:0:0:0:
216,244,110021,6,0,P|172:264|156:332,1,112.5,4|0,0:0|0:0,0:0:0:0:
180,168,110378,2,0,L|108:152,1,37.5,2|0,0:1|0:0,0:0:0:0:
296,88,110557,2,0,L|424:120,1,112.5,2|0,0:1|0:0,0:0:0:0:
360,32,110914,1,2,0:0:0:0:
176,224,111093,6,0,P|148:256|172:332,1,112.5,4|0,0:0|0:0,0:0:0:0:
384,176,111450,2,0,P|384:152|376:128,1,37.5,2|0,0:1|0:0,0:0:0:0:
176,224,111628,2,0,P|188:280|248:296,1,112.5,2|0,0:1|0:0,0:0:0:0:
384,176,111985,1,0,0:0:0:0:
112,304,112164,6,0,P|172:300|216:256,1,112.5,4|0,0:0|0:0,0:0:0:0:
152,56,112521,2,0,P|84:68|36:120,1,135.000005149842,4|0,0:0|0:0,0:0:0:0:
360,152,112878,2,0,P|396:192|380:308,1,157.500001502037,4|0,0:0|0:0,0:0:0:0:
252,172,113235,2,0,P|232:140|240:112,1,52.500000500679,4|0,0:0|0:0,0:0:0:0:
392,288,113414,2,0,L|268:336,1,120,4|0,0:0|0:0,0:0:0:0:
96,196,114307,6,0,P|104:132|136:104,1,90.0000034332277,4|0,1:0|0:0,0:0:0:0:
152,256,114664,1,0,0:0:0:0:
72,32,114842,2,0,P|64:64|24:108,1,90.0000034332277,2|0,0:0|0:0,0:0:0:0:
180,40,115199,1,2,0:0:0:0:
264,144,115378,2,0,P|312:180|348:192,1,90.0000034332277,8|0,0:0|0:0,0:0:0:0:
160,160,115736,2,0,P|128:156|112:144,1,45.0000017166138,2|0,0:3|0:0,0:0:0:0:
228,240,115914,2,0,P|204:252|180:256,1,45.0000017166138,2|0,0:3|0:0,0:0:0:0:
264,144,116092,2,0,P|312:180|348:192,1,90.0000034332277,2|0,0:3|0:3,0:3:0:0:
184,52,116449,6,0,P|168:92|172:148,1,90.0000034332277,2|0,0:0|0:0,0:0:0:0:
232,300,116807,1,0,0:0:0:0:
408,288,116985,1,2,0:0:0:0:
420,244,117074,1,0,0:0:0:0:
420,200,117164,2,0,P|412:164|396:144,1,45.0000017166138
296,248,117342,2,0,P|296:276|308:304,1,45.0000017166138,2|0,0:0|0:0,0:0:0:0:
480,196,117520,2,0,P|468:148|428:104,1,90.0000034332277,8|0,0:0|0:0,0:0:0:0:
188,72,117878,1,2,0:3:0:0:
228,88,117967,1,0,0:0:0:0:
268,108,118057,2,0,L|332:144,1,45.0000017166138,2|0,0:3|0:0,0:0:0:0:
244,212,118235,2,0,L|264:264,1,45.0000017166138,2|0,0:3|0:0,0:0:0:0:
188,72,118414,2,0,P|184:104|176:128,1,45.0000017166138,2|0,0:3|0:0,0:0:0:0:
108,180,118592,6,0,P|72:192|20:148,1,90.0000034332277,4|0,0:0|0:0,0:0:0:0:
256,84,118949,1,0,0:0:0:0:
136,92,119128,1,2,0:0:0:0:
344,168,119307,1,0,0:0:0:0:
216,192,119485,1,2,0:0:0:0:
416,77,119664,2,0,P|453:103|472:144,1,90.0000034332277,8|0,0:0|0:0,0:0:0:0:
296,296,120021,2,0,L|296:240,1,45.0000017166138,2|0,0:3|0:0,0:0:0:0:
188,256,120199,2,0,L|204:192,1,45.0000017166138,2|0,0:3|0:0,0:0:0:0:
100,180,120378,2,0,L|164:96,1,90.0000034332277,2|0,0:3|0:0,0:0:0:0:
348,168,120646,5,0,0:0:0:0:
348,168,120735,2,0,P|280:176|248:160,1,90.0000034332277,4|0,0:0|0:0,0:0:0:0:
372,64,121092,2,0,L|424:56,1,45.0000017166138
352,184,121271,2,0,P|284:192|252:176,1,90.0000034332277,2|0,0:0|0:0,0:0:0:0:
124,72,121628,1,2,0:0:0:0:
168,68,121717,1,0,0:0:0:0:
212,64,121807,2,0,L|288:56,1,45.0000017166138,8|0,0:0|0:0,0:0:0:0:
136,176,121985,2,0,L|91:114,1,45.0000017166138,0|0,0:3|0:3,0:3:0:0:
265,184,122164,2,0,L|233:253,1,45.0000017166138,2|0,0:0|0:0,0:0:0:0:
368,228,122342,2,0,L|399:297,1,45.0000017166138,2|0,0:0|0:0,0:0:0:0:
180,340,122521,2,0,L|198:298,1,45.0000017166138,2|0,0:0|0:0,0:0:0:0:
319,296,122699,2,0,L|300:254,1,45.0000017166138,2|0,0:0|0:0,0:0:0:0:
120,144,122878,5,4,0:0:0:0:
104,264,123057,1,0,0:0:0:0:
192,40,123235,1,0,0:0:0:0:
120,144,123414,1,2,0:0:0:0:
256,112,123592,1,0,0:0:0:0:
24,100,123771,1,2,0:0:0:0:
288,220,123949,2,0,P|332:240|368:288,1,90.0000034332277,8|0,0:0|0:0,0:0:0:0:
140,300,124307,2,0,L|100:348,1,45.0000017166138,2|0,0:3|0:0,0:0:0:0:
148,200,124486,2,0,L|88:208,1,45.0000017166138,2|0,0:3|0:0,0:0:0:0:
236,128,124664,2,0,L|176:108,1,45.0000017166138,2|0,0:3|0:0,0:0:0:0:
104,84,124842,1,0,0:0:0:0:
316,208,125021,6,0,P|380:184|404:160,1,90.0000034332277,4|0,0:0|0:0,0:0:0:0:
316,72,125378,1,0,0:0:0:0:
300,300,125557,1,2,0:0:0:0:
240,104,125735,1,0,0:0:0:0:
464,260,125914,1,2,0:0:0:0:
188,236,126092,2,0,P|144:240|88:280,1,90.0000034332277,8|0,0:0|0:0,0:0:0:0:
236,320,126449,2,0,L|236:372,1,45.0000017166138,2|0,0:3|0:0,0:0:0:0:
284,236,126628,2,0,L|329:210,1,45.0000017166138,2|0,0:3|0:0,0:0:0:0:
188,236,126806,2,0,L|142:210,1,45.0000017166138,2|0,0:3|0:0,0:0:0:0:
311,307,126985,2,0,L|382:347,1,45.0000017166138,2|0,0:3|0:0,0:0:0:0:
236,176,127164,6,0,L|236:76,1,90.0000034332277,4|0,0:0|0:0,0:0:0:0:
356,220,127521,1,2,0:0:0:0:
164,308,127699,2,0,L|77:358,1,90.0000034332277,4|0,0:0|0:0,0:0:0:0:
112,160,128057,5,2,0:0:0:0:
156,168,128146,1,0,0:0:0:0:
200,176,128235,2,0,P|252:148|272:108,1,90.0000034332277,12|0,0:0|0:0,0:0:0:0:
100,56,128592,1,2,0:0:0:0:
376,216,128771,1,4,0:0:0:0:
404,296,128949,1,2,0:3:0:0:
328,276,129128,1,2,0:3:0:0:
472,204,129307,5,12,0:0:0:0:
404,296,129485,1,2,0:0:0:0:
360,192,129664,1,2,0:0:0:0:
404,88,129842,5,12,0:0:0:0:
472,204,130021,1,2,0:0:0:0:
340,204,130199,1,2,0:0:0:0:
404,88,130378,5,12,0:0:0:0:
404,296,130557,1,0,0:0:0:0:
232,192,130735,1,6,0:0:0:0:
456,164,130914,6,0,L|512:152,1,45.0000017166138,2|0,3:2|3:0,3:0:0:0:
284,312,131092,2,0,L|266:366,1,45.0000017166138,4|0,3:2|3:0,3:0:0:0:
228,88,131271,2,0,L|189:45,1,45.0000017166138,2|0,3:2|3:0,3:0:0:0:
48,280,131449,6,0,P|120:284|168:252,1,105.000001001358,4|0,1:0|0:0,0:0:0:0:
268,144,131807,1,0,0:0:0:0:
72,28,131985,2,0,L|44:148,1,105.000001001358,2|0,0:0|0:0,0:0:0:0:
248,320,132342,1,2,0:0:0:0:
444,196,132521,2,0,P|468:156|480:100,1,105.000001001358,8|0,0:0|0:0,0:0:0:0:
212,60,132878,1,2,0:3:0:0:
336,240,133057,1,2,0:3:0:0:
164,144,133235,1,2,0:3:0:0:
392,68,133414,1,2,0:3:0:0:
264,296,133592,6,0,P|216:320|164:312,1,105.000001001358,4|0,0:0|0:0,0:0:0:0:
100,168,133949,1,0,0:0:0:0:
392,344,134128,1,2,0:0:0:0:
168,312,134307,1,0,0:0:0:0:
112,96,134485,1,2,0:0:0:0:
361,247,134664,2,0,P|389:295|389:355,1,105.000001001358,8|0,0:0|0:0,0:0:0:0:
176,216,135021,2,0,L|124:184,1,52.500000500679,2|0,0:3|0:0,0:0:0:0:
336,108,135199,2,0,L|368:64,1,52.500000500679,2|0,0:3|0:0,0:0:0:0:
176,108,135378,2,0,L|144:64,1,52.500000500679,2|0,0:3|0:0,0:0:0:0:
336,216,135557,2,0,L|388:184,1,52.500000500679,2|0,0:3|0:0,0:0:0:0:
116,256,135735,6,0,P|68:272|20:312,1,105.000001001358,4|0,0:0|0:0,0:0:0:0:
268,264,136092,1,0,0:0:0:0:
96,108,136271,1,2,0:0:0:0:
224,104,136449,1,0,0:0:0:0:
20,168,136628,1,2,0:0:0:0:
236,28,136807,2,0,L|348:80,1,105.000001001358,8|0,0:0|0:0,0:0:0:0:
168,296,137164,2,0,P|144:264|136:240,1,52.500000500679,2|0,0:3|0:0,0:0:0:0:
248,184,137342,2,0,P|252:148|264:120,1,52.500000500679,2|0,0:3|0:0,0:0:0:0:
168,296,137521,2,0,P|132:314|107:317,1,52.500000500679,2|0,0:3|0:0,0:0:0:0:
71,197,137699,2,0,P|36:186|10:170,1,52.500000500679,2|0,0:3|0:0,0:0:0:0:
200,48,137878,5,4,0:0:0:0:
356,108,138057,1,0,0:0:0:0:
216,132,138235,1,0,0:0:0:0:
408,40,138414,1,2,0:0:0:0:
156,104,138592,1,0,0:0:0:0:
324,172,138771,1,2,0:0:0:0:
376,168,138860,1,0,0:0:0:0:
417,137,138949,2,0,P|429:97|401:33,1,105.000001001358,8|0,0:0|0:0,0:0:0:0:
176,200,139307,1,2,0:3:0:0:
324,40,139485,1,2,0:3:0:0:
152,220,139664,1,2,0:3:0:0:
348,20,139842,1,2,0:3:0:0:
36,148,140021,6,0,L|24:212,1,52.500000500679,4|0,0:0|0:0,0:0:0:0:
208,308,140199,1,2,0:0:0:0:
168,128,140378,1,0,0:0:0:0:
72,300,140557,2,0,P|100:320|128:320,1,52.500000500679,2|0,0:0|0:0,0:0:0:0:
312,220,140735,1,0,0:0:0:0:
144,208,140914,2,0,L|80:200,1,52.500000500679,2|0,0:0|0:0,0:0:0:0:
320,296,141092,2,0,P|376:264|384:192,1,105.000001001358,8|0,0:0|0:0,0:0:0:0:
232,164,141449,2,0,P|204:188|196:212,1,52.500000500679,2|0,0:3|0:0,0:0:0:0:
188,56,141628,2,0,P|152:52|124:56,1,52.500000500679,2|0,0:3|0:0,0:0:0:0:
304,256,141806,2,0,P|304:292|316:320,1,52.500000500679,2|0,0:3|0:0,0:0:0:0:
228,144,141985,2,0,P|200:168|192:192,1,52.500000500679,2|0,0:3|0:0,0:0:0:0:
380,276,142164,6,0,P|396:232|380:144,1,105.000001001358,4|0,0:0|0:0,0:0:0:0:
316,56,142521,1,0,0:0:0:0:
380,276,142699,1,2,0:0:0:0:
472,172,142878,1,0,0:0:0:0:
244,264,143057,1,2,0:0:0:0:
204,48,143235,2,0,P|248:72|284:132,1,105.000001001358,8|0,0:0|0:0,0:0:0:0:
80,72,143592,1,2,0:3:0:0:
336,40,143771,1,2,0:3:0:0:
56,100,143949,1,2,0:3:0:0:
360,108,144128,5,2,0:3:0:0:
360,108,144217,1,0,0:0:0:0:
360,108,144307,2,0,P|404:84|448:20,1,120,4|0,0:0|0:0,0:0:0:0:
248,24,144664,1,0,0:0:0:0:
292,200,144842,2,0,P|324:240|396:268,1,120,2|0,0:0|0:0,0:0:0:0:
216,116,145199,2,0,P|188:136|176:164,1,60
220,304,145378,5,8,0:0:0:0:
236,260,145445,1,0,0:0:0:0:
272,232,145512,1,0,0:0:0:0:
316,224,145579,1,0,0:0:0:0:
356,244,145646,1,0,0:0:0:0:
380,284,145713,1,0,0:0:0:0:
372,328,145780,1,0,0:0:0:0:
336,356,145847,1,0,0:0:0:0:
296,336,145914,5,0,0:0:0:0:
284,292,145981,1,0,0:0:0:0:
300,248,146048,1,0,0:0:0:0:
328,212,146115,1,0,0:0:0:0:
352,172,146182,1,0,0:0:0:0:
364,128,146248,1,0,0:0:0:0:
352,84,146315,1,0,0:0:0:0:
316,56,146382,1,0,0:0:0:0:
276,52,146449,6,0,B|252:56|236:64|236:64|216:16|216:16|172:24|136:48|136:48|160:100|160:100|136:112|116:136|116:136|56:116|56:116|32:156|32:204|32:204|92:216|92:216|92:248|104:272|104:272|56:312|56:312|80:344|112:376|112:376|164:336|164:336|204:372,1,832.5,4|0,0:0|3:0,0:0:0:0:
204,373,148994,1,0,3:0:0:0:
204,373,149061,1,0,3:0:0:0:
256,192,149128,12,0,161985,0:0:0:0:
