osu file format v14

[General]
AudioFilename: potomiru pinera.mp3
AudioLeadIn: 0
PreviewTime: 27576
Countdown: 0
SampleSet: Normal
StackLeniency: 0.7
Mode: 1
LetterboxInBreaks: 0
WidescreenStoryboard: 0

[Editor]
DistanceSpacing: 1.2
BeatDivisor: 4
GridSize: 32
TimelineZoom: 1.6

[Metadata]
Title:Potomiru Pinera
TitleUnicode:ポトミル ピニェラ
Artist:Fotzu
ArtistUnicode:Fotzu
Creator:Alepat
Version:Muzukashii
Source:東方Project
Tags:Shinsekai- Skull Kid cirno chirumiru touhou chile marepoto おてんば恋娘 otenba koimusume beloved tomboyish girl daughter conagusuri sebastián piñera echenique youtube misamiru ricardo lagos michelle bachelet augusto pinochet evelyn matthei billy herrington enrique peña nieto
BeatmapID:1125793
BeatmapSetID:531190

[Difficulty]
HPDrainRate:6
CircleSize:5
OverallDifficulty:4
ApproachRate:6
SliderMultiplier:1.4
SliderTickRate:1

[Events]
//Background and Video events
0,0,"BG.jpg",0,0
Video,0,"marepoto.avi"
//Break Periods
//Storyboard Layer 0 (Background)
//Storyboard Layer 1 (Fail)
//Storyboard Layer 2 (Pass)
//Storyboard Layer 3 (Foreground)
//Storyboard Sound Samples

[TimingPoints]
910,333.333333333333,4,1,0,100,1,0
51576,-100,4,1,0,100,0,1
72909,-100,4,1,0,100,0,0

[HitObjects]
256,192,909,5,8,0:0:0:0:
256,192,1243,1,8,0:0:0:0:
256,192,1576,1,8,0:0:0:0:
256,192,1743,1,0,0:0:0:0:
256,192,1910,1,0,0:0:0:0:
256,192,2076,1,8,0:0:0:0:
256,192,2409,1,0,0:0:0:0:
256,192,2576,1,8,0:0:0:0:
256,192,2742,1,0,0:0:0:0:
256,192,2909,1,8,0:0:0:0:
256,192,3243,1,0,0:0:0:0:
256,192,3576,1,8,0:0:0:0:
256,192,3909,1,8,0:0:0:0:
256,192,4243,1,8,0:0:0:0:
256,192,4409,1,0,0:0:0:0:
256,192,4576,1,0,0:0:0:0:
256,192,4743,1,8,0:0:0:0:
256,192,5076,1,8,0:0:0:0:
256,192,5409,1,0,0:0:0:0:
256,192,5576,1,8,0:0:0:0:
256,192,5909,1,0,0:0:0:0:
256,192,6243,1,4,0:0:0:0:
256,192,6576,1,8,0:0:0:0:
256,192,6909,1,0,0:0:0:0:
256,192,7243,1,8,0:0:0:0:
256,192,7576,1,0,0:0:0:0:
256,192,7743,1,0,0:0:0:0:
256,192,7909,1,8,0:0:0:0:
256,192,8076,1,0,0:0:0:0:
256,192,8243,1,0,0:0:0:0:
256,192,8576,1,8,0:0:0:0:
256,192,8909,1,0,0:0:0:0:
256,192,9243,1,8,0:0:0:0:
256,192,9576,1,0,0:0:0:0:
256,192,9743,1,0,0:0:0:0:
256,192,9909,1,8,0:0:0:0:
256,192,10243,1,0,0:0:0:0:
256,192,10409,1,0,0:0:0:0:
256,192,10576,1,8,0:0:0:0:
256,192,10743,1,0,0:0:0:0:
256,192,10910,1,0,0:0:0:0:
256,192,11576,1,0,0:0:0:0:
256,192,11743,1,0,0:0:0:0:
256,192,11909,1,8,0:0:0:0:
256,192,12076,1,0,0:0:0:0:
256,192,12159,1,0,0:0:0:0:
256,192,12243,1,0,0:0:0:0:
256,192,12409,1,0,0:0:0:0:
256,192,12576,1,8,0:0:0:0:
256,192,12909,1,0,0:0:0:0:
256,192,13243,1,8,0:0:0:0:
256,192,13409,1,0,0:0:0:0:
256,192,13576,1,0,0:0:0:0:
256,192,13909,1,8,0:0:0:0:
256,192,14243,1,0,0:0:0:0:
256,192,14576,1,8,0:0:0:0:
256,192,14743,1,0,0:0:0:0:
256,192,14826,1,0,0:0:0:0:
256,192,14909,1,0,0:0:0:0:
256,192,15076,1,0,0:0:0:0:
256,192,15243,1,8,0:0:0:0:
256,192,15409,1,0,0:0:0:0:
256,192,15576,1,12,0:0:0:0:
256,192,16243,1,0,0:0:0:0:
256,192,16409,1,0,0:0:0:0:
256,192,16493,1,0,0:0:0:0:
256,192,16576,1,0,0:0:0:0:
256,192,16743,1,0,0:0:0:0:
256,192,16909,5,12,0:0:0:0:
256,192,17243,1,8,0:0:0:0:
256,192,17493,1,8,0:0:0:0:
256,192,17742,1,8,0:0:0:0:
256,192,17909,1,8,0:0:0:0:
256,192,18076,1,8,0:0:0:0:
256,192,18243,1,0,0:0:0:0:
256,192,18576,1,0,0:0:0:0:
256,192,18826,1,0,0:0:0:0:
256,192,19076,1,0,0:0:0:0:
256,192,19243,1,0,0:0:0:0:
256,192,19409,1,8,0:0:0:0:
256,192,19576,1,0,0:0:0:0:
256,192,19909,1,0,0:0:0:0:
256,192,20159,1,0,0:0:0:0:
256,192,20409,1,0,0:0:0:0:
256,192,20576,1,0,0:0:0:0:
256,192,20743,1,8,0:0:0:0:
256,192,20909,1,8,0:0:0:0:
256,192,21243,1,8,0:0:0:0:
256,192,21493,1,8,0:0:0:0:
256,192,21743,1,8,0:0:0:0:
256,192,21909,1,8,0:0:0:0:
256,192,22076,1,8,0:0:0:0:
256,192,22243,1,4,0:0:0:0:
256,192,22576,1,0,0:0:0:0:
256,192,22826,1,0,0:0:0:0:
256,192,23076,1,0,0:0:0:0:
256,192,23243,1,0,0:0:0:0:
256,192,23409,1,8,0:0:0:0:
256,192,23576,1,8,0:0:0:0:
256,192,23909,1,0,0:0:0:0:
256,192,24159,1,0,0:0:0:0:
256,192,24409,1,0,0:0:0:0:
256,192,24576,1,0,0:0:0:0:
256,192,24743,1,8,0:0:0:0:
256,192,24909,1,0,0:0:0:0:
256,192,25243,1,0,0:0:0:0:
256,192,25493,1,0,0:0:0:0:
256,192,25743,1,0,0:0:0:0:
256,192,25909,1,0,0:0:0:0:
256,192,26076,1,8,0:0:0:0:
256,192,26243,1,8,0:0:0:0:
256,192,26409,12,4,27243,0:0:0:0:
256,192,27576,5,12,0:0:0:0:
256,192,27743,1,8,0:0:0:0:
256,192,27909,1,0,0:0:0:0:
256,192,28076,1,0,0:0:0:0:
256,192,28909,1,8,0:0:0:0:
256,192,29076,1,8,0:0:0:0:
256,192,29243,1,0,0:0:0:0:
256,192,29409,1,0,0:0:0:0:
256,192,29743,1,8,0:0:0:0:
256,192,30076,1,8,0:0:0:0:
256,192,30243,1,8,0:0:0:0:
256,192,30409,1,8,0:0:0:0:
256,192,30576,1,0,0:0:0:0:
256,192,30743,1,0,0:0:0:0:
256,192,31576,1,4,0:0:0:0:
256,192,31909,1,12,0:0:0:0:
256,192,32243,1,4,0:0:0:0:
256,192,32576,1,12,0:0:0:0:
256,192,32909,1,12,0:0:0:0:
256,192,33076,1,8,0:0:0:0:
256,192,33243,1,0,0:0:0:0:
256,192,33409,1,0,0:0:0:0:
256,192,34243,1,8,0:0:0:0:
256,192,34409,1,8,0:0:0:0:
256,192,34576,1,0,0:0:0:0:
256,192,34743,1,0,0:0:0:0:
256,192,35076,1,8,0:0:0:0:
256,192,35409,1,8,0:0:0:0:
256,192,35576,1,8,0:0:0:0:
256,192,35743,1,8,0:0:0:0:
256,192,35909,1,0,0:0:0:0:
256,192,36076,1,0,0:0:0:0:
256,192,36743,12,0,37909,0:0:0:0:
256,192,38243,5,12,0:0:0:0:
256,192,38409,1,8,0:0:0:0:
256,192,38576,1,0,0:0:0:0:
256,192,38743,1,0,0:0:0:0:
256,192,39576,1,8,0:0:0:0:
256,192,39743,1,8,0:0:0:0:
256,192,39909,1,0,0:0:0:0:
256,192,40076,1,0,0:0:0:0:
256,192,40409,1,8,0:0:0:0:
256,192,40743,1,8,0:0:0:0:
256,192,40909,1,8,0:0:0:0:
256,192,41076,1,8,0:0:0:0:
256,192,41243,1,0,0:0:0:0:
256,192,41409,1,0,0:0:0:0:
256,192,42243,1,4,0:0:0:0:
256,192,42576,1,12,0:0:0:0:
256,192,42909,1,4,0:0:0:0:
256,192,43243,1,12,0:0:0:0:
256,192,43576,1,12,0:0:0:0:
256,192,43743,1,8,0:0:0:0:
256,192,43909,1,0,0:0:0:0:
256,192,44076,1,0,0:0:0:0:
256,192,44909,1,8,0:0:0:0:
256,192,45076,1,8,0:0:0:0:
256,192,45243,1,0,0:0:0:0:
256,192,45409,1,0,0:0:0:0:
256,192,45743,1,8,0:0:0:0:
256,192,46076,1,8,0:0:0:0:
256,192,46243,1,8,0:0:0:0:
256,192,46409,1,8,0:0:0:0:
256,192,46576,1,0,0:0:0:0:
256,192,46743,1,0,0:0:0:0:
256,192,47409,12,0,48576,0:0:0:0:
256,192,48909,5,8,0:0:0:0:
256,192,49076,1,0,0:0:0:0:
256,192,49243,1,0,0:0:0:0:
256,192,49409,1,8,0:0:0:0:
256,192,49743,1,0,0:0:0:0:
256,192,49909,1,0,0:0:0:0:
256,192,50243,1,4,0:0:0:0:
256,192,51159,1,0,0:0:0:0:
256,192,51243,1,0,0:0:0:0:
256,192,51409,1,0,0:0:0:0:
256,192,51576,1,4,0:0:0:0:
256,192,51743,1,8,0:0:0:0:
256,192,51909,1,0,0:0:0:0:
256,192,52243,1,0,0:0:0:0:
256,192,52409,1,8,0:0:0:0:
256,192,52493,1,8,0:0:0:0:
256,192,52576,1,8,0:0:0:0:
256,192,52743,1,0,0:0:0:0:
256,192,52909,1,8,0:0:0:0:
256,192,53076,1,0,0:0:0:0:
256,192,53243,1,8,0:0:0:0:
256,192,53576,1,8,0:0:0:0:
256,192,53909,1,0,0:0:0:0:
256,192,54076,1,8,0:0:0:0:
256,192,54243,1,0,0:0:0:0:
256,192,54326,1,0,0:0:0:0:
256,192,54409,1,0,0:0:0:0:
256,192,54576,1,0,0:0:0:0:
256,192,54743,1,8,0:0:0:0:
256,192,54909,1,0,0:0:0:0:
256,192,55243,1,8,0:0:0:0:
256,192,55576,1,0,0:0:0:0:
256,192,55743,1,0,0:0:0:0:
256,192,55826,1,0,0:0:0:0:
256,192,55909,1,0,0:0:0:0:
256,192,56076,1,0,0:0:0:0:
256,192,56243,1,8,0:0:0:0:
256,192,56409,1,0,0:0:0:0:
256,192,56576,1,8,0:0:0:0:
256,192,56909,1,8,0:0:0:0:
256,192,57076,1,8,0:0:0:0:
256,192,57159,1,8,0:0:0:0:
256,192,57243,1,8,0:0:0:0:
256,192,57409,1,0,0:0:0:0:
256,192,57576,1,8,0:0:0:0:
256,192,57909,1,0,0:0:0:0:
256,192,58243,5,8,0:0:0:0:
256,192,58326,1,8,0:0:0:0:
256,192,58409,1,8,0:0:0:0:
256,192,58576,1,0,0:0:0:0:
256,192,58743,1,8,0:0:0:0:
256,192,58909,1,0,0:0:0:0:
256,192,59243,1,0,0:0:0:0:
256,192,59576,1,0,0:0:0:0:
256,192,59743,1,8,0:0:0:0:
256,192,59909,1,8,0:0:0:0:
256,192,60076,1,0,0:0:0:0:
256,192,60159,1,0,0:0:0:0:
256,192,60243,1,0,0:0:0:0:
256,192,60409,1,0,0:0:0:0:
256,192,60576,1,0,0:0:0:0:
256,192,60909,1,4,0:0:0:0:
256,192,61243,1,8,0:0:0:0:
256,192,61909,1,8,0:0:0:0:
256,192,62243,5,4,0:0:0:0:
256,192,62409,1,0,0:0:0:0:
256,192,62493,1,0,0:0:0:0:
256,192,62576,1,0,0:0:0:0:
256,192,62743,1,8,0:0:0:0:
256,192,62909,1,0,0:0:0:0:
256,192,63076,1,0,0:0:0:0:
256,192,63243,1,8,0:0:0:0:
256,192,63576,1,0,0:0:0:0:
256,192,63743,1,8,0:0:0:0:
256,192,63826,1,8,0:0:0:0:
256,192,63909,1,8,0:0:0:0:
256,192,64076,1,0,0:0:0:0:
256,192,64243,1,8,0:0:0:0:
256,192,64409,1,0,0:0:0:0:
256,192,64576,1,0,0:0:0:0:
256,192,64909,1,0,0:0:0:0:
256,192,65076,1,8,0:0:0:0:
256,192,65243,1,8,0:0:0:0:
256,192,65409,1,0,0:0:0:0:
256,192,65576,1,8,0:0:0:0:
256,192,65743,1,0,0:0:0:0:
256,192,65826,1,0,0:0:0:0:
256,192,65909,1,0,0:0:0:0:
256,192,66243,1,0,0:0:0:0:
256,192,66409,1,0,0:0:0:0:
256,192,66576,1,8,0:0:0:0:
256,192,66743,1,0,0:0:0:0:
256,192,66909,1,0,0:0:0:0:
256,192,67076,1,0,0:0:0:0:
256,192,67159,1,0,0:0:0:0:
256,192,67243,1,0,0:0:0:0:
256,192,67409,1,0,0:0:0:0:
256,192,67576,1,8,0:0:0:0:
256,192,67743,1,0,0:0:0:0:
256,192,67909,1,8,0:0:0:0:
256,192,68076,1,0,0:0:0:0:
256,192,68243,1,0,0:0:0:0:
256,192,68576,1,8,0:0:0:0:
256,192,68909,1,0,0:0:0:0:
256,192,69076,1,8,0:0:0:0:
256,192,69159,1,8,0:0:0:0:
256,192,69243,1,8,0:0:0:0:
256,192,69409,1,0,0:0:0:0:
256,192,69576,1,8,0:0:0:0:
256,192,69743,1,0,0:0:0:0:
256,192,69909,1,8,0:0:0:0:
256,192,70243,1,0,0:0:0:0:
256,192,70409,1,0,0:0:0:0:
256,192,70493,1,0,0:0:0:0:
256,192,70576,1,0,0:0:0:0:
256,192,70743,1,0,0:0:0:0:
256,192,70909,12,0,72576,0:0:0:0:
256,192,72909,5,4,0:0:0:0:
256,192,73409,1,8,0:0:0:0:
256,192,73576,1,0,0:0:0:0:
256,192,73909,1,8,0:0:0:0:
256,192,74243,1,0,0:0:0:0:
256,192,75076,1,0,0:0:0:0:
256,192,75242,1,0,0:0:0:0:
256,192,75409,1,0,0:0:0:0:
256,192,75576,1,8,0:0:0:0:
256,192,76076,1,0,0:0:0:0:
256,192,76243,1,8,0:0:0:0:
256,192,76576,1,0,0:0:0:0:
256,192,76909,1,0,0:0:0:0:
256,192,77909,1,8,0:0:0:0:
256,192,78243,1,8,0:0:0:0:
256,192,78743,1,0,0:0:0:0:
256,192,78910,1,0,0:0:0:0:
256,192,79243,1,8,0:0:0:0:
256,192,79409,1,0,0:0:0:0:
256,192,79576,1,0,0:0:0:0:
256,192,79909,1,0,0:0:0:0:
256,192,80076,1,8,0:0:0:0:
256,192,80243,1,8,0:0:0:0:
256,192,80409,1,0,0:0:0:0:
256,192,80576,1,8,0:0:0:0:
256,192,80909,1,8,0:0:0:0:
256,192,81076,1,0,0:0:0:0:
256,192,81243,1,0,0:0:0:0:
256,192,81409,1,8,0:0:0:0:
256,192,81576,1,8,0:0:0:0:
256,192,81909,1,0,0:0:0:0:
256,192,82076,1,8,0:0:0:0:
256,192,82243,1,8,0:0:0:0:
256,192,82743,1,8,0:0:0:0:
256,192,82910,1,0,0:0:0:0:
256,192,83076,1,0,0:0:0:0:
256,192,83243,1,0,0:0:0:0:
256,192,83410,1,8,0:0:0:0:
256,192,83576,1,4,0:0:0:0:
256,192,83909,1,8,0:0:0:0:
256,192,84243,1,0,0:0:0:0:
256,192,84409,1,0,0:0:0:0:
256,192,84576,1,8,0:0:0:0:
256,192,84743,1,8,0:0:0:0:
256,192,84909,1,0,0:0:0:0:
256,192,85743,1,0,0:0:0:0:
256,192,85909,1,0,0:0:0:0:
256,192,86077,1,8,0:0:0:0:
256,192,86243,1,8,0:0:0:0:
256,192,86743,1,8,0:0:0:0:
256,192,86910,1,8,0:0:0:0:
256,192,87243,1,0,0:0:0:0:
256,192,87410,1,0,0:0:0:0:
256,192,87577,1,0,0:0:0:0:
256,192,88576,1,8,0:0:0:0:
256,192,88909,1,8,0:0:0:0:
256,192,89409,1,0,0:0:0:0:
256,192,89576,1,0,0:0:0:0:
256,192,89909,1,8,0:0:0:0:
256,192,90076,1,0,0:0:0:0:
256,192,90243,1,0,0:0:0:0:
256,192,90576,1,0,0:0:0:0:
256,192,90743,1,8,0:0:0:0:
256,192,90909,1,8,0:0:0:0:
256,192,91076,1,0,0:0:0:0:
256,192,91243,1,8,0:0:0:0:
256,192,91576,1,8,0:0:0:0:
256,192,91743,1,0,0:0:0:0:
256,192,91909,1,0,0:0:0:0:
256,192,92076,1,8,0:0:0:0:
256,192,92243,1,8,0:0:0:0:
256,192,92576,1,0,0:0:0:0:
256,192,92743,1,8,0:0:0:0:
256,192,92909,1,8,0:0:0:0:
256,192,93409,1,8,0:0:0:0:
256,192,93576,1,0,0:0:0:0:
256,192,94243,1,12,0:0:0:0:
256,192,94576,1,8,0:0:0:0:
256,192,94909,1,8,0:0:0:0:
256,192,95076,1,0,0:0:0:0:
256,192,95243,1,0,0:0:0:0:
256,192,95409,1,8,0:0:0:0:
256,192,95743,1,0,0:0:0:0:
256,192,95909,1,8,0:0:0:0:
256,192,96076,1,0,0:0:0:0:
256,192,96243,1,8,0:0:0:0:
256,192,96576,1,0,0:0:0:0:
256,192,96909,1,8,0:0:0:0:
256,192,97243,1,8,0:0:0:0:
256,192,97576,1,8,0:0:0:0:
256,192,97743,1,0,0:0:0:0:
256,192,97909,1,0,0:0:0:0:
256,192,98076,1,8,0:0:0:0:
256,192,98409,1,8,0:0:0:0:
256,192,98743,1,8,0:0:0:0:
256,192,98909,1,0,0:0:0:0:
256,192,99243,1,8,0:0:0:0:
256,192,99576,1,4,0:0:0:0:
256,192,99743,1,0,0:0:0:0:
256,192,99909,1,8,0:0:0:0:
256,192,100076,1,0,0:0:0:0:
256,192,100909,1,8,0:0:0:0:
256,192,101076,1,0,0:0:0:0:
256,192,101243,1,0,0:0:0:0:
256,192,101409,1,8,0:0:0:0:
256,192,101743,1,8,0:0:0:0:
256,192,102076,1,8,0:0:0:0:
256,192,102243,1,8,0:0:0:0:
256,192,102409,1,0,0:0:0:0:
256,192,102576,1,8,0:0:0:0:
256,192,102743,1,0,0:0:0:0:
256,192,103576,1,4,0:0:0:0:
256,192,103909,1,12,0:0:0:0:
256,192,104243,1,4,0:0:0:0:
256,192,104576,1,12,0:0:0:0:
256,192,104909,1,12,0:0:0:0:
256,192,105076,1,0,0:0:0:0:
256,192,105243,1,8,0:0:0:0:
256,192,105409,1,0,0:0:0:0:
256,192,106243,1,8,0:0:0:0:
256,192,106409,1,0,0:0:0:0:
256,192,106576,1,0,0:0:0:0:
256,192,106743,1,8,0:0:0:0:
256,192,107076,1,8,0:0:0:0:
256,192,107409,1,8,0:0:0:0:
256,192,107576,1,8,0:0:0:0:
256,192,107743,1,0,0:0:0:0:
256,192,107909,1,8,0:0:0:0:
256,192,108076,1,0,0:0:0:0:
256,192,108743,12,0,109909,0:0:0:0:
256,192,110243,5,12,0:0:0:0:
256,192,110409,1,0,0:0:0:0:
256,192,110576,1,8,0:0:0:0:
256,192,110743,1,0,0:0:0:0:
256,192,111576,1,8,0:0:0:0:
256,192,111743,1,0,0:0:0:0:
256,192,111909,1,0,0:0:0:0:
256,192,112076,1,8,0:0:0:0:
256,192,112409,1,8,0:0:0:0:
256,192,112743,1,8,0:0:0:0:
256,192,112909,1,8,0:0:0:0:
256,192,113076,1,0,0:0:0:0:
256,192,113243,1,8,0:0:0:0:
256,192,113409,1,0,0:0:0:0:
256,192,114243,1,4,0:0:0:0:
256,192,114576,1,12,0:0:0:0:
256,192,114909,1,4,0:0:0:0:
256,192,115243,1,12,0:0:0:0:
256,192,115576,1,12,0:0:0:0:
256,192,115743,1,0,0:0:0:0:
256,192,115909,1,8,0:0:0:0:
256,192,116076,1,0,0:0:0:0:
256,192,116909,1,8,0:0:0:0:
256,192,117076,1,0,0:0:0:0:
256,192,117243,1,0,0:0:0:0:
256,192,117409,1,8,0:0:0:0:
256,192,117743,1,8,0:0:0:0:
256,192,118076,1,8,0:0:0:0:
256,192,118243,1,8,0:0:0:0:
256,192,118409,1,0,0:0:0:0:
256,192,118576,1,8,0:0:0:0:
256,192,118743,1,0,0:0:0:0:
256,192,119409,12,0,120576,0:0:0:0:
256,192,120909,5,12,0:0:0:0:
256,192,121243,1,4,0:0:0:0:
256,192,121409,1,12,0:0:0:0:
256,192,121743,1,4,0:0:0:0:
256,192,121909,1,4,0:0:0:0:
256,192,122243,1,4,0:0:0:0:
