osu file format v14

[General]
AudioFilename: potomiru pinera.mp3
AudioLeadIn: 0
PreviewTime: 27576
Countdown: 0
SampleSet: Normal
StackLeniency: 0.7
Mode: 1
LetterboxInBreaks: 0
WidescreenStoryboard: 0

[Editor]
DistanceSpacing: 1.2
BeatDivisor: 4
GridSize: 32
TimelineZoom: 2.4

[Metadata]
Title:Potomiru Pinera
TitleUnicode:ポトミル ピニェラ
Artist:Fotzu
ArtistUnicode:Fotzu
Creator:Alepat
Version:Futsuu
Source:東方Project
Tags:Shinsekai- Skull Kid cirno chirumiru touhou chile marepoto おてんば恋娘 otenba koimusume beloved tomboyish girl daughter conagusuri sebastián piñera echenique youtube misamiru ricardo lagos michelle bachelet augusto pinochet evelyn matthei billy herrington enrique peña nieto
BeatmapID:1125791
BeatmapSetID:531190

[Difficulty]
HPDrainRate:7
CircleSize:5
OverallDifficulty:3
ApproachRate:6
SliderMultiplier:1.4
SliderTickRate:1

[Events]
//Background and Video events
0,0,"BG.jpg",0,0
Video,0,"marepoto.avi"
//Break Periods
2,6443,15859
//Storyboard Layer 0 (Background)
//Storyboard Layer 1 (Fail)
//Storyboard Layer 2 (Pass)
//Storyboard Layer 3 (Foreground)
//Storyboard Sound Samples

[TimingPoints]
910,333.333333333333,4,1,0,100,1,0
51576,-100,4,1,0,100,0,1
72909,-100,4,1,0,100,0,0

[HitObjects]
256,192,909,5,12,0:0:0:0:
256,192,1243,1,8,0:0:0:0:
256,192,1576,1,8,0:0:0:0:
256,192,2076,1,0,0:0:0:0:
256,192,2576,1,8,0:0:0:0:
256,192,2909,1,0,0:0:0:0:
256,192,3243,1,0,0:0:0:0:
256,192,3576,1,12,0:0:0:0:
256,192,3909,1,8,0:0:0:0:
256,192,4243,1,8,0:0:0:0:
256,192,4743,1,0,0:0:0:0:
256,192,5576,1,0,0:0:0:0:
256,192,6243,1,4,0:0:0:0:
256,192,16909,5,4,0:0:0:0:
256,192,17243,1,8,0:0:0:0:
256,192,17576,1,8,0:0:0:0:
256,192,18243,1,8,0:0:0:0:
256,192,18409,1,8,0:0:0:0:
256,192,18576,1,0,0:0:0:0:
256,192,18909,1,0,0:0:0:0:
256,192,19576,1,0,0:0:0:0:
256,192,19743,1,0,0:0:0:0:
256,192,19909,1,0,0:0:0:0:
256,192,20243,1,0,0:0:0:0:
256,192,20909,1,8,0:0:0:0:
256,192,21076,1,8,0:0:0:0:
256,192,21243,1,8,0:0:0:0:
256,192,21576,1,8,0:0:0:0:
256,192,22243,1,0,0:0:0:0:
256,192,22409,1,0,0:0:0:0:
256,192,22576,1,8,0:0:0:0:
256,192,22909,1,8,0:0:0:0:
256,192,23576,1,8,0:0:0:0:
256,192,23743,1,8,0:0:0:0:
256,192,23909,1,0,0:0:0:0:
256,192,24243,1,0,0:0:0:0:
256,192,24909,1,0,0:0:0:0:
256,192,25076,1,0,0:0:0:0:
256,192,25243,1,0,0:0:0:0:
256,192,25576,1,0,0:0:0:0:
256,192,26243,12,8,27243,0:0:0:0:
256,192,27576,5,12,0:0:0:0:
256,192,27909,1,0,0:0:0:0:
256,192,28076,1,0,0:0:0:0:
256,192,28909,1,8,0:0:0:0:
256,192,29243,1,0,0:0:0:0:
256,192,29409,1,8,0:0:0:0:
256,192,29909,1,0,0:0:0:0:
256,192,30243,1,8,0:0:0:0:
256,192,30576,1,0,0:0:0:0:
256,192,30743,1,0,0:0:0:0:
256,192,31576,1,12,0:0:0:0:
256,192,31909,1,4,0:0:0:0:
256,192,32243,1,12,0:0:0:0:
256,192,32576,1,4,0:0:0:0:
256,192,32909,1,12,0:0:0:0:
256,192,33243,1,0,0:0:0:0:
256,192,33409,1,0,0:0:0:0:
256,192,34243,1,8,0:0:0:0:
256,192,34576,1,0,0:0:0:0:
256,192,34743,1,8,0:0:0:0:
256,192,35243,1,0,0:0:0:0:
256,192,35576,1,8,0:0:0:0:
256,192,35909,1,0,0:0:0:0:
256,192,36076,1,0,0:0:0:0:
256,192,36743,12,0,37909,0:0:0:0:
256,192,38243,5,12,0:0:0:0:
256,192,38576,1,0,0:0:0:0:
256,192,38743,1,0,0:0:0:0:
256,192,39576,1,8,0:0:0:0:
256,192,39909,1,0,0:0:0:0:
256,192,40076,1,8,0:0:0:0:
256,192,40576,1,0,0:0:0:0:
256,192,40909,1,8,0:0:0:0:
256,192,41243,1,0,0:0:0:0:
256,192,41409,1,0,0:0:0:0:
256,192,42243,1,12,0:0:0:0:
256,192,42576,1,4,0:0:0:0:
256,192,42909,1,12,0:0:0:0:
256,192,43243,1,4,0:0:0:0:
256,192,43576,1,12,0:0:0:0:
256,192,43909,1,0,0:0:0:0:
256,192,44076,1,0,0:0:0:0:
256,192,44909,1,8,0:0:0:0:
256,192,45243,1,0,0:0:0:0:
256,192,45409,1,8,0:0:0:0:
256,192,45909,1,0,0:0:0:0:
256,192,46243,1,8,0:0:0:0:
256,192,46576,1,0,0:0:0:0:
256,192,46743,1,0,0:0:0:0:
256,192,47409,12,0,48576,0:0:0:0:
256,192,48909,5,12,0:0:0:0:
256,192,49409,1,8,0:0:0:0:
256,192,49909,1,0,0:0:0:0:
256,192,50243,1,4,0:0:0:0:
256,192,51576,1,4,0:0:0:0:
256,192,51909,1,8,0:0:0:0:
256,192,52243,1,0,0:0:0:0:
256,192,52576,1,8,0:0:0:0:
256,192,52909,1,8,0:0:0:0:
256,192,53243,1,8,0:0:0:0:
256,192,53576,1,0,0:0:0:0:
256,192,54243,1,0,0:0:0:0:
256,192,54576,1,8,0:0:0:0:
256,192,54909,1,0,0:0:0:0:
256,192,55076,1,0,0:0:0:0:
256,192,55243,1,8,0:0:0:0:
256,192,55576,1,0,0:0:0:0:
256,192,55909,1,8,0:0:0:0:
256,192,56243,1,0,0:0:0:0:
256,192,56909,1,8,0:0:0:0:
256,192,57243,1,8,0:0:0:0:
256,192,57576,1,0,0:0:0:0:
256,192,57909,1,0,0:0:0:0:
256,192,58243,1,8,0:0:0:0:
256,192,58909,1,0,0:0:0:0:
256,192,59076,1,0,0:0:0:0:
256,192,59243,1,0,0:0:0:0:
256,192,59576,1,0,0:0:0:0:
256,192,59909,1,8,0:0:0:0:
256,192,60243,1,0,0:0:0:0:
256,192,60576,1,8,0:0:0:0:
256,192,60909,1,4,0:0:0:0:
256,192,62243,5,4,0:0:0:0:
256,192,62576,1,8,0:0:0:0:
256,192,62909,1,0,0:0:0:0:
256,192,63243,1,8,0:0:0:0:
256,192,63576,1,8,0:0:0:0:
256,192,63743,1,8,0:0:0:0:
256,192,63909,1,8,0:0:0:0:
256,192,64243,1,8,0:0:0:0:
256,192,64909,1,0,0:0:0:0:
256,192,65243,1,0,0:0:0:0:
256,192,65576,1,8,0:0:0:0:
256,192,65909,1,8,0:0:0:0:
256,192,66243,1,0,0:0:0:0:
256,192,66409,1,0,0:0:0:0:
256,192,66576,1,8,0:0:0:0:
256,192,66909,1,0,0:0:0:0:
256,192,67576,1,0,0:0:0:0:
256,192,67909,1,8,0:0:0:0:
256,192,68243,1,0,0:0:0:0:
256,192,68576,1,8,0:0:0:0:
256,192,69243,1,8,0:0:0:0:
256,192,69576,1,0,0:0:0:0:
256,192,69743,1,0,0:0:0:0:
256,192,69909,1,8,0:0:0:0:
256,192,70243,12,8,72576,0:0:0:0:
256,192,72909,5,4,0:0:0:0:
256,192,73409,1,8,0:0:0:0:
256,192,73576,1,8,0:0:0:0:
256,192,73909,1,0,0:0:0:0:
256,192,74243,1,0,0:0:0:0:
256,192,75076,1,8,0:0:0:0:
256,192,75243,1,8,0:0:0:0:
256,192,75576,1,8,0:0:0:0:
256,192,76076,1,0,0:0:0:0:
256,192,76243,1,0,0:0:0:0:
256,192,76576,1,8,0:0:0:0:
256,192,76909,1,0,0:0:0:0:
256,192,77909,1,0,0:0:0:0:
256,192,78243,1,8,0:0:0:0:
256,192,78743,1,0,0:0:0:0:
256,192,78909,1,0,0:0:0:0:
256,192,79243,1,0,0:0:0:0:
256,192,79576,1,8,0:0:0:0:
256,192,79909,1,0,0:0:0:0:
256,192,80243,1,8,0:0:0:0:
256,192,80576,1,8,0:0:0:0:
256,192,80909,12,8,83243,0:0:0:0:
256,192,83576,5,4,0:0:0:0:
256,192,83909,1,8,0:0:0:0:
256,192,84243,1,0,0:0:0:0:
256,192,84576,1,8,0:0:0:0:
256,192,84909,1,0,0:0:0:0:
256,192,85909,1,8,0:0:0:0:
256,192,86243,1,8,0:0:0:0:
256,192,86743,1,0,0:0:0:0:
256,192,86909,1,0,0:0:0:0:
256,192,87243,1,8,0:0:0:0:
256,192,87576,1,0,0:0:0:0:
256,192,88576,1,8,0:0:0:0:
256,192,88909,1,8,0:0:0:0:
256,192,89409,1,0,0:0:0:0:
256,192,89576,1,0,0:0:0:0:
256,192,89909,1,0,0:0:0:0:
256,192,90243,1,8,0:0:0:0:
256,192,90576,1,8,0:0:0:0:
256,192,90909,1,0,0:0:0:0:
256,192,91243,1,8,0:0:0:0:
256,192,91576,12,0,93909,0:0:0:0:
256,192,94243,5,12,0:0:0:0:
256,192,94576,1,8,0:0:0:0:
256,192,94909,1,8,0:0:0:0:
256,192,95409,1,0,0:0:0:0:
256,192,95743,1,8,0:0:0:0:
256,192,95909,1,8,0:0:0:0:
256,192,96243,1,0,0:0:0:0:
256,192,96576,1,0,0:0:0:0:
256,192,96909,1,12,0:0:0:0:
256,192,97243,1,8,0:0:0:0:
256,192,97576,1,8,0:0:0:0:
256,192,98076,1,0,0:0:0:0:
256,192,98409,1,8,0:0:0:0:
256,192,98909,1,0,0:0:0:0:
256,192,99576,1,4,0:0:0:0:
256,192,99909,1,0,0:0:0:0:
256,192,100076,1,0,0:0:0:0:
256,192,100576,1,0,0:0:0:0:
256,192,100909,1,8,0:0:0:0:
256,192,101243,1,0,0:0:0:0:
256,192,101409,1,8,0:0:0:0:
256,192,101909,1,0,0:0:0:0:
256,192,102243,1,0,0:0:0:0:
256,192,102576,1,0,0:0:0:0:
256,192,102743,1,0,0:0:0:0:
256,192,103576,1,12,0:0:0:0:
256,192,103909,1,4,0:0:0:0:
256,192,104243,1,12,0:0:0:0:
256,192,104576,1,4,0:0:0:0:
256,192,104909,1,12,0:0:0:0:
256,192,105243,1,0,0:0:0:0:
256,192,105409,1,0,0:0:0:0:
256,192,105909,1,0,0:0:0:0:
256,192,106243,1,8,0:0:0:0:
256,192,106576,1,0,0:0:0:0:
256,192,106743,1,8,0:0:0:0:
256,192,107243,1,0,0:0:0:0:
256,192,107576,1,0,0:0:0:0:
256,192,107909,1,0,0:0:0:0:
256,192,108076,1,0,0:0:0:0:
256,192,108743,12,0,109909,0:0:0:0:
256,192,110243,5,12,0:0:0:0:
256,192,110576,1,0,0:0:0:0:
256,192,110743,1,0,0:0:0:0:
256,192,111243,1,0,0:0:0:0:
256,192,111576,1,8,0:0:0:0:
256,192,111909,1,0,0:0:0:0:
256,192,112076,1,8,0:0:0:0:
256,192,112576,1,0,0:0:0:0:
256,192,112909,1,0,0:0:0:0:
256,192,113243,1,0,0:0:0:0:
256,192,113409,1,0,0:0:0:0:
256,192,114243,1,12,0:0:0:0:
256,192,114576,1,4,0:0:0:0:
256,192,114909,1,12,0:0:0:0:
256,192,115243,1,4,0:0:0:0:
256,192,115576,1,12,0:0:0:0:
256,192,115909,1,0,0:0:0:0:
256,192,116076,1,0,0:0:0:0:
256,192,116576,1,0,0:0:0:0:
256,192,116909,1,8,0:0:0:0:
256,192,117243,1,0,0:0:0:0:
256,192,117409,1,8,0:0:0:0:
256,192,117909,1,0,0:0:0:0:
256,192,118243,1,0,0:0:0:0:
256,192,118576,1,0,0:0:0:0:
256,192,118743,1,0,0:0:0:0:
256,192,119409,12,0,120576,0:0:0:0:
256,192,120909,5,12,0:0:0:0:
256,192,121409,1,12,0:0:0:0:
256,192,121909,1,4,0:0:0:0:
256,192,122243,1,4,0:0:0:0:
