osu file format v14

[General]
AudioFilename: audio.mp3
AudioLeadIn: 0
PreviewTime: 49253
Countdown: 0
SampleSet: Normal
StackLeniency: 0.4
Mode: 0
LetterboxInBreaks: 0
EpilepsyWarning: 1
WidescreenStoryboard: 1

[Editor]
Bookmarks: 6663,17329,22663,27996,49329,51996,70663,73329,84413,94663,99996,121329,122663
DistanceSpacing: 0.5
BeatDivisor: 4
GridSize: 32
TimelineZoom: 3.799998

[Metadata]
Title:POTOMIRU PINERA
TitleUnicode:ポトミル ピニェラ
Artist:Fotzu
ArtistUnicode:Fotzu
Creator:TheShadowOfDark
Version:Tatan's Expert
Source:東方Project
Tags:Chilean Chile おてんば恋娘 cirno chirumiru misamirú misamiru youtube touhou Beloved Tomboyish Girl hazu- wolf3211 tatan -_tatan_- チルミルチルノ Sebastián Sebastian Piñera videogame japanese spanish video game ytpmv 音MAD
BeatmapID:2163407
BeatmapSetID:1032450

[Difficulty]
HPDrainRate:5.5
CircleSize:4
OverallDifficulty:8
ApproachRate:9.2
SliderMultiplier:1.6
SliderTickRate:1

[Events]
//Background and Video events
Video,500,"yporelmarepoto.mp4"
0,0,"bgculiao.jpg",0,0
//Break Periods
2,8203,15433
//Storyboard Layer 0 (Background)
//Storyboard Layer 1 (Fail)
//Storyboard Layer 2 (Pass)
//Storyboard Layer 3 (Foreground)
//Storyboard Layer 4 (Overlay)
//Storyboard Sound Samples

[TimingPoints]
1337,333.333333333333,4,1,1,50,1,0
1337,-100,4,1,1,50,0,0
1503,-100,4,1,1,20,0,0
1670,-100,4,1,1,50,0,0
1836,-100,4,1,1,20,0,0
2003,-100,4,1,1,50,0,0
3586,-100,4,1,1,5,0,0
3670,-100,4,1,1,50,0,0
3836,-100,4,1,1,20,0,0
4003,-100,4,1,1,50,0,0
4170,-100,4,1,1,20,0,0
4336,-100,4,1,1,50,0,0
4503,-100,4,1,1,20,0,0
4670,-100,4,1,1,50,0,0
6336,-66.6666666666667,4,1,1,50,0,0
6670,-66.6666666666667,4,1,1,50,0,0
8003,-100,4,3,1,50,0,0
16003,-66.6666666666667,4,2,1,50,0,0
17336,-100,4,3,1,70,0,1
28003,-80,4,2,1,70,0,0
50670,-133.333333333333,4,2,1,70,0,0
50753,-100,4,2,1,5,0,0
51586,-66.6666666666667,4,2,1,50,0,0
52003,-100,4,2,1,70,0,1
55836,-66.6666666666667,4,2,1,70,0,1
56170,-100,4,2,1,70,0,1
58336,-66.6666666666667,4,2,1,70,0,1
59170,-100,4,2,1,70,0,1
61003,-66.6666666666667,4,2,1,70,0,1
61670,-66.6666666666667,4,2,1,70,0,0
61920,-50,4,2,1,70,0,0
62086,-50,4,2,1,5,0,0
62170,-50,4,2,1,70,0,0
62336,-100,4,2,1,70,0,0
62670,-100,4,2,1,70,0,1
64336,-80,4,2,1,70,0,1
64670,-100,4,2,1,70,0,1
67003,-66.6666666666667,4,2,1,70,0,1
67503,-100,4,2,1,70,0,1
67670,-80,4,2,1,70,0,1
69336,-100,4,2,1,70,0,1
70670,-80,4,2,1,70,0,1
73336,-100,4,2,1,70,0,0
74670,-133.333333333333,4,2,1,70,0,0
75336,-100,4,2,1,70,0,0
76003,-133.333333333333,4,2,1,70,0,0
78586,-66.6666666666667,4,2,1,5,0,0
78670,-100,4,2,1,70,0,0
81003,-80,4,2,1,70,0,0
81253,-80,4,2,1,5,0,0
81336,-80,4,2,1,70,0,0
82670,-80,4,2,1,70,0,0
84003,-100,4,2,1,70,0,0
89253,-100,4,2,1,5,0,0
89336,-80,4,2,1,70,0,0
91920,-80,4,2,1,5,0,0
92003,-80,4,2,1,70,0,0
94670,-100,4,1,1,50,0,0
94836,-100,4,1,1,20,0,0
95003,-100,4,1,1,50,0,0
95170,-100,4,1,1,20,0,0
95336,-100,4,1,1,50,0,0
96920,-100,4,1,1,5,0,0
97003,-100,4,1,1,50,0,0
97170,-100,4,1,1,20,0,0
97336,-100,4,1,1,50,0,0
97503,-100,4,1,1,20,0,0
97670,-100,4,1,1,50,0,0
97836,-100,4,1,1,20,0,0
98003,-100,4,1,1,50,0,0
99336,-66.6666666666667,4,2,1,55,0,0
100003,-80,4,2,1,70,0,0
122920,-100,4,2,1,5,0,0

[Colours]
Combo1 : 178,178,178
Combo2 : 66,46,250
Combo3 : 0,168,249
Combo4 : 132,132,255

[HitObjects]
59,90,1337,6,0,L|165:83,1,80,2|0,0:2|2:2,0:0:0:0:
275,168,1670,2,0,L|169:161,1,80,2|0,0:2|2:2,0:0:0:0:
321,80,2003,1,2,0:2:0:0:
367,171,2170,1,0,0:2:0:0:
233,81,2336,1,2,0:2:0:0:
406,53,2503,1,2,0:2:0:0:
423,41,2836,5,0,0:2:0:0:
208,76,3003,1,2,0:2:0:0:
374,187,3169,1,0,0:2:0:0:
315,0,3336,2,0,L|309:143,1,120,2|0,0:2|2:2,0:0:0:0:
323,106,3670,2,0,L|326:26,1,80,2|0,0:2|2:2,0:0:0:0:
437,249,4003,6,0,P|404:271|364:274,1,80,2|0,0:2|2:2,0:0:0:0:
219,180,4336,2,0,P|258:183|291:205,1,80,2|0,0:2|2:2,0:0:0:0:
165,364,4670,1,2,0:2:0:0:
129,217,4836,1,0,0:2:0:0:
229,267,5003,1,2,0:2:0:0:
53,310,5169,1,2,0:2:0:0:
29,312,5503,5,2,0:2:0:0:
247,261,5836,1,2,0:2:0:0:
171,328,6003,1,2,0:2:0:0:
150,293,6086,1,0,0:0:0:0:
145,254,6170,1,0,0:0:0:0:
156,215,6253,1,0,0:0:0:0:
177,180,6336,1,2,0:2:0:0:
182,141,6420,1,0,0:0:0:0:
171,102,6503,2,0,L|123:100,3,30.0000011444092,0|0|0|0,0:0|0:0|0:0|0:0,0:0:0:0:
212,34,6670,5,6,0:2:0:0:
256,192,6753,12,0,8003,0:0:0:0:
442,169,16003,5,6,0:0:0:0:
385,18,16170,2,0,P|370:53|370:82,1,60.0000022888184,0|0,3:2|3:2,0:0:0:0:
280,84,16336,2,0,P|291:120|309:142,1,60.0000022888184,0|0,3:2|3:2,0:0:0:0:
454,181,16502,2,0,B|396:183|396:183|339:214|339:214|281:216,1,180.000006866455,2|0,3:2|0:0,0:0:0:0:
244,139,16836,2,0,B|306:136,1,60.0000022888184,0|0,3:2|0:0,0:0:0:0:
481,265,17002,2,0,B|421:267,1,60.0000022888184,10|0,3:1|0:0,0:0:0:0:
281,215,17169,1,0,0:0:0:0:
45,327,17336,6,0,L|41:279,3,40,14|0|0|0,0:1|0:0|0:0|0:0,0:0:0:0:
124,310,17670,2,0,L|120:262,3,40,10|0|0|2,0:2|0:0|0:0|0:2,0:0:0:0:
202,198,18003,2,0,L|198:246,3,40,8|0|0|0,0:1|0:0|0:0|0:0,0:0:0:0:
281,215,18336,2,0,L|277:263,3,40,10|0|0|0,0:2|0:0|0:0|0:0,0:0:0:0:
362,263,18670,5,10,0:1:0:0:
379,227,18753,1,0,0:0:0:0:
381,187,18836,1,0,0:0:0:0:
367,150,18919,1,0,0:0:0:0:
338,123,19003,2,0,L|281:120,3,40,10|0|0|2,0:2|0:0|0:0|0:2,0:0:0:0:
205,42,19336,2,0,L|230:92,3,40,8|0|0|0,0:1|0:0|0:0|0:0,0:0:0:0:
202,198,19670,2,0,L|233:150,3,40,10|0|0|0,0:2|0:0|0:0|0:0,0:0:0:0:
112,127,20003,5,10,0:1:0:0:
113,166,20086,1,0,0:0:0:0:
115,206,20169,1,0,0:0:0:0:
117,246,20252,1,0,0:0:0:0:
119,286,20336,2,0,L|173:291,3,40,10|0|0|2,0:2|0:0|0:0|0:2,0:0:0:0:
39,317,20670,2,0,L|0:313,3,40,8|0|0|0,0:1|0:0|0:0|0:0,0:0:0:0:
110,368,21003,2,0,L|149:371,3,40,10|0|0|0,0:2|0:0|0:0|0:0,0:0:0:0:
184,289,21336,5,10,0:1:0:0:
216,266,21419,1,0,0:0:0:0:
256,264,21502,1,0,0:0:0:0:
291,282,21585,1,0,0:0:0:0:
312,315,21670,2,0,L|310:378,3,40,10|0|0|2,0:2|0:0|0:0|0:2,0:0:0:0:
390,300,22003,2,0,L|388:363,3,40,8|0|0|0,0:1|0:0|0:0|0:0,0:0:0:0:
468,285,22336,2,0,L|466:348,3,40,10|0|0|0,0:2|0:0|0:0|0:0,0:0:0:0:
512,181,22670,5,10,0:1:0:0:
475,166,22753,1,0,0:0:0:0:
435,167,22836,1,0,0:0:0:0:
399,184,22919,1,0,0:0:0:0:
373,213,23003,1,10,0:2:0:0:
347,242,23085,1,0,0:0:0:0:
311,259,23170,1,0,0:0:0:0:
271,260,23253,1,2,0:2:0:0:
234,246,23336,2,0,L|232:177,3,40,8|0|0|0,0:1|0:0|0:0|0:0,0:0:0:0:
157,229,23670,2,0,L|155:160,3,40,10|0|0|0,0:2|0:0|0:0|0:0,0:0:0:0:
73,117,24003,5,10,0:1:0:0:
98,86,24086,1,0,0:0:0:0:
134,70,24169,1,0,0:0:0:0:
174,71,24252,1,0,0:0:0:0:
209,89,24336,2,0,L|210:128,3,40,10|0|0|2,0:2|0:0|0:0|0:2,0:0:0:0:
289,117,24670,2,0,L|287:77,3,40,8|0|0|0,0:1|0:0|0:0|0:0,0:0:0:0:
365,65,25003,2,0,L|367:105,3,40,10|0|0|0,0:2|0:0|0:0|0:0,0:0:0:0:
445,29,25336,5,10,0:1:0:0:
464,63,25420,1,8,0:1:0:0:
471,103,25503,1,8,0:1:0:0:
465,142,25586,1,8,0:1:0:0:
447,177,25670,1,10,0:1:0:0:
428,212,25753,1,8,0:1:0:0:
423,251,25836,1,8,0:1:0:0:
430,291,25919,1,8,0:1:0:0:
455,317,26003,5,10,0:1:0:0:
465,278,26086,1,8,0:1:0:0:
457,239,26170,1,8,0:1:0:0:
428,212,26253,1,8,0:1:0:0:
389,203,26336,1,10,0:1:0:0:
353,215,26420,1,8,0:1:0:0:
327,246,26503,1,8,0:1:0:0:
320,284,26586,1,8,0:1:0:0:
332,322,26670,6,0,L|390:325,3,40,10|8|8|8,0:1|0:1|0:1|0:1,0:0:0:0:
242,285,27003,2,0,L|184:288,3,40,10|8|8|8,0:1|0:1|0:1|0:1,0:0:0:0:
327,246,27336,2,0,L|385:249,3,40,10|8|8|8,0:1|0:1|0:1|0:1,0:0:0:0:
237,209,27670,2,0,L|179:212,3,40,10|8|8|8,0:1|0:1|0:1|0:1,0:0:0:0:
304,67,28003,6,0,L|307:166,1,100,14|0,3:1|0:0,0:0:0:0:
215,86,28336,1,8,0:0:0:0:
385,28,28503,1,2,3:2:0:0:
385,51,28586,1,0,3:2:0:0:
386,76,28670,2,0,L|389:175,1,100,8|0,3:1|0:0,0:0:0:0:
391,310,29003,1,10,0:0:0:0:
470,224,29170,1,0,0:0:0:0:
291,248,29336,6,0,L|287:347,1,100,10|0,3:1|0:0,0:0:0:0:
397,298,29670,1,8,0:0:0:0:
201,222,29836,1,2,3:2:0:0:
199,245,29919,1,0,3:2:0:0:
198,270,30002,1,8,3:1:0:0:
197,295,30085,1,0,3:2:0:0:
197,320,30169,1,2,3:2:0:0:
118,217,30336,1,8,0:0:0:0:
245,146,30503,1,2,3:2:0:0:
269,147,30586,1,0,3:2:0:0:
294,148,30670,6,0,L|290:247,1,100,10|0,3:1|0:0,0:0:0:0:
155,142,31003,1,8,0:0:0:0:
283,61,31170,1,2,3:2:0:0:
307,62,31253,1,0,3:2:0:0:
332,63,31336,1,8,3:1:0:0:
201,222,31503,1,0,0:0:0:0:
166,47,31670,1,10,0:0:0:0:
294,148,31836,1,0,0:0:0:0:
51,161,32003,6,0,L|46:50,1,100,10|0,3:1|0:0,0:0:0:0:
201,222,32336,2,0,L|206:111,1,100,10|0,0:0|3:2,0:0:0:0:
37,272,32670,6,0,L|32:161,1,100,10|0,3:1|3:2,0:0:0:0:
209,330,33003,2,0,L|214:219,1,100,10|0,0:0|3:2,0:0:0:0:
0,347,33336,6,0,P|59:356|107:324,1,100,10|0,3:1|0:0,0:0:0:0:
151,265,33670,1,8,0:0:0:0:
44,227,33836,1,2,3:2:0:0:
44,246,33919,1,0,3:2:0:0:
45,266,34003,1,8,3:1:0:0:
199,195,34170,1,0,0:0:0:0:
96,135,34336,2,0,L|-6:137,1,100,10|0,0:0|0:0,0:0:0:0:
165,49,34670,6,0,L|268:51,1,100,10|0,3:1|0:0,0:0:0:0:
328,124,35003,1,8,0:0:0:0:
221,228,35170,1,2,3:2:0:0:
213,201,35253,1,0,3:2:0:0:
212,178,35336,1,8,3:1:0:0:
217,153,35420,1,0,3:2:0:0:
224,129,35503,1,2,3:2:0:0:
314,222,35670,1,8,0:0:0:0:
217,321,35836,1,2,3:2:0:0:
190,319,35919,1,0,3:2:0:0:
165,319,36003,6,0,L|31:316,1,100,10|0,3:1|0:0,0:0:0:0:
221,228,36336,1,8,0:0:0:0:
316,336,36503,1,2,3:2:0:0:
314,359,36586,1,0,3:2:0:0:
313,384,36669,1,8,3:1:0:0:
217,321,36836,1,0,0:0:0:0:
388,250,37003,1,10,0:0:0:0:
288,189,37170,5,2,0:0:0:0:
407,346,37336,1,10,3:1:0:0:
449,148,37503,1,0,0:0:0:0:
306,284,37670,2,0,L|312:383,1,100,10|0,0:0|3:2,0:0:0:0:
506,234,38003,2,0,L|498:333,1,100,10|0,3:1|3:2,0:0:0:0:
282,159,38336,2,0,L|288:258,1,100,10|0,0:0|3:2,0:0:0:0:
325,78,38670,6,0,P|263:68|209:98,1,100,10|0,3:1|0:0,0:0:0:0:
158,183,39003,1,8,0:0:0:0:
285,208,39170,1,2,3:2:0:0:
283,183,39253,1,0,3:2:0:0:
282,159,39336,1,8,3:1:0:0:
98,107,39503,1,0,0:0:0:0:
202,259,39670,1,10,0:0:0:0:
229,81,39836,1,0,0:0:0:0:
85,231,40003,6,0,L|89:348,1,100,10|0,3:1|0:0,0:0:0:0:
157,180,40336,1,8,0:0:0:0:
0,203,40503,1,2,3:2:0:0:
0,227,40586,1,0,3:2:0:0:
1,252,40669,1,8,3:1:0:0:
2,277,40753,1,0,3:2:0:0:
3,302,40836,1,2,3:2:0:0:
171,174,41003,1,10,0:0:0:0:
19,50,41170,1,0,3:2:0:0:
19,74,41253,1,0,3:2:0:0:
20,99,41336,6,0,L|121:97,1,100,10|0,3:1|0:0,0:0:0:0:
284,92,41670,1,8,0:0:0:0:
148,15,41836,1,2,3:2:0:0:
123,16,41919,1,0,3:2:0:0:
99,16,42002,1,8,3:1:0:0:
192,168,42170,1,0,0:0:0:0:
242,8,42336,1,10,0:0:0:0:
119,97,42503,1,0,0:0:0:0:
315,180,42670,6,0,L|440:172,1,100,10|0,3:1|0:0,0:0:0:0:
256,24,43003,2,0,L|355:30,1,100,10|0,0:0|3:2,0:0:0:0:
205,201,43336,6,0,L|330:193,1,100,10|0,3:1|3:2,0:0:0:0:
143,2,43669,2,0,L|242:8,1,100,10|0,0:0|3:2,0:0:0:0:
49,151,44003,6,0,P|43:90|71:40,1,100,10|0,3:1|0:0,0:0:0:0:
162,114,44336,1,8,0:0:0:0:
56,244,44503,1,2,3:2:0:0:
31,241,44586,1,0,3:2:0:0:
6,239,44669,1,8,3:1:0:0:
135,190,44836,1,0,0:0:0:0:
77,342,45003,1,10,0:0:0:0:
49,151,45170,1,0,0:0:0:0:
244,272,45336,6,0,L|133:277,1,100,10|0,3:1|0:0,0:0:0:0:
294,196,45670,1,8,0:0:0:0:
278,356,45836,1,2,3:2:0:0:
253,357,45919,1,0,3:2:0:0:
228,358,46002,1,8,3:1:0:0:
203,359,46086,1,0,3:2:0:0:
178,360,46169,1,2,3:2:0:0:
346,266,46336,1,8,0:0:0:0:
208,180,46503,1,2,3:2:0:0:
183,181,46586,1,0,3:2:0:0:
158,182,46670,6,0,P|137:249|154:296,1,100,10|0,3:1|0:0,0:0:0:0:
293,187,47003,1,8,0:0:0:0:
181,105,47170,1,2,3:2:0:0:
156,106,47253,1,0,3:2:0:0:
131,107,47336,1,8,3:1:0:0:
223,262,47503,1,0,0:0:0:0:
272,85,47670,1,10,0:0:0:0:
121,215,47836,5,2,0:0:0:0:
293,187,48003,1,10,3:1:0:0:
188,80,48170,1,0,0:0:0:0:
314,278,48336,2,0,L|323:165,1,100,10|0,3:2|0:0,0:0:0:0:
128,314,48670,2,0,L|119:201,1,100,10|0,3:1|3:2,0:0:0:0:
318,384,49003,2,0,L|327:271,1,100,10|0,0:0|0:0,0:0:0:0:
176,107,49336,5,6,1:2:0:0:
229,302,49503,1,2,0:0:0:0:
303,113,49670,1,2,0:0:0:0:
229,318,49836,1,2,1:2:0:0:
176,95,50170,5,2,0:0:0:0:
228,334,50336,1,2,1:2:0:0:
107,187,50670,2,0,B|120:231|168:248|217:236|235:193|235:193|249:237|296:254|345:242|364:200,1,330.000012588501,6|0,1:2|1:0,0:0:0:0:
352,190,51669,1,0,1:0:0:0:
112,108,51836,1,0,1:0:0:0:
83,107,51920,1,0,1:0:0:0:
53,106,52003,6,0,L|7:105,3,40,14|0|0|0,3:1|0:0|0:0|0:0,0:0:0:0:
107,187,52336,2,0,L|153:188,3,40,10|0|0|0,0:0|0:0|3:2|3:2,0:0:0:0:
29,210,52669,1,10,3:1:0:0:
7,243,52752,1,0,0:0:0:0:
0,282,52835,1,0,0:0:0:0:
5,321,52919,1,0,0:0:0:0:
25,355,53003,2,0,L|74:359,3,40,10|0|2|0,0:0|0:0|0:0|0:0,0:0:0:0:
98,283,53335,1,10,3:1:0:0:
285,387,53503,5,0,0:0:0:0:
286,346,53586,1,0,0:0:0:0:
288,306,53670,1,10,0:0:0:0:
290,266,53753,1,0,0:0:0:0:
292,226,53836,2,0,L|295:154,1,40,0|0,3:2|3:2,0:0:0:0:
299,18,54003,2,0,L|297:58,1,40,10|0,3:1|3:2,0:0:0:0:
232,120,54170,2,0,L|192:118,1,40,0|0,3:2|0:0,0:0:0:0:
361,122,54336,2,0,L|400:125,1,40,10|0,0:0|0:0,0:0:0:0:
476,46,54502,5,2,3:2:0:0:
500,77,54585,1,0,3:2:0:0:
512,114,54670,1,10,3:1:0:0:
509,154,54752,1,0,0:0:0:0:
494,190,54836,2,0,L|453:188,1,40,0|0,0:0|0:0,0:0:0:0:
367,213,55003,2,0,L|463:215,1,80,10|0,0:0|3:2,0:0:0:0:
253,376,55336,5,10,3:1:0:0:
254,335,55420,1,0,0:0:0:0:
256,295,55503,1,0,0:0:0:0:
257,255,55586,1,0,0:0:0:0:
259,215,55670,1,10,0:0:0:0:
103,37,55836,2,0,B|69:34|69:34|42:41,2,60.0000022888184,2|0|10,0:0|0:0|3:1,0:0:0:0:
221,111,56169,5,0,0:0:0:0:
180,110,56253,1,0,0:0:0:0:
144,125,56336,1,10,0:0:0:0:
115,153,56420,1,0,0:0:0:0:
99,190,56503,1,0,3:2:0:0:
100,229,56586,1,0,3:2:0:0:
114,266,56670,1,10,3:1:0:0:
143,294,56753,1,0,3:2:0:0:
179,310,56836,1,0,3:2:0:0:
219,310,56920,1,0,0:0:0:0:
256,295,57003,2,0,L|295:293,3,40,10|0|2|0,0:0|0:0|3:2|3:2,0:0:0:0:
306,198,57335,5,10,3:1:0:0:
343,185,57420,1,0,0:0:0:0:
383,190,57503,1,0,0:0:0:0:
417,211,57585,1,0,0:0:0:0:
439,244,57670,1,10,0:0:0:0:
445,283,57753,1,0,0:0:0:0:
435,321,57836,5,0,3:2:0:0:
411,320,57920,1,0,3:2:0:0:
387,318,58003,1,10,3:1:0:0:
199,198,58170,1,0,0:0:0:0:
196,158,58253,1,0,0:0:0:0:
193,118,58336,2,0,P|238:102|311:129,1,120.000004577637,10|2,0:0|0:0,0:0:0:0:
120,274,58670,5,10,3:1:0:0:
117,234,58753,1,0,0:0:0:0:
115,194,58836,1,0,0:0:0:0:
113,154,58920,1,0,0:0:0:0:
111,114,59003,1,10,0:0:0:0:
356,54,59170,6,0,L|396:56,1,40,0|0,3:2|3:2,0:0:0:0:
245,48,59336,2,0,L|206:47,1,40,10|0,3:1|3:2,0:0:0:0:
304,123,59503,1,0,3:2:0:0:
316,160,59586,1,0,0:0:0:0:
312,200,59670,1,10,0:0:0:0:
217,364,59836,6,0,L|256:362,1,40,2|0,3:2|3:2,0:0:0:0:
323,303,60003,2,0,L|362:304,1,40,10|0,3:1|0:0,0:0:0:0:
458,357,60170,1,0,0:0:0:0:
470,320,60253,1,0,0:0:0:0:
466,280,60337,1,10,0:0:0:0:
76,290,60503,5,0,3:2:0:0:
72,330,60587,1,0,3:2:0:0:
84,367,60670,2,0,L|149:362,1,40,10|0,3:1|0:0,0:0:0:0:
202,291,60836,2,0,L|162:294,1,40,0|0,0:0|0:0,0:0:0:0:
256,361,61003,2,0,B|288:320|288:320|270:170,1,180.000006866455,10|0,0:0|0:0,0:0:0:0:
36,99,61336,6,0,B|101:102|101:102|143:126|143:126|208:129,1,180.000006866455,14|0,3:1|0:0,0:0:0:0:
381,38,61670,2,0,P|305:56|310:105,1,120.000004577637,2|2,0:0|0:0,0:0:0:0:
411,281,61920,2,0,B|385:246|397:204|397:204|409:163|384:128,1,160,0|2,0:0|0:0,0:0:0:0:
311,314,62170,1,0,1:0:0:0:
323,334,62253,1,0,1:0:0:0:
337,355,62336,2,0,L|394:358,3,40,8|0|2|0,0:0|0:0|1:0|1:0,0:0:0:0:
210,342,62670,5,14,3:1:0:0:
207,302,62753,1,0,0:0:0:0:
205,262,62836,1,0,0:0:0:0:
202,222,62920,1,0,0:0:0:0:
200,182,63003,5,10,0:0:0:0:
225,152,63086,1,0,0:0:0:0:
264,143,63170,1,0,3:2:0:0:
300,158,63253,1,0,3:2:0:0:
320,192,63336,2,0,P|319:226|308:252,1,40,10|0,3:1|0:0,0:0:0:0:
224,266,63503,1,0,0:0:0:0:
207,302,63586,1,0,0:0:0:0:
211,341,63670,2,0,L|289:336,1,80,10|2,0:0|0:0,0:0:0:0:
459,294,64003,6,0,L|461:254,3,40,10|0|0|0,3:1|0:0|0:0|0:0,0:0:0:0:
433,320,64336,2,0,L|441:180,1,100,10|0,0:0|3:2,0:0:0:0:
447,93,64586,1,0,3:2:0:0:
421,79,64670,2,0,L|382:81,3,40,10|0|0|0,3:1|3:2|3:2|0:0,0:0:0:0:
340,7,65003,2,0,L|379:5,3,40,10|0|2|0,0:0|0:0|3:2|3:2,0:0:0:0:
290,68,65336,5,10,3:1:0:0:
264,98,65419,1,0,0:0:0:0:
254,136,65503,1,0,0:0:0:0:
261,175,65586,1,0,0:0:0:0:
284,208,65670,1,10,0:0:0:0:
307,241,65753,1,0,0:0:0:0:
314,280,65837,1,0,3:2:0:0:
304,318,65920,1,0,3:2:0:0:
279,349,66003,2,0,L|214:347,3,40,10|0|0|0,3:1|0:0|0:0|0:0,0:0:0:0:
179,285,66336,2,0,L|114:287,3,40,10|0|2|0,0:0|0:0|0:0|0:0,0:0:0:0:
67,363,66669,5,10,3:1:0:0:
45,330,66752,1,0,0:0:0:0:
38,291,66835,1,0,0:0:0:0:
45,252,66920,1,0,0:0:0:0:
66,218,67003,2,0,P|92:162|72:100,1,120.000004577637,10|0,0:0|3:2,0:0:0:0:
56,104,67253,1,0,3:2:0:0:
31,102,67336,1,10,3:1:0:0:
207,28,67503,1,0,3:2:0:0:
209,68,67586,1,0,0:0:0:0:
211,108,67670,2,0,P|258:126|311:112,1,100,10|2,0:0|3:2,0:0:0:0:
310,88,67919,5,0,3:2:0:0:
341,64,68003,1,10,3:1:0:0:
381,59,68086,1,0,0:0:0:0:
417,75,68170,1,0,0:0:0:0:
441,106,68253,1,0,0:0:0:0:
447,145,68336,1,10,0:0:0:0:
432,182,68420,1,0,0:0:0:0:
401,207,68502,2,0,L|338:205,1,50,0|0,3:2|3:2,0:0:0:0:
303,286,68670,2,0,L|366:284,3,50,10|0|0|0,3:1|0:0|0:0|0:0,0:0:0:0:
251,202,69003,2,0,L|188:200,3,50,10|0|2|0,0:0|0:0|0:0|0:0,0:0:0:0:
144,265,69336,5,10,3:1:0:0:
120,232,69420,1,0,0:0:0:0:
112,194,69503,1,0,0:0:0:0:
122,155,69586,1,0,0:0:0:0:
147,124,69670,2,0,L|186:125,3,40,10|0|0|0,0:0|0:0|3:2|3:2,0:0:0:0:
71,76,70003,2,0,L|31:77,3,40,10|0|0|0,3:1|3:2|3:2|0:0,0:0:0:0:
176,38,70336,2,0,L|215:39,3,40,10|0|2|0,0:0|0:0|3:2|3:2,0:0:0:0:
297,9,70670,5,10,3:1:0:0:
342,24,70753,1,8,3:1:0:0:
368,65,70836,1,8,3:1:0:0:
361,112,70920,1,8,3:1:0:0:
324,144,71003,1,10,3:1:0:0:
275,145,71087,1,8,3:1:0:0:
238,114,71170,1,8,3:1:0:0:
190,113,71253,1,8,3:1:0:0:
153,144,71336,5,10,3:1:0:0:
143,191,71420,1,8,3:1:0:0:
167,233,71503,1,8,3:1:0:0:
210,250,71586,1,8,3:1:0:0:
256,234,71669,1,10,3:1:0:0:
280,192,71753,1,8,3:1:0:0:
326,175,71836,1,10,3:1:0:0:
372,191,71920,1,8,3:1:0:0:
395,232,72003,6,0,L|393:311,1,50,10|8,3:1|3:1,0:0:0:0:
282,384,72170,2,0,L|283:334,1,50,8|8,3:1|3:1,0:0:0:0:
414,364,72336,2,0,L|335:362,1,50,10|8,3:1|3:1,0:0:0:0:
262,251,72503,2,0,L|312:252,1,50,8|8,3:1|3:1,0:0:0:0:
195,358,72670,5,10,3:1:0:0:
157,324,72753,1,8,3:1:0:0:
140,278,72836,1,10,3:1:0:0:
146,229,72920,1,8,3:1:0:0:
176,189,73003,1,10,3:1:0:0:
204,149,73086,1,8,3:1:0:0:
212,100,73170,1,10,3:1:0:0:
195,54,73253,1,8,3:1:0:0:
158,22,73336,6,0,P|79:24|32:97,1,160,6|8,1:2|0:0,0:0:0:0:
141,177,73836,2,0,P|130:113|110:90,1,80,2|2,0:0|1:2,0:0:0:0:
52,225,74170,1,0,0:0:0:0:
208,248,74336,1,10,0:0:0:0:
119,302,74503,1,0,0:0:0:0:
233,162,74670,6,0,B|298:167|298:167|339:193|339:193|404:198,1,180.000006866455,2|0,1:2|0:0,0:0:0:0:
412,42,75336,2,0,P|384:69|369:118,1,80,0|2,1:2|0:0,0:0:0:0:
493,246,75670,1,10,0:0:0:0:
464,121,75836,1,0,0:0:0:0:
379,277,76003,6,0,B|313:271|313:271|272:245|272:245|207:240,1,180.000006866455,2|2,1:2|0:0,0:0:0:0:
17,241,76670,1,2,1:2:0:0:
135,197,76836,1,0,0:0:0:0:
13,256,77003,1,10,0:0:0:0:
179,313,77170,1,0,0:0:0:0:
28,150,77336,6,0,B|64:203|41:264|41:264|20:324|56:379,1,240.000009155274,2|0,1:2|1:0,0:0:0:0:
369,92,78335,6,0,P|404:66|453:60,1,90.0000034332277,10|0,0:0|0:0,0:0:0:0:
480,84,78670,2,0,B|413:57|353:94|387:123|327:160|261:134,1,240.000009155274,2|2,1:2|0:0,0:0:0:0:
112,31,79336,1,2,1:2:0:0:
300,56,79503,1,0,0:0:0:0:
142,144,79670,1,10,0:0:0:0:
100,24,79836,1,0,0:0:0:0:
262,135,80003,5,2,1:2:0:0:
46,107,80170,1,0,0:0:0:0:
201,68,80336,1,10,0:0:0:0:
139,164,80503,5,0,0:0:0:0:
77,22,80670,1,2,1:2:0:0:
219,228,80836,1,0,0:0:0:0:
44,255,81003,2,0,B|17:211|17:211|33:114,1,150,10|0,0:0|0:0,0:0:0:0:
45,106,81335,5,2,1:2:0:0:
215,131,81502,1,0,0:0:0:0:
215,131,81669,1,10,0:0:0:0:
121,186,81835,1,0,0:0:0:0:
33,89,82002,5,2,1:2:0:0:
251,120,82169,1,0,0:0:0:0:
251,120,82335,1,10,0:0:0:0:
118,210,82502,1,0,0:0:0:0:
199,45,82669,6,0,B|178:95|204:141|204:141|232:187|211:236,1,200,2|8,1:2|0:0,0:0:0:0:
9,98,83169,1,2,0:0:0:0:
82,206,83335,1,2,1:2:0:0:
96,42,83502,1,0,0:0:0:0:
86,218,83669,1,10,0:0:0:0:
199,45,83835,1,0,0:0:0:0:
90,233,84003,5,6,1:2:0:0:
165,181,84170,1,0,0:0:0:0:
143,160,84253,1,0,0:0:0:0:
117,146,84336,1,10,0:0:0:0:
87,141,84419,1,0,0:0:0:0:
58,146,84503,1,2,0:0:0:0:
31,160,84586,1,0,0:0:0:0:
10,181,84669,5,2,1:2:0:0:
86,312,84836,2,0,L|91:203,1,80,0|10,0:0|0:0,0:0:0:0:
25,377,85170,1,0,0:0:0:0:
164,351,85336,2,0,L|169:242,1,80,2|0,1:2|0:0,0:0:0:0:
172,149,85670,5,10,0:0:0:0:
203,124,85753,1,0,0:0:0:0:
242,118,85836,1,2,0:0:0:0:
279,130,85919,1,0,0:0:0:0:
307,159,86003,1,2,1:2:0:0:
334,188,86086,1,0,0:0:0:0:
372,200,86169,1,2,0:0:0:0:
411,194,86252,1,0,0:0:0:0:
442,170,86336,2,0,P|465:129|459:64,1,80,10|0,0:0|0:0,0:0:0:0:
407,4,86670,5,2,1:2:0:0:
334,188,86836,1,0,0:0:0:0:
304,157,86919,1,0,0:0:0:0:
291,120,87002,1,10,0:0:0:0:
294,80,87085,1,0,0:0:0:0:
310,46,87169,1,2,0:0:0:0:
383,110,87336,5,2,1:2:0:0:
267,228,87503,1,2,0:0:0:0:
227,226,87586,1,0,0:0:0:0:
187,224,87669,1,10,0:0:0:0:
147,222,87752,1,0,0:0:0:0:
107,221,87836,1,2,0:0:0:0:
64,114,88003,5,2,1:2:0:0:
137,44,88170,1,0,0:0:0:0:
157,78,88253,1,0,0:0:0:0:
163,118,88336,1,10,0:0:0:0:
153,156,88419,1,0,0:0:0:0:
130,188,88503,1,2,0:0:0:0:
107,221,88586,1,0,0:0:0:0:
97,258,88669,1,2,1:2:0:0:
103,298,88752,1,0,0:0:0:0:
123,332,88835,1,2,0:0:0:0:
265,287,89003,6,0,P|208:266|159:273,1,80,10|0,0:0|0:0,0:0:0:0:
288,384,89336,2,0,L|294:175,1,200,2|10,1:2|0:0,0:0:0:0:
199,20,89836,1,2,0:0:0:0:
197,54,89919,1,0,0:0:0:0:
196,89,90002,1,2,1:2:0:0:
189,266,90169,1,0,0:0:0:0:
294,82,90335,1,10,0:0:0:0:
141,167,90502,1,2,0:0:0:0:
352,233,90669,5,2,1:2:0:0:
298,68,90835,1,2,0:0:0:0:
276,307,91002,1,10,0:0:0:0:
376,135,91169,5,2,0:0:0:0:
233,186,91335,1,2,1:2:0:0:
360,244,91502,1,2,0:0:0:0:
454,91,91670,2,0,P|388:47|318:66,1,150,10|0,0:0|0:0,0:0:0:0:
319,80,92002,5,2,1:2:0:0:
454,191,92169,1,0,0:0:0:0:
454,191,92335,1,10,0:0:0:0:
365,269,92502,1,2,0:0:0:0:
295,49,92669,5,2,1:2:0:0:
470,193,92836,1,0,0:0:0:0:
470,193,93002,1,10,0:0:0:0:
355,294,93169,1,2,0:0:0:0:
277,163,93336,6,0,B|349:164|349:164|396:191|396:191|469:193,1,200,2|10,1:2|0:0,0:0:0:0:
271,252,93836,5,2,0:0:0:0:
246,251,93920,1,0,0:0:0:0:
221,250,94003,1,2,1:2:0:0:
163,174,94170,1,2,0:0:0:0:
207,87,94336,1,2,0:0:0:0:
148,11,94503,1,2,0:0:0:0:
22,86,94670,6,0,P|63:79|102:93,1,80,6|0,0:2|2:2,0:0:0:0:
89,233,95003,2,0,P|48:240|9:225,1,80,2|0,0:2|2:2,0:0:0:0:
228,138,95336,1,2,0:2:0:0:
147,298,95503,1,0,0:2:0:0:
57,158,95670,1,2,0:2:0:0:
238,242,95836,1,2,0:2:0:0:
249,247,96170,5,0,0:2:0:0:
38,149,96336,1,2,0:2:0:0:
143,312,96503,1,0,0:2:0:0:
199,99,96670,2,0,L|341:95,1,120,2|0,0:2|2:2,0:0:0:0:
296,84,97003,2,0,L|204:87,1,80,2|0,0:2|2:2,0:0:0:0:
184,205,97336,6,0,P|216:216|256:259,1,80,2|0,0:2|2:2,0:0:0:0:
338,215,97670,2,0,P|344:248|327:304,1,80,2|0,0:2|2:2,0:0:0:0:
243,347,98003,1,2,0:2:0:0:
272,150,98170,1,0,0:2:0:0:
350,377,98336,1,2,0:2:0:0:
269,136,98503,1,2,0:2:0:0:
266,120,98836,5,2,0:2:0:0:
476,150,99170,1,2,0:2:0:0:
403,221,99336,2,0,L|321:217,1,60.0000022888184,2|0,0:0|0:0,0:0:0:0:
197,109,99503,1,0,1:0:0:0:
226,107,99586,1,0,1:0:0:0:
256,106,99669,1,2,1:2:0:0:
373,98,99836,1,0,0:0:0:0:
123,163,100003,6,0,P|105:132|119:61,1,100,14|0,3:1|0:0,0:0:0:0:
242,202,100336,1,8,0:0:0:0:
125,272,100503,1,2,3:2:0:0:
95,270,100586,1,0,3:2:0:0:
65,268,100669,1,8,3:1:0:0:
231,301,100836,1,0,0:0:0:0:
135,354,101003,2,0,L|23:349,1,100,10|0,0:0|0:0,0:0:0:0:
321,274,101336,6,0,P|321:331|291:378,1,100,10|0,3:1|0:0,0:0:0:0:
220,292,101670,1,8,0:0:0:0:
412,235,101836,1,2,3:2:0:0:
412,259,101920,1,0,3:2:0:0:
411,284,102003,1,8,3:1:0:0:
410,309,102086,1,0,3:2:0:0:
409,334,102169,1,2,3:2:0:0:
334,169,102336,1,8,0:0:0:0:
494,210,102503,1,2,3:2:0:0:
494,234,102586,1,0,3:2:0:0:
493,259,102670,6,0,L|488:383,1,100,10|0,3:1|0:0,0:0:0:0:
418,139,103003,1,8,0:0:0:0:
329,255,103170,1,2,3:2:0:0:
307,267,103253,1,0,3:2:0:0:
283,274,103336,1,8,3:1:0:0:
145,265,103504,1,0,0:0:0:0:
183,68,103670,1,10,0:0:0:0:
275,182,103836,1,0,0:0:0:0:
36,120,104003,6,0,L|32:0,1,100,10|0,3:1|0:0,0:0:0:0:
179,167,104336,2,0,L|183:47,1,100,10|0,0:0|3:2,0:0:0:0:
20,229,104670,6,0,L|16:109,1,100,10|0,3:1|3:2,0:0:0:0:
188,274,105003,2,0,L|192:154,1,100,10|0,0:0|3:2,0:0:0:0:
135,348,105336,6,0,P|180:366|229:357,1,100,10|0,3:1|0:0,0:0:0:0:
311,249,105670,1,8,0:0:0:0:
189,224,105836,1,2,3:2:0:0:
188,249,105919,1,0,3:2:0:0:
188,274,106002,1,8,3:1:0:0:
324,341,106170,1,0,0:0:0:0:
348,167,106336,2,0,P|301:156|255:176,1,100,10|0,0:0|0:0,0:0:0:0:
423,329,106670,6,0,L|428:199,1,100,10|0,3:1|0:0,0:0:0:0:
434,65,107003,1,8,0:0:0:0:
377,146,107170,1,2,3:2:0:0:
401,147,107254,1,0,3:2:0:0:
426,148,107337,1,8,3:1:0:0:
451,149,107420,1,0,3:2:0:0:
476,150,107503,1,2,3:2:0:0:
329,64,107670,1,8,0:0:0:0:
255,176,107836,1,2,3:2:0:0:
256,201,107919,1,0,3:2:0:0:
257,225,108003,6,0,L|366:230,1,100,10|0,3:1|0:0,0:0:0:0:
334,53,108336,1,8,0:0:0:0:
150,147,108503,1,2,3:2:0:0:
149,171,108586,1,0,3:2:0:0:
149,196,108669,1,8,3:1:0:0:
219,306,108836,1,0,0:0:0:0:
237,88,109003,1,10,0:0:0:0:
31,123,109170,5,2,0:0:0:0:
255,176,109336,1,10,3:1:0:0:
109,52,109503,1,0,0:0:0:0:
164,246,109670,2,0,L|288:235,1,100,10|0,0:0|3:2,0:0:0:0:
127,49,110003,2,0,L|226:57,1,100,10|0,3:1|3:2,0:0:0:0:
54,274,110336,2,0,L|178:263,1,100,10|0,0:0|3:2,0:0:0:0:
357,218,110670,6,0,P|302:216|251:249,1,100,10|0,3:1|0:0,0:0:0:0:
408,328,111003,1,8,0:0:0:0:
450,232,111170,1,2,3:2:0:0:
447,207,111253,1,0,3:2:0:0:
444,182,111336,1,8,3:1:0:0:
325,297,111503,1,0,0:0:0:0:
495,330,111670,2,0,L|486:198,1,100,10|0,0:0|0:0,0:0:0:0:
486,71,112003,6,0,P|429:60|382:80,1,100,10|0,3:1|0:0,0:0:0:0:
440,153,112336,1,8,0:0:0:0:
306,33,112503,1,2,3:2:0:0:
307,57,112586,1,0,3:2:0:0:
308,82,112669,1,8,3:1:0:0:
309,107,112752,1,0,3:2:0:0:
310,132,112836,1,0,3:2:0:0:
320,255,113003,1,10,0:0:0:0:
225,133,113170,1,0,3:2:0:0:
223,108,113254,1,0,3:2:0:0:
222,83,113337,5,10,3:1:0:0:
378,189,113503,1,0,0:0:0:0:
222,220,113670,1,8,0:0:0:0:
309,107,113836,1,2,3:2:0:0:
333,105,113919,1,0,3:2:0:0:
358,104,114003,1,8,3:1:0:0:
507,93,114170,1,0,0:0:0:0:
459,251,114336,1,10,0:0:0:0:
426,41,114503,1,0,0:0:0:0:
349,254,114670,6,0,L|466:258,1,100,10|0,3:1|0:0,0:0:0:0:
258,107,115003,2,0,L|357:103,1,100,10|0,0:0|3:2,0:0:0:0:
238,266,115336,6,0,L|355:270,1,100,10|0,3:1|3:2,0:0:0:0:
149,124,115670,2,0,L|248:120,1,100,10|0,0:0|3:2,0:0:0:0:
68,173,116003,6,0,P|51:112|74:62,1,100,10|0,3:1|0:0,0:0:0:0:
160,222,116336,1,8,0:0:0:0:
79,288,116503,1,2,3:2:0:0:
54,286,116586,1,0,3:2:0:0:
29,285,116670,1,8,3:1:0:0:
174,217,116835,1,0,0:0:0:0:
130,384,117002,1,10,0:0:0:0:
68,173,117169,1,0,0:0:0:0:
269,301,117336,6,0,L|150:305,1,100,10|0,3:1|0:0,0:0:0:0:
278,175,117669,1,8,0:0:0:0:
365,282,117836,1,2,3:2:0:0:
363,306,117920,1,0,3:2:0:0:
362,331,118003,1,8,3:1:0:0:
361,356,118086,1,0,3:2:0:0:
360,381,118170,1,2,3:2:0:0:
269,165,118336,1,8,0:0:0:0:
449,245,118502,1,2,3:2:0:0:
447,269,118585,1,0,3:2:0:0:
446,294,118670,5,10,3:1:0:0:
256,153,118835,1,0,0:0:0:0:
457,109,119002,1,8,0:0:0:0:
365,282,119169,1,2,3:2:0:0:
366,257,119252,1,0,3:2:0:0:
368,233,119335,1,8,3:1:0:0:
385,40,119502,1,0,0:0:0:0:
453,207,119669,1,10,0:0:0:0:
261,57,119835,5,2,0:0:0:0:
457,109,120002,1,10,3:1:0:0:
231,162,120169,1,0,0:0:0:0:
474,102,120336,2,0,L|468:236,1,100,10|0,3:2|0:0,0:0:0:0:
213,171,120669,2,0,L|219:305,1,100,10|0,3:1|3:2,0:0:0:0:
487,222,121003,2,0,L|481:356,1,100,10|0,0:0|0:0,0:0:0:0:
308,116,121335,5,6,1:2:0:0:
343,321,121502,1,2,0:0:0:0:
464,92,121669,1,2,0:0:0:0:
339,334,121835,1,2,1:2:0:0:
378,23,122169,5,2,0:0:0:0:
433,277,122336,1,2,1:2:0:0:
256,0,122669,5,6,1:2:0:0:
256,192,122752,12,0,123669,0:0:0:0:
