osu file format v14

[General]
AudioFilename: audio.mp3
AudioLeadIn: 0
PreviewTime: 49253
Countdown: 0
SampleSet: Normal
StackLeniency: 0.4
Mode: 0
LetterboxInBreaks: 0
EpilepsyWarning: 1
WidescreenStoryboard: 1

[Editor]
Bookmarks: 6663,17329,22663,27996,49329,51996,61329,62663,70663,73329,83996,94663,99996,121329,122663
DistanceSpacing: 1
BeatDivisor: 4
GridSize: 32
TimelineZoom: 1.4

[Metadata]
Title:POTOMIRU PINERA
TitleUnicode:ポトミル ピニェラ
Artist:Fotzu
ArtistUnicode:Fotzu
Creator:TheShadowOfDark
Version:Normal
Source:東方Project
Tags:Chilean Chile おてんば恋娘 cirno chirumiru misamirú misamiru youtube touhou Beloved Tomboyish Girl hazu- wolf3211 tatan -_tatan_- チルミルチルノ Sebastián Sebastian Piñera videogame japanese spanish video game ytpmv 音MAD
BeatmapID:2159508
BeatmapSetID:1032450

[Difficulty]
HPDrainRate:3.5
CircleSize:3
OverallDifficulty:4.5
ApproachRate:5.5
SliderMultiplier:1
SliderTickRate:1

[Events]
//Background and Video events
Video,500,"yporelmarepoto.mp4"
0,0,"bgculiao.jpg",0,0
//Break Periods
2,8203,14803
//Storyboard Layer 0 (Background)
//Storyboard Layer 1 (Fail)
//Storyboard Layer 2 (Pass)
//Storyboard Layer 3 (Foreground)
//Storyboard Layer 4 (Overlay)
//Storyboard Sound Samples

[TimingPoints]
1337,333.333333333333,4,1,1,50,1,0
1337,-100,4,1,1,50,0,0
6670,-100,4,1,1,50,0,0
8003,-100,4,3,1,50,0,0
16003,-111.111111111111,4,2,1,50,0,0
17336,-100,4,3,1,70,0,1
28003,-100,4,2,1,70,0,0
50753,-100,4,2,1,5,0,0
51586,-100,4,2,1,50,0,0
52003,-90.9090909090909,4,2,1,70,0,1
61336,-90.9090909090909,4,2,1,70,0,0
62670,-90.9090909090909,4,2,1,70,0,1
73336,-111.111111111111,4,2,1,70,0,0
78586,-111.111111111111,4,2,1,5,0,0
78670,-111.111111111111,4,2,1,70,0,0
84003,-100,4,2,1,70,0,0
89253,-100,4,2,1,5,0,0
89336,-100,4,2,1,70,0,0
94670,-100,4,1,1,50,0,0
99336,-100,4,2,1,55,0,0
100003,-100,4,2,1,70,0,0
122920,-100,4,2,1,5,0,0

[Colours]
Combo1 : 183,183,183
Combo2 : 66,46,245
Combo3 : 0,168,249
Combo4 : 134,134,255

[HitObjects]
63,11,1337,6,0,P|95:58|91:113,1,100,2|2,0:2|0:2,0:0:0:0:
61,193,2003,2,0,L|11:189,2,50,2|0|2,0:2|0:2|0:2,0:0:0:0:
107,210,2503,2,0,L|226:207,1,100,2|0,0:2|0:2,0:0:0:0:
255,194,3003,2,0,L|314:192,1,50,2|0,0:2|0:2,0:0:0:0:
354,187,3336,1,2,0:2:0:0:
448,221,3670,1,2,0:2:0:0:
493,310,4003,6,0,P|437:320|383:296,1,100,2|2,0:2|0:2,0:0:0:0:
306,263,4670,2,0,L|304:321,2,50,2|0|2,0:2|0:2|0:2,0:0:0:0:
304,213,5170,2,0,L|299:94,1,100,2|2,0:2|0:2,0:0:0:0:
233,38,5836,1,2,0:2:0:0:
233,38,6003,2,0,L|123:33,2,100,2|2|6,0:2|0:2|0:2,0:0:0:0:
256,192,6836,12,0,8003,0:0:0:0:
127,81,16003,6,0,P|59:98|8:161,2,134.999995880127,6|2|10,0:0|3:2|3:1,0:0:0:0:
247,85,17336,6,0,P|291:97|309:96,1,50,14|0,0:1|0:0,0:0:0:0:
355,86,17670,2,0,L|360:-7,2,75,10|2|0,0:2|0:2|0:0,0:0:0:0:
356,145,18336,2,0,P|357:177|370:212,1,50,10|0,0:2|0:0,0:0:0:0:
383,250,18670,1,10,0:1:0:0:
320,352,19003,2,0,L|400:360,2,75,10|2|0,0:2|0:2|0:0,0:0:0:0:
262,333,19670,1,10,0:2:0:0:
142,340,20003,6,0,L|90:337,1,50,10|0,0:1|0:0,0:0:0:0:
38,310,20336,2,0,P|38:352|28:384,2,75,10|2|0,0:2|0:2|0:0,0:0:0:0:
37,249,21003,2,0,L|39:183,1,50,10|0,0:2|0:0,0:0:0:0:
49,139,21336,1,10,0:1:0:0:
127,45,21670,2,0,P|85:22|37:19,2,75,10|2|0,0:2|0:2|0:0,0:0:0:0:
170,86,22336,1,10,0:2:0:0:
273,147,22670,6,0,L|334:145,1,50,10|0,0:1|0:0,0:0:0:0:
382,151,23003,2,0,L|443:149,1,50,10|0,0:2|0:0,0:0:0:0:
489,165,23336,2,0,L|503:104,2,50,8|0|10,0:1|0:0|0:2,0:0:0:0:
439,274,24003,2,0,P|408:278|378:271,1,50,10|0,0:1|0:0,0:0:0:0:
332,257,24336,2,0,P|300:228|290:200,1,50,10|0,0:2|0:0,0:0:0:0:
275,165,24670,2,0,L|277:104,2,50,8|0|10,0:1|0:0|0:2,0:0:0:0:
197,256,25336,6,0,P|191:286|195:317,1,50,10|8,0:1|0:1,0:0:0:0:
219,360,25670,2,0,L|101:352,1,100,10|10,0:1|0:1,0:0:0:0:
60,340,26170,1,8,0:1:0:0:
19,296,26336,1,10,0:1:0:0:
34,176,26670,2,0,L|101:172,1,50,10|8,0:1|0:1,0:0:0:0:
140,192,27003,2,0,L|256:185,1,100,10|10,0:1|0:1,0:0:0:0:
298,171,27503,1,8,0:1:0:0:
357,178,27670,2,0,L|412:176,1,50,10|8,0:1|0:1,0:0:0:0:
462,154,28003,6,0,P|452:214|471:265,2,100,14|8|8,3:1|0:0|3:1,0:0:0:0:
498,60,29003,1,10,0:0:0:0:
400,40,29336,1,10,3:1:0:0:
400,40,29503,2,0,L|330:39,1,50,0|8,0:0|0:0,0:0:0:0:
302,56,29836,2,0,L|193:54,1,100,2|2,3:2|3:2,0:0:0:0:
154,70,30336,1,8,0:0:0:0:
54,62,30670,5,10,3:1:0:0:
54,62,30836,2,0,L|58:123,1,50,0|8,0:0|0:0,0:0:0:0:
63,160,31170,2,0,L|58:264,1,100,2|0,3:2|0:0,0:0:0:0:
56,311,31670,1,10,0:0:0:0:
139,254,32003,1,10,3:1:0:0:
207,326,32336,1,10,0:0:0:0:
290,269,32670,1,10,3:1:0:0:
358,341,33003,1,10,0:0:0:0:
441,284,33336,6,0,L|439:173,2,100,10|8|8,3:1|0:0|3:1,0:0:0:0:
358,341,34336,1,10,0:0:0:0:
285,271,34670,1,10,3:1:0:0:
285,271,34836,2,0,L|220:265,1,50,0|8,0:0|0:0,0:0:0:0:
186,252,35170,2,0,P|175:194|189:142,1,100,2|2,3:2|3:2,0:0:0:0:
209,111,35670,1,8,0:0:0:0:
296,63,36003,5,10,3:1:0:0:
296,63,36170,2,0,P|344:59|365:64,1,50,0|8,0:0|0:0,0:0:0:0:
393,73,36503,2,0,L|387:177,1,100,2|0,3:2|0:0,0:0:0:0:
385,223,37003,2,0,L|385:283,1,50,10|2,0:0|0:0,0:0:0:0:
394,322,37336,1,10,3:1:0:0:
304,366,37670,1,10,0:0:0:0:
204,359,38003,1,10,3:1:0:0:
121,303,38337,1,10,0:0:0:0:
77,213,38670,6,0,P|62:159|72:106,2,100,10|8|8,3:1|0:0|3:1,0:0:0:0:
121,303,39670,1,10,0:0:0:0:
203,247,40003,1,10,3:1:0:0:
203,247,40170,2,0,L|274:245,1,50,0|8,0:0|0:0,0:0:0:0:
302,235,40503,2,0,L|408:232,1,100,2|2,3:2|3:2,0:0:0:0:
451,223,41003,1,10,0:0:0:0:
456,123,41336,5,10,3:1:0:0:
456,123,41503,2,0,L|387:120,1,50,0|8,0:0|0:0,0:0:0:0:
357,107,41836,2,0,L|257:107,1,100,2|0,3:2|0:0,0:0:0:0:
208,115,42336,1,10,0:0:0:0:
149,35,42670,1,10,3:1:0:0:
54,65,43003,1,10,0:0:0:0:
54,165,43336,1,10,3:1:0:0:
149,196,43670,1,10,0:0:0:0:
208,115,44003,6,0,L|204:2,2,100,10|8|8,3:1|0:0|3:1,0:0:0:0:
248,206,45003,1,10,0:0:0:0:
339,166,45336,1,10,3:1:0:0:
339,166,45503,2,0,P|372:159|399:161,1,50,0|8,0:0|0:0,0:0:0:0:
433,180,45836,2,0,L|427:286,1,100,2|2,3:2|3:2,0:0:0:0:
424,329,46336,1,8,0:0:0:0:
324,340,46670,5,10,3:1:0:0:
324,340,46836,2,0,L|267:336,1,50,0|8,0:0|0:0,0:0:0:0:
224,329,47170,2,0,L|112:330,1,100,2|0,3:2|0:0,0:0:0:0:
74,333,47670,2,0,P|80:299|77:268,1,50,10|2,0:0|0:0,0:0:0:0:
72,233,48003,1,10,3:1:0:0:
39,138,48336,1,10,3:2:0:0:
92,53,48670,1,10,3:1:0:0:
190,34,49003,1,10,0:0:0:0:
280,77,49336,6,0,P|334:93|432:57,2,150,6|2|2,1:2|1:2|1:2,0:0:0:0:
190,34,50670,2,0,P|66:44|77:189,1,300,6|0,1:2|1:0,0:0:0:0:
170,246,52003,6,0,L|251:246,1,55.0000016784668,14|0,3:1|0:0,0:0:0:0:
284,254,52336,2,0,L|365:254,1,55.0000016784668,10|0,0:0|3:2,0:0:0:0:
399,262,52670,2,0,P|380:198|405:144,1,110.000003356934,10|10,3:1|0:0,0:0:0:0:
462,59,53336,2,0,L|340:55,1,110.000003356934,10|10,3:1|0:0,0:0:0:0:
291,52,53836,1,0,3:2:0:0:
231,41,54003,2,0,L|165:38,1,55.0000016784668,10|0,3:1|3:2,0:0:0:0:
115,35,54336,1,10,0:0:0:0:
27,119,54670,6,0,L|31:180,1,55.0000016784668,10|0,3:1|0:0,0:0:0:0:
41,233,55003,2,0,P|76:244|157:219,1,110.000003356934,10|10,0:0|3:1,0:0:0:0:
199,199,55503,1,0,0:0:0:0:
252,171,55670,2,0,P|308:153|373:169,1,110.000003356934,10|10,0:0|3:1,0:0:0:0:
474,130,56336,1,10,0:0:0:0:
474,130,56503,1,0,3:2:0:0:
474,130,56670,2,0,L|470:203,1,55.0000016784668,10|0,3:1|3:2,0:0:0:0:
476,245,57003,1,10,0:0:0:0:
473,365,57336,6,0,L|340:359,1,110.000003356934,10|10,3:1|0:0,0:0:0:0:
306,339,57836,1,0,3:2:0:0:
249,316,58003,2,0,L|133:313,1,110.000003356934,10|10,3:1|0:0,0:0:0:0:
17,309,58670,2,0,L|1:377,2,55.0000016784668,10|0|10,3:1|0:0|0:0,0:0:0:0:
33,251,59170,1,0,3:2:0:0:
50,193,59336,2,0,L|108:193,1,55.0000016784668,10|0,3:1|3:2,0:0:0:0:
164,207,59670,1,10,0:0:0:0:
283,222,60003,6,0,P|305:185|295:103,1,110.000003356934,10|10,3:1|0:0,0:0:0:0:
269,70,60503,1,0,3:2:0:0:
229,25,60670,2,0,L|355:21,1,110.000003356934,10|10,3:1|0:0,0:0:0:0:
459,15,61336,1,14,3:1:0:0:
503,240,62670,6,0,P|499:300|447:348,1,110.000003356934,14|10,3:1|0:0,0:0:0:0:
415,366,63170,1,0,3:2:0:0:
356,381,63336,2,0,L|294:379,1,55.0000016784668,10|0,3:1|0:0,0:0:0:0:
241,364,63670,2,0,L|179:362,1,55.0000016784668,10|2,0:0|0:0,0:0:0:0:
126,351,64003,1,10,3:1:0:0:
193,250,64336,1,10,0:0:0:0:
193,250,64503,1,0,3:2:0:0:
193,250,64670,2,0,L|188:172,1,55.0000016784668,10|0,3:1|3:2,0:0:0:0:
169,137,65003,1,10,0:0:0:0:
153,17,65336,6,0,P|214:12|268:42,1,110.000003356934,10|10,3:1|0:0,0:0:0:0:
305,68,65836,1,0,3:2:0:0:
357,97,66003,2,0,P|410:117|481:100,1,110.000003356934,10|10,3:1|0:0,0:0:0:0:
452,231,66670,2,0,L|511:251,2,55.0000016784668,10|0|10,3:1|0:0|0:0,0:0:0:0:
394,214,67170,1,0,3:2:0:0:
336,230,67336,2,0,L|281:231,1,55.0000016784668,10|0,3:1|3:2,0:0:0:0:
221,246,67670,1,10,0:0:0:0:
102,267,68003,6,0,P|111:213|93:161,1,110.000003356934,10|10,3:1|0:0,0:0:0:0:
24,62,68670,2,0,L|96:56,1,55.0000016784668,10|0,3:1|0:0,0:0:0:0:
138,66,69003,2,0,L|210:60,1,55.0000016784668,10|2,0:0|0:0,0:0:0:0:
250,41,69336,2,0,P|236:85|251:158,1,110.000003356934,10|10,3:1|0:0,0:0:0:0:
302,254,70003,2,0,L|230:258,1,55.0000016784668,10|0,3:1|3:2,0:0:0:0:
194,286,70336,1,10,0:0:0:0:
77,318,70670,6,0,P|21:277|6:225,1,110.000003356934,10|10,3:1|3:1,0:0:0:0:
4,181,71170,1,8,3:1:0:0:
29,126,71336,2,0,L|103:123,1,55.0000016784668,10|8,3:1|3:1,0:0:0:0:
144,118,71670,1,10,3:1:0:0:
246,54,72003,2,0,L|365:55,1,110.000003356934,10|10,3:1|3:1,0:0:0:0:
412,75,72503,1,8,3:1:0:0:
432,132,72670,2,0,L|425:202,1,55.0000016784668,10|10,3:1|3:1,0:0:0:0:
405,243,73003,2,0,L|398:313,1,55.0000016784668,10|10,3:1|3:1,0:0:0:0:
374,345,73336,6,0,P|306:359|235:335,1,134.999995880127,6|2,1:2|0:0,0:0:0:0:
203,317,74003,1,2,1:2:0:0:
118,359,74336,1,10,0:0:0:0:
37,309,74670,2,0,L|33:112,1,179.999994506836,2|0,1:2|1:2,0:0:0:0:
79,46,75670,2,0,L|123:88,1,44.999998626709,10|0,0:0|0:0,0:0:0:0:
146,108,76003,6,0,P|222:145|281:119,1,134.999995880127,2|2,1:2|0:0,0:0:0:0:
303,102,76670,1,2,1:2:0:0:
221,54,77003,1,10,0:0:0:0:
146,108,77336,2,0,L|141:287,1,179.999994506836,2|0,1:2|1:0,0:0:0:0:
177,375,78336,1,10,0:0:0:0:
245,309,78670,6,0,L|386:300,1,134.999995880127,2|2,1:2|0:0,0:0:0:0:
426,297,79336,1,2,1:2:0:0:
505,244,79670,1,10,0:0:0:0:
416,210,80003,2,0,L|289:218,2,89.9999972534181,2|10|2,1:2|0:0|1:2,0:0:0:0:
505,244,81003,1,10,0:0:0:0:
486,151,81336,6,0,P|442:124|392:124,1,89.9999972534181,2|10,1:2|0:0,0:0:0:0:
310,134,82003,2,0,P|265:129|228:104,1,89.9999972534181,2|10,1:2|0:0,0:0:0:0:
172,28,82670,2,0,L|172:179,1,134.999995880127,2|2,1:2|0:0,0:0:0:0:
172,210,83336,1,2,1:2:0:0:
258,247,83670,1,10,0:0:0:0:
348,193,84003,6,0,P|365:242|350:300,1,100,6|10,1:2|0:0,0:0:0:0:
294,374,84670,2,0,L|236:370,1,50,2|0,1:2|0:0,0:0:0:0:
194,377,85003,2,0,L|136:373,1,50,10|0,0:0|0:0,0:0:0:0:
95,383,85336,2,0,P|81:329|93:283,1,100,2|10,1:2|0:0,0:0:0:0:
121,191,86003,2,0,P|136:141|124:90,1,100,2|10,1:2|0:0,0:0:0:0:
100,52,86503,1,0,0:0:0:0:
68,12,86670,6,0,L|186:10,1,100,2|10,1:2|0:0,0:0:0:0:
252,63,87336,2,0,L|316:61,1,50,2|2,1:2|0:0,0:0:0:0:
350,74,87670,2,0,L|414:72,1,50,10|2,0:0|0:0,0:0:0:0:
447,87,88003,1,2,1:2:0:0:
509,164,88336,2,0,P|490:229|448:258,1,100,10|2,0:0|1:2,0:0:0:0:
366,249,89003,1,10,0:0:0:0:
320,160,89336,6,0,L|210:157,1,100,2|10,1:2|0:0,0:0:0:0:
146,89,90003,2,0,P|115:93|87:100,1,50,2|0,1:2|0:0,0:0:0:0:
55,122,90336,2,0,P|35:147|22:174,1,50,10|2,0:0|0:0,0:0:0:0:
14,213,90670,2,0,L|24:316,2,100,2|10|2,1:2|0:0|1:2,0:0:0:0:
55,122,91670,1,10,0:0:0:0:
138,176,92003,5,2,1:2:0:0:
179,85,92336,1,10,0:0:0:0:
262,139,92670,2,0,L|366:139,1,100,2|10,1:2|0:0,0:0:0:0:
459,118,93336,2,0,P|475:186|467:283,1,150,2|2,1:2|0:0,0:0:0:0:
457,318,94003,1,2,1:2:0:0:
374,373,94336,1,2,0:0:0:0:
282,331,94670,6,0,L|177:327,1,100,6|2,0:2|0:2,0:0:0:0:
82,330,95336,2,0,L|69:378,2,50,2|0|2,0:2|0:2|0:2,0:0:0:0:
92,281,95836,2,0,P|100:231|78:171,1,100,2|0,0:2|0:2,0:0:0:0:
65,138,96336,2,0,L|132:136,1,50,2|0,0:2|0:2,0:0:0:0:
165,133,96670,1,2,0:2:0:0:
264,130,97003,1,2,0:2:0:0:
343,190,97336,6,0,P|365:140|355:84,1,100,2|2,0:2|0:2,0:0:0:0:
282,33,98003,2,0,L|216:36,2,50,2|0|2,0:2|0:2|0:2,0:0:0:0:
327,13,98503,2,0,L|439:10,1,100,2|2,0:2|0:2,0:0:0:0:
480,94,99169,1,2,0:2:0:0:
480,94,99336,2,0,L|478:205,1,100,2|2,0:0|1:2,0:0:0:0:
415,272,100003,6,0,P|468:295|522:286,2,100,14|8|8,3:1|0:0|3:1,0:0:0:0:
334,212,101003,1,10,0:0:0:0:
274,292,101336,1,10,3:1:0:0:
274,292,101503,2,0,L|207:290,1,50,0|8,0:0|0:0,0:0:0:0:
174,281,101836,2,0,L|71:278,1,100,2|2,3:2|3:2,0:0:0:0:
26,261,102336,1,8,0:0:0:0:
31,159,102670,5,10,3:1:0:0:
31,159,102836,2,0,P|33:134|28:109,1,50,0|8,0:0|0:0,0:0:0:0:
1,66,103170,2,0,L|100:61,1,100,2|0,3:2|0:0,0:0:0:0:
150,56,103670,1,10,0:0:0:0:
201,141,104003,1,10,3:1:0:0:
288,92,104336,1,10,0:0:0:0:
339,177,104670,1,10,3:1:0:0:
426,128,105003,1,10,0:0:0:0:
501,193,105336,6,0,P|523:136|511:77,2,100,10|8|8,3:1|0:0|3:1,0:0:0:0:
456,282,106336,1,10,0:0:0:0:
394,348,106670,1,10,3:1:0:0:
394,348,106836,2,0,L|321:344,1,50,0|8,0:0|0:0,0:0:0:0:
294,354,107170,2,0,L|185:350,1,100,2|2,3:2|3:2,0:0:0:0:
144,358,107670,1,8,0:0:0:0:
44,358,108003,5,10,3:1:0:0:
44,358,108170,2,0,P|47:321|61:296,1,50,0|8,0:0|0:0,0:0:0:0:
71,263,108503,2,0,P|88:213|83:156,1,100,2|0,3:2|0:0,0:0:0:0:
80,116,109003,2,0,L|142:121,1,50,10|2,0:0|0:0,0:0:0:0:
180,123,109336,1,10,3:1:0:0:
247,197,109670,1,10,0:0:0:0:
324,134,110002,1,10,3:1:0:0:
391,208,110336,1,10,0:0:0:0:
468,145,110670,6,0,P|489:197|482:244,2,100,10|8|8,3:1|0:0|3:1,0:0:0:0:
399,71,111670,1,10,0:0:0:0:
307,110,112003,1,10,3:1:0:0:
307,110,112170,2,0,L|237:109,1,50,0|8,0:0|0:0,0:0:0:0:
208,95,112503,2,0,L|99:92,1,100,2|0,3:2|3:2,0:0:0:0:
61,110,113003,1,10,0:0:0:0:
27,204,113336,5,10,3:1:0:0:
27,204,113503,2,0,L|31:268,1,50,0|8,0:0|0:0,0:0:0:0:
35,303,113836,2,0,P|77:336|124:340,1,100,2|0,3:2|0:0,0:0:0:0:
171,330,114336,1,10,0:0:0:0:
264,366,114670,1,10,3:1:0:0:
358,333,115003,1,10,0:0:0:0:
408,247,115336,1,10,3:1:0:0:
391,148,115670,1,10,0:0:0:0:
314,83,116003,6,0,P|260:73|213:84,2,100,10|8|8,3:1|0:0|3:1,0:0:0:0:
391,148,117003,1,10,0:0:0:0:
479,102,117336,1,10,3:1:0:0:
479,102,117503,2,0,L|477:173,1,50,0|8,0:0|0:0,0:0:0:0:
484,201,117836,2,0,L|480:310,1,100,2|2,3:2|3:2,0:0:0:0:
483,351,118336,1,8,0:0:0:0:
384,330,118670,5,10,3:1:0:0:
384,330,118836,2,0,L|314:326,1,50,0|8,0:0|0:0,0:0:0:0:
284,317,119170,2,0,L|182:311,1,100,2|0,3:2|0:0,0:0:0:0:
138,332,119670,2,0,L|68:328,1,50,10|2,0:0|0:0,0:0:0:0:
45,302,120003,1,10,3:1:0:0:
106,223,120336,1,10,3:2:0:0:
44,143,120670,1,10,3:1:0:0:
105,64,121003,1,10,0:0:0:0:
201,91,121336,6,0,P|259:97|354:49,2,150,6|2|2,1:2|1:2|1:2,0:0:0:0:
105,64,122670,2,0,P|189:128|91:256,1,300,6|0,1:2|0:0,0:0:0:0:
