osu file format v14

[General]
AudioFilename: audio.mp3
AudioLeadIn: 0
PreviewTime: 49253
Countdown: 0
SampleSet: Soft
StackLeniency: 0.4
Mode: 0
LetterboxInBreaks: 0
EpilepsyWarning: 1
WidescreenStoryboard: 1

[Editor]
Bookmarks: 6663,17329,22663,27996,49329,51996,73329,94663,121329,122663
DistanceSpacing: 1.2
BeatDivisor: 4
GridSize: 32
TimelineZoom: 2.1

[Metadata]
Title:POTOMIRU PINERA
TitleUnicode:ポトミル ピニェラ
Artist:Fotzu
ArtistUnicode:Fotzu
Creator:TheShadowOfDark
Version:Hazu's Hard
Source:東方Project
Tags:Chilean Chile おてんば恋娘 cirno chirumiru misamirú misamiru youtube touhou Beloved Tomboyish Girl hazu- wolf3211 tatan -_tatan_- チルミルチルノ Sebastián Sebastian Piñera videogame japanese spanish video game ytpmv 音MAD
BeatmapID:2160271
BeatmapSetID:1032450

[Difficulty]
HPDrainRate:5
CircleSize:4
OverallDifficulty:6
ApproachRate:8
SliderMultiplier:1.4
SliderTickRate:1

[Events]
//Background and Video events
Video,500,"yporelmarepoto.mp4"
0,0,"bgculiao.jpg",0,0
//Break Periods
2,8203,15178
//Storyboard Layer 0 (Background)
//Storyboard Layer 1 (Fail)
//Storyboard Layer 2 (Pass)
//Storyboard Layer 3 (Foreground)
//Storyboard Layer 4 (Overlay)
//Storyboard Sound Samples

[TimingPoints]
1337,333.333333333333,4,1,1,50,1,0
6670,-111.111111111111,4,1,1,50,0,0
8003,-100,4,3,1,50,0,0
16003,-133.333333333333,4,2,1,50,0,0
17336,-100,4,3,1,70,0,1
28003,-100,4,2,1,70,0,0
50670,-133.333333333333,4,2,1,70,0,0
50753,-133.333333333333,4,2,1,5,0,0
51586,-133.333333333333,4,2,1,50,0,0
52003,-100,4,2,1,70,0,1
61336,-100,4,2,1,70,0,0
62670,-100,4,2,1,70,0,1
73336,-100,4,2,1,70,0,0
78586,-100,4,2,1,5,0,0
78670,-100,4,2,1,70,0,0
81253,-100,4,2,1,5,0,0
81336,-100,4,2,1,70,0,0
89253,-100,4,2,1,5,0,0
89336,-100,4,2,1,70,0,0
91920,-100,4,2,1,5,0,0
92003,-100,4,2,1,70,0,0
94670,-100,4,1,1,50,0,0
99336,-100,4,2,1,55,0,0
100003,-100,4,2,1,70,0,0
122670,-200,4,2,1,70,0,0
122920,-200,4,2,1,5,0,0
123670,-200,4,2,1,5,0,0

[Colours]
Combo1 : 178,178,178
Combo2 : 66,46,250
Combo3 : 0,168,249
Combo4 : 132,132,255

[HitObjects]
171,139,1337,6,0,B|131:135|131:135|76:164|76:164|19:158,2,140,2|2|2,0:2|0:2|0:2,0:0:0:0:
238,189,2170,1,0,0:2:0:0:
238,189,2336,2,0,P|281:194|315:176,1,70,2|2,0:2|0:2,0:0:0:0:
450,98,2836,1,0,0:2:0:0:
450,98,3003,2,0,P|440:141|430:176,1,70,2|0,0:2|0:2,0:0:0:0:
385,235,3336,2,0,P|401:285|428:392,1,140,2|2,0:2|0:2,0:0:0:0:
255,360,4003,6,0,P|237:292|216:225,2,140,2|2|2,0:2|0:2|0:2,0:0:0:0:
339,359,4836,1,0,0:2:0:0:
339,359,5003,2,0,P|325:310|315:273,1,70,2|2,0:2|0:2,0:0:0:0:
212,162,5503,1,2,0:2:0:0:
104,290,5836,1,2,0:2:0:0:
183,261,6003,2,0,P|237:271|252:274,1,70,2|0,0:2|0:0,0:0:0:0:
307,336,6336,2,0,P|334:341|359:345,3,35,2|0|0|0,0:2|0:0|0:0|0:0,0:0:0:0:
373,327,6670,5,6,0:2:0:0:
256,192,6753,12,0,8003,0:0:0:0:
355,310,16003,5,6,0:0:0:0:
283,265,16170,2,0,P|260:267|240:269,3,26.2500010013581,0|0|0|0,3:2|3:2|3:2|3:2,0:0:0:0:
228,297,16503,2,0,P|201:300|157:304,1,52.5000020027161,2|2,3:2|3:2,0:0:0:0:
99,338,16836,1,0,3:2:0:0:
99,338,16920,1,0,0:0:0:0:
99,338,17003,2,0,P|94:317|89:298,3,26.2500010013581,10|0|0|0,3:1|0:0|0:0|0:0,0:0:0:0:
59,287,17336,6,0,P|45:241|58:205,1,70,14|0,0:1|0:0,0:0:0:0:
112,163,17670,2,0,P|186:151|274:137,1,140,10|8,0:2|0:1,0:0:0:0:
330,182,18170,1,0,0:0:0:0:
330,182,18253,1,0,0:0:0:0:
330,182,18336,2,0,P|376:173|413:165,1,70,10|0,0:2|0:0,0:0:0:0:
471,125,18670,6,0,P|473:84|449:51,1,70,10|0,0:1|0:0,0:0:0:0:
382,24,19003,2,0,B|344:19|344:19|284:44|284:44|235:38,1,140,10|8,0:2|0:1,0:0:0:0:
167,66,19503,1,0,0:0:0:0:
167,66,19586,1,0,0:0:0:0:
167,66,19670,2,0,P|133:61|84:56,1,70,10|0,0:2|0:0,0:0:0:0:
25,99,20003,5,10,0:1:0:0:
89,152,20170,1,0,0:0:0:0:
17,195,20336,2,0,P|3:247|61:324,1,140,10|8,0:2|0:1,0:0:0:0:
130,316,20837,1,0,0:0:0:0:
130,316,20920,1,0,0:0:0:0:
130,316,21003,2,0,P|184:308|203:314,1,70,10|0,0:2|0:0,0:0:0:0:
273,348,21336,6,0,P|307:353|340:343,1,70,10|0,0:1|0:0,0:0:0:0:
406,290,21670,2,0,P|418:228|438:134,1,140,10|8,0:2|0:1,0:0:0:0:
362,108,22170,1,0,0:0:0:0:
362,108,22253,1,0,0:0:0:0:
362,108,22336,2,0,P|353:149|345:183,1,70,10|0,0:2|0:0,0:0:0:0:
261,177,22670,6,0,P|228:165|171:147,1,70,10|0,0:1|0:0,0:0:0:0:
132,210,23003,2,0,P|118:272|97:367,1,140,10|8,0:2|0:1,0:0:0:0:
29,302,23503,1,0,0:0:0:0:
29,302,23586,1,0,0:0:0:0:
29,302,23670,2,0,P|41:250|47:219,1,70,10|0,0:2|0:0,0:0:0:0:
54,150,24003,6,0,P|94:129|136:136,1,70,10|0,0:1|0:0,0:0:0:0:
194,164,24336,2,0,B|275:180|252:115|337:135,1,140,10|8,0:2|0:1,0:0:0:0:
400,95,24837,1,0,0:0:0:0:
400,95,24920,1,0,0:0:0:0:
400,95,25003,2,0,P|439:77|482:93,1,70,10|0,0:2|0:0,0:0:0:0:
506,155,25336,6,0,P|498:187|489:230,1,70,10|8,0:1|0:1,0:0:0:0:
432,284,25670,2,0,P|387:287|356:264,1,70,10|8,0:1|0:1,0:0:0:0:
325,201,26003,2,0,P|280:198|249:221,1,70,10|8,0:1|0:1,0:0:0:0:
197,267,26336,2,0,P|206:303|217:353,1,70,10|8,0:1|0:1,0:0:0:0:
140,378,26670,5,10,0:1:0:0:
140,378,26753,1,8,0:1:0:0:
140,378,26836,1,8,0:1:0:0:
56,367,27003,2,0,P|47:331|36:281,1,70,10|8,0:1|0:1,0:0:0:0:
18,217,27336,1,10,0:1:0:0:
18,217,27503,1,8,0:1:0:0:
72,148,27670,2,0,P|67:126|63:100,3,35,10|8|8|8,0:1|0:1|0:1|0:1,0:0:0:0:
92,81,28003,5,14,3:1:0:0:
174,99,28170,2,0,P|219:103|252:88,1,70,0|8,0:0|0:0,0:0:0:0:
301,35,28503,2,0,B|339:30|339:30|399:55|399:55|448:49,1,140,2|0,3:2|0:0,0:0:0:0:
503,103,29003,2,0,P|491:140|480:176,1,70,10|0,0:0|0:0,0:0:0:0:
507,249,29336,5,10,3:1:0:0:
507,249,29503,2,0,P|495:286|484:322,1,70,0|8,0:0|0:0,0:0:0:0:
401,317,29836,2,0,P|408:296|418:265,3,35,2|0|8|0,3:2|3:2|3:1|3:2,0:0:0:0:
407,241,30170,1,2,3:2:0:0:
326,263,30336,2,0,P|314:300|303:336,1,70,8|2,0:0|3:2,0:0:0:0:
228,365,30670,5,10,3:1:0:0:
173,301,30836,2,0,P|128:290|75:278,1,70,0|8,0:0|0:0,0:0:0:0:
38,336,31170,2,0,P|24:266|7:195,1,140,2|0,3:2|0:0,0:0:0:0:
52,128,31670,2,0,B|86:115|86:115|141:125,1,70,10|0,0:0|0:0,0:0:0:0:
180,178,32003,6,0,B|261:196|243:129|324:149,1,140,10|10,3:1|0:0,0:0:0:0:
382,190,32503,2,0,P|387:210|394:235,3,35,0|0|10|0,3:2|3:2|3:1|3:2,0:0:0:0:
424,248,32836,1,0,3:2:0:0:
468,176,33003,2,0,P|454:129|443:89,1,70,10|0,0:0|3:2,0:0:0:0:
375,66,33336,5,10,3:1:0:0:
375,66,33503,2,0,P|341:61|302:80,1,70,0|8,0:0|0:0,0:0:0:0:
241,125,33836,2,0,B|203:120|203:120|143:145|143:145|94:139,1,140,2|0,3:2|0:0,0:0:0:0:
36,187,34336,2,0,P|45:228|52:265,1,70,10|0,0:0|0:0,0:0:0:0:
70,337,34670,5,10,3:1:0:0:
146,302,34836,2,0,P|137:261|130:224,1,70,0|8,0:0|0:0,0:0:0:0:
206,193,35170,2,0,P|210:211|217:239,3,35,2|0|8|0,3:2|3:2|3:1|3:2,0:0:0:0:
226,267,35503,1,2,3:2:0:0:
294,315,35670,2,0,P|333:322|371:305,1,70,8|2,0:0|3:2,0:0:0:0:
423,255,36003,5,10,3:1:0:0:
465,182,36170,2,0,P|458:147|450:113,1,70,0|8,0:0|0:0,0:0:0:0:
382,64,36503,2,0,B|335:45|335:45|227:81,1,140,2|0,3:2|0:0,0:0:0:0:
194,136,37003,2,0,P|155:142|114:126,1,70,10|2,0:0|0:0,0:0:0:0:
53,92,37336,5,10,3:1:0:0:
4,160,37503,2,0,P|20:204|30:241,1,70,0|10,0:0|0:0,0:0:0:0:
92,278,37836,2,0,P|119:283|143:289,3,35,0|0|10|0,3:2|3:2|3:1|3:2,0:0:0:0:
153,317,38170,1,0,3:2:0:0:
220,267,38336,2,0,P|247:272|301:282,1,70,10|0,0:0|3:2,0:0:0:0:
347,340,38670,5,10,3:1:0:0:
417,295,38836,2,0,P|427:249|437:207,1,70,0|8,0:0|0:0,0:0:0:0:
387,154,39170,2,0,B|349:149|349:149|289:174|289:174|240:168,1,140,2|0,3:2|0:0,0:0:0:0:
175,204,39670,2,0,P|140:194|100:207,1,70,10|0,0:0|0:0,0:0:0:0:
49,261,40003,5,10,3:1:0:0:
5,188,40170,2,0,P|17:137|25:107,1,70,0|8,0:0|0:0,0:0:0:0:
88,69,40503,2,0,P|111:64|139:58,3,35,2|0|8|0,3:2|3:2|3:1|3:2,0:0:0:0:
159,80,40836,1,2,3:2:0:0:
234,116,41003,2,0,P|257:111|313:97,1,70,10|0,0:0|3:2,0:0:0:0:
384,83,41336,5,10,3:1:0:0:
384,83,41503,2,0,P|372:125|361:163,1,70,0|8,0:0|0:0,0:0:0:0:
428,205,41836,2,0,P|462:265|431:344,1,140,2|0,3:2|0:0,0:0:0:0:
367,364,42336,2,0,P|344:359|288:345,1,70,10|0,0:0|0:0,0:0:0:0:
233,293,42670,6,0,B|140:275|140:275|95:304,1,140,10|10,3:1|0:0,0:0:0:0:
24,333,43170,2,0,P|18:305|13:285,3,35,0|0|10|0,3:2|3:2|3:1|3:2,0:0:0:0:
26,258,43503,1,0,3:2:0:0:
60,181,43670,2,0,P|54:153|42:97,1,70,10|0,0:0|3:2,0:0:0:0:
109,58,44003,5,10,3:1:0:0:
189,81,44170,2,0,P|195:109|207:165,1,70,0|8,0:0|0:0,0:0:0:0:
270,200,44503,2,0,P|348:157|399:168,1,140,2|0,3:2|0:0,0:0:0:0:
463,214,45003,2,0,P|469:242|481:298,1,70,10|0,0:0|0:0,0:0:0:0:
410,332,45336,5,10,3:1:0:0:
410,332,45503,2,0,P|404:304|392:248,1,70,0|8,0:0|0:0,0:0:0:0:
311,270,45836,2,0,P|314:289|319:314,3,35,2|0|8|0,3:2|3:2|3:1|3:2,0:0:0:0:
294,340,46170,1,2,3:2:0:0:
225,291,46336,2,0,P|193:286|141:277,1,70,8|2,0:0|3:2,0:0:0:0:
87,329,46670,5,10,3:1:0:0:
19,280,46836,2,0,P|12:229|24:201,1,70,0|8,0:0|0:0,0:0:0:0:
80,155,47170,2,0,B|118:150|118:150|178:175|178:175|227:169,1,140,2|0,3:2|0:0,0:0:0:0:
284,123,47670,2,0,P|328:115|367:129,1,70,10|2,0:0|0:0,0:0:0:0:
414,177,48003,5,10,3:1:0:0:
357,239,48170,2,0,P|347:269|335:307,1,70,0|10,0:0|3:2,0:0:0:0:
251,306,48503,2,0,P|257:284|267:253,3,35,0|0|10|0,0:0|3:2|3:1|3:2,0:0:0:0:
250,231,48836,1,0,3:2:0:0:
172,263,49003,2,0,P|162:293|150:331,1,70,10|0,0:0|0:0,0:0:0:0:
80,376,49336,5,6,1:2:0:0:
15,320,49503,1,2,0:0:0:0:
5,236,49670,1,2,0:0:0:0:
49,163,49837,1,2,1:2:0:0:
189,70,50170,1,2,0:0:0:0:
189,70,50336,1,2,1:2:0:0:
303,170,50670,5,6,1:2:0:0:
303,170,52003,6,0,P|230:184|159:197,1,140,14|10,3:1|0:0,0:0:0:0:
93,151,52503,1,0,3:2:0:0:
17,189,52670,2,0,P|9:224|22:262,1,70,10|0,3:1|0:0,0:0:0:0:
83,309,53003,1,10,0:0:0:0:
165,273,53170,5,2,0:0:0:0:
165,273,53253,1,0,0:0:0:0:
165,273,53336,2,0,B|236:259|222:321|298:304,1,140,10|10,3:1|0:0,0:0:0:0:
351,241,53836,1,0,3:2:0:0:
424,281,54003,2,0,P|465:285|502:266,1,70,10|0,3:1|3:2,0:0:0:0:
507,191,54336,1,10,0:0:0:0:
444,134,54503,5,2,3:2:0:0:
444,134,54586,1,0,3:2:0:0:
444,134,54670,2,0,B|406:129|406:129|346:154|346:154|297:148,1,140,10|10,3:1|0:0,0:0:0:0:
247,93,55170,1,0,3:2:0:0:
187,33,55336,2,0,B|149:28|149:28|89:53|89:53|40:47,1,140,10|10,3:1|0:0,0:0:0:0:
12,122,55836,5,2,0:0:0:0:
12,122,55920,1,0,0:0:0:0:
12,122,56003,2,0,P|-5:182|42:251,1,140,10|10,3:1|0:0,0:0:0:0:
116,256,56503,1,0,3:2:0:0:
168,189,56670,2,0,P|215:182|254:197,1,70,10|0,3:1|3:2,0:0:0:0:
289,252,57003,2,0,P|336:259|375:244,1,70,10|2,0:0|3:2,0:0:0:0:
426,206,57336,6,0,B|449:112|449:112|418:55,1,140,10|10,3:1|0:0,0:0:0:0:
361,22,57836,1,0,3:2:0:0:
361,22,58003,2,0,B|338:116|338:116|369:173,1,140,10|10,3:1|0:0,0:0:0:0:
426,206,58503,1,2,0:0:0:0:
356,253,58670,6,0,P|308:242|206:220,1,140,10|10,3:1|0:0,0:0:0:0:
150,173,59170,1,0,3:2:0:0:
150,173,59336,2,0,P|145:137|138:99,1,70,10|0,3:1|3:2,0:0:0:0:
56,86,59670,2,0,P|61:122|68:160,1,70,10|2,0:0|3:2,0:0:0:0:
9,216,60003,6,0,P|-6:264|44:343,1,140,10|10,3:1|0:0,0:0:0:0:
119,347,60503,1,0,3:2:0:0:
182,292,60670,2,0,B|220:287|220:287|280:312|280:312|329:306,1,140,10|10,3:1|0:0,0:0:0:0:
388,263,61170,1,2,0:0:0:0:
463,299,61336,5,14,3:1:0:0:
463,299,62670,6,0,P|445:294|420:288,3,35,14|0|0|0,3:1|0:0|0:0|0:0,0:0:0:0:
393,312,63003,2,0,P|375:307|309:292,1,70,10|0,0:0|3:2,0:0:0:0:
260,240,63336,2,0,P|192:251|112:264,1,140,10|10,3:1|0:0,0:0:0:0:
43,293,63836,5,2,0:0:0:0:
43,293,63920,1,0,0:0:0:0:
43,293,64003,2,0,B|52:242|52:242|39:197|39:197|48:147,1,140,10|10,3:1|0:0,0:0:0:0:
108,99,64503,1,0,3:2:0:0:
183,135,64670,2,0,P|251:124|331:111,1,140,10|10,3:1|0:0,0:0:0:0:
399,182,65169,5,2,3:2:0:0:
399,182,65253,1,0,3:2:0:0:
399,182,65336,2,0,P|331:193|251:206,1,140,10|10,3:1|0:0,0:0:0:0:
200,263,65836,1,0,3:2:0:0:
140,322,66003,2,0,P|103:329|55:338,1,70,10|0,3:1|0:0,0:0:0:0:
0,289,66336,1,10,0:0:0:0:
48,220,66503,5,2,0:0:0:0:
48,220,66586,1,0,0:0:0:0:
48,220,66670,2,0,P|65:142|80:75,1,140,10|10,3:1|0:0,0:0:0:0:
156,52,67170,1,0,3:2:0:0:
224,100,67336,2,0,P|207:178|192:245,1,140,10|10,3:1|0:0,0:0:0:0:
250,314,67836,5,2,3:2:0:0:
250,314,67920,1,0,3:2:0:0:
250,314,68003,2,0,B|345:337|345:337|404:311,1,140,10|10,3:1|0:0,0:0:0:0:
454,274,68503,1,0,3:2:0:0:
431,193,68670,2,0,B|336:170|336:170|277:196,1,140,10|10,3:1|0:0,0:0:0:0:
224,229,69170,5,2,0:0:0:0:
224,229,69253,1,0,0:0:0:0:
224,229,69336,2,0,P|251:182|206:94,1,140,10|10,3:1|0:0,0:0:0:0:
146,72,69836,1,0,3:2:0:0:
83,128,70003,2,0,P|75:159|65:203,1,70,10|0,3:1|3:2,0:0:0:0:
4,253,70336,1,10,0:0:0:0:
79,312,70503,5,2,3:2:0:0:
79,312,70586,1,0,3:2:0:0:
79,312,70670,2,0,P|116:321|163:308,1,70,10|8,3:1|3:1,0:0:0:0:
200,250,71003,2,0,P|237:241|284:254,1,70,10|8,3:1|3:1,0:0:0:0:
339,306,71336,1,10,3:1:0:0:
339,306,71420,1,8,3:1:0:0:
339,306,71503,1,8,3:1:0:0:
404,255,71669,2,0,P|396:219|382:163,1,70,10|10,3:1|3:1,0:0:0:0:
437,117,72003,6,0,P|429:81|415:25,1,70,10|8,3:1|3:1,0:0:0:0:
339,28,72336,1,10,3:1:0:0:
339,28,72420,1,8,3:1:0:0:
339,28,72503,1,8,3:1:0:0:
266,70,72670,2,0,P|274:106|288:162,1,70,10|10,3:1|3:1,0:0:0:0:
222,198,73003,2,0,P|214:234|207:258,3,35,10|8|10|8,3:1|3:1|3:1|3:1,0:0:0:0:
189,265,73336,6,0,B|261:254|261:254|331:285|331:285|419:274,1,210,6|2,1:2|0:0,0:0:0:0:
467,241,74003,1,2,1:2:0:0:
394,198,74170,2,0,P|404:156|416:120,1,70,0|10,0:0|0:0,0:0:0:0:
462,62,74503,1,0,0:0:0:0:
374,49,74670,2,0,B|312:9|210:63|293:95|183:152|110:97,1,280,2|0,1:2|1:2,0:0:0:0:
45,76,75503,2,0,P|32:35|21:2,2,70,2|10|0,0:0|0:0|0:0,0:0:0:0:
5,150,76003,6,0,P|34:228|80:366,1,210,2|2,1:2|0:0,0:0:0:0:
157,362,76670,1,2,1:2:0:0:
213,299,76837,2,0,P|244:286|303:299,1,70,0|10,0:0|0:0,0:0:0:0:
342,343,77170,1,0,0:0:0:0:
424,328,77336,2,0,P|460:290|376:105,1,280,2|0,1:2|1:0,0:0:0:0:
221,77,78336,2,0,P|165:92|101:108,1,105,10|0,0:0|0:0,0:0:0:0:
78,93,78670,6,0,P|146:105|293:138,1,210,2|2,1:2|0:0,0:0:0:0:
360,102,79336,1,2,1:2:0:0:
360,102,79503,1,0,0:0:0:0:
428,151,79670,2,0,P|421:179|410:218,1,70,10|0,0:0|0:0,0:0:0:0:
471,276,80003,6,0,P|478:304|488:343,1,70,2|0,1:2|0:0,0:0:0:0:
410,376,80336,2,0,P|401:342|392:308,1,70,10|0,0:0|0:0,0:0:0:0:
320,263,80670,1,2,1:2:0:0:
320,263,80836,1,0,0:0:0:0:
244,299,81003,2,0,P|204:288|123:272,1,105,10|0,0:0|0:0,0:0:0:0:
106,298,81336,6,0,P|63:288|21:281,1,70,2|0,1:2|0:0,0:0:0:0:
25,199,81670,2,0,P|68:209|110:216,1,70,10|0,0:0|0:0,0:0:0:0:
172,184,82003,2,0,P|206:190|240:198,1,70,2|0,1:2|0:0,0:0:0:0:
297,269,82336,1,10,0:0:0:0:
297,269,82503,1,0,0:0:0:0:
373,234,82670,6,0,P|416:187|356:54,1,210,2|2,1:2|0:0,0:0:0:0:
294,31,83336,1,2,1:2:0:0:
246,100,83503,2,0,P|289:117|330:106,2,70,0|10|0,0:0|0:0|0:0,0:0:0:0:
182,44,84003,6,0,P|195:119|131:124,1,140,6|10,1:2|0:0,0:0:0:0:
111,109,84420,1,0,0:0:0:0:
111,109,84503,1,2,0:0:0:0:
82,29,84670,1,2,1:2:0:0:
13,78,84836,2,0,P|5:115|24:170,1,70,0|10,0:0|0:0,0:0:0:0:
63,211,85169,1,0,0:0:0:0:
138,247,85336,6,0,B|345:282|345:282|288:223,1,280,2|2,1:2|1:2,0:0:0:0:
273,195,86086,1,0,0:0:0:0:
273,195,86169,2,0,P|244:191|193:183,2,70,2|10|0,0:0|0:0|0:0,0:0:0:0:
337,140,86669,6,0,P|427:105|486:139,1,140,2|10,1:2|0:0,0:0:0:0:
494,147,87086,1,0,0:0:0:0:
494,147,87170,1,2,0:0:0:0:
494,230,87336,1,2,1:2:0:0:
439,293,87503,2,0,P|404:285|352:277,1,70,2|10,0:0|0:0,0:0:0:0:
386,196,87836,1,2,0:0:0:0:
306,226,88003,6,0,B|217:217|217:217|137:270|137:270|37:263,1,280,2|2,1:2|1:2,0:0:0:0:
11,235,88753,1,0,0:0:0:0:
11,235,88836,1,2,0:0:0:0:
72,177,89003,2,0,P|89:122|112:58,1,105,10|0,0:0|0:0,0:0:0:0:
141,56,89336,6,0,P|234:65|305:73,1,140,2|10,1:2|0:0,0:0:0:0:
322,76,89753,1,0,0:0:0:0:
322,76,89836,1,2,0:0:0:0:
400,46,90003,1,2,1:2:0:0:
460,103,90169,1,0,0:0:0:0:
425,179,90336,2,0,P|432:207|442:246,1,70,10|2,0:0|0:0,0:0:0:0:
369,297,90670,6,0,P|362:269|351:229,1,70,2|2,1:2|0:0,0:0:0:0:
299,162,91003,1,10,0:0:0:0:
299,162,91170,1,2,0:0:0:0:
268,239,91336,2,0,P|220:241|185:221,1,70,2|2,1:2|0:0,0:0:0:0:
156,161,91670,2,0,P|119:151|57:173,1,105,10|0,0:0|0:0,0:0:0:0:
30,205,92003,6,0,P|18:242|3:291,1,70,2|0,1:2|0:0,0:0:0:0:
78,319,92337,2,0,P|88:285|99:252,1,70,10|2,0:0|0:0,0:0:0:0:
172,211,92670,1,2,1:2:0:0:
172,211,92836,1,0,0:0:0:0:
239,261,93003,2,0,P|273:254|307:246,1,70,10|2,0:0|0:0,0:0:0:0:
355,177,93336,6,0,P|341:265|323:384,1,210,2|2,1:2|0:0,0:0:0:0:
405,363,94003,1,2,1:2:0:0:
493,348,94170,1,2,0:0:0:0:
493,348,94253,1,2,0:0:0:0:
493,348,94336,2,0,P|498:313|504:275,1,70,2|2,0:0|0:0,0:0:0:0:
455,209,94670,6,0,P|441:136|421:48,2,140,6|2|2,0:2|0:2|0:2,0:0:0:0:
391,264,95503,1,0,0:2:0:0:
391,264,95669,2,0,P|348:269|314:251,1,70,2|2,0:2|0:2,0:0:0:0:
203,140,96170,1,0,0:2:0:0:
203,140,96336,2,0,P|160:135|126:153,1,70,2|0,0:2|0:2,0:0:0:0:
79,207,96669,2,0,P|64:258|132:335,1,140,2|2,0:2|0:2,0:0:0:0:
273,296,97336,6,0,P|288:245|220:168,2,140,2|2|2,0:2|0:2|0:2,0:0:0:0:
206,347,98169,1,0,0:2:0:0:
206,347,98336,2,0,P|172:337|123:324,1,70,2|2,0:2|0:2,0:0:0:0:
65,176,98836,1,2,0:2:0:0:
201,78,99169,5,2,0:2:0:0:
201,78,99336,2,0,P|235:88|284:101,1,70,2|0,0:0|1:0,0:0:0:0:
282,93,99586,1,0,1:0:0:0:
297,88,99670,2,0,P|330:97|364:107,1,70,2|0,1:2|0:0,0:0:0:0:
442,76,100003,5,14,3:1:0:0:
503,133,100170,2,0,P|511:169|497:208,1,70,0|8,0:0|0:0,0:0:0:0:
430,243,100503,2,0,B|392:238|392:238|332:263|332:263|283:257,1,140,2|0,3:2|0:0,0:0:0:0:
226,210,101003,2,0,P|197:216|158:225,1,70,10|0,0:0|0:0,0:0:0:0:
85,267,101336,5,10,3:1:0:0:
21,211,101503,2,0,P|9:174|18:132,1,70,0|8,0:0|0:0,0:0:0:0:
75,87,101836,2,0,P|98:81|129:72,3,35,2|0|8|0,3:2|3:2|3:1|3:2,0:0:0:0:
143,54,102170,1,2,3:2:0:0:
219,88,102336,2,0,P|207:125|196:161,1,70,8|2,0:0|3:2,0:0:0:0:
249,221,102670,5,10,3:1:0:0:
320,177,102836,2,0,P|365:166|418:154,1,70,0|8,0:0|0:0,0:0:0:0:
469,138,103170,2,0,P|452:206|439:274,1,140,2|0,3:2|0:0,0:0:0:0:
384,338,103670,2,0,P|347:350|297:331,1,70,10|0,0:0|0:0,0:0:0:0:
256,285,104003,6,0,B|161:266|161:266|108:291,1,140,10|10,3:1|0:0,0:0:0:0:
52,332,104503,2,0,P|47:315|42:294,3,35,0|0|10|0,3:2|3:2|3:1|3:2,0:0:0:0:
33,257,104836,1,0,3:2:0:0:
74,183,105003,2,0,P|65:138|53:100,1,70,10|0,0:0|3:2,0:0:0:0:
130,72,105336,5,10,3:1:0:0:
130,72,105503,2,0,P|139:117|151:155,1,70,0|8,0:0|0:0,0:0:0:0:
224,170,105836,2,0,B|262:165|262:165|322:190|322:190|371:184,1,140,2|0,3:2|0:0,0:0:0:0:
441,169,106336,2,0,P|432:210|423:249,1,70,10|0,0:0|0:0,0:0:0:0:
487,295,106670,5,10,3:1:0:0:
487,295,106836,2,0,P|479:329|471:363,1,70,0|8,0:0|0:0,0:0:0:0:
387,370,107170,2,0,P|391:352|394:335,3,35,2|0|8|0,3:2|3:2|3:1|3:2,0:0:0:0:
373,299,107503,1,2,3:2:0:0:
300,341,107670,2,0,P|261:348|223:331,1,70,8|2,0:0|3:2,0:0:0:0:
192,264,108003,5,10,3:1:0:0:
192,264,108169,2,0,P|153:257|115:274,1,70,0|8,0:0|0:0,0:0:0:0:
79,338,108503,2,0,P|99:278|46:213,1,140,2|0,3:2|0:0,0:0:0:0:
11,148,109003,2,0,P|21:111|42:61,1,70,10|2,0:0|0:0,0:0:0:0:
103,36,109336,5,10,3:1:0:0:
135,113,109503,2,0,P|166:125|218:111,1,70,0|10,0:0|0:0,0:0:0:0:
271,73,109836,2,0,P|298:78|322:84,3,35,0|0|10|0,3:2|3:2|3:1|3:2,0:0:0:0:
346,68,110170,1,0,3:2:0:0:
397,134,110336,2,0,P|424:139|478:149,1,70,10|0,0:0|3:2,0:0:0:0:
509,219,110670,5,10,3:1:0:0:
444,272,110836,2,0,P|417:267|363:257,1,70,0|8,0:0|0:0,0:0:0:0:
312,316,111170,2,0,P|337:243|301:181,1,140,2|0,3:2|0:0,0:0:0:0:
237,148,111670,2,0,P|210:143|156:133,1,70,10|0,0:0|0:0,0:0:0:0:
106,77,112003,5,10,3:1:0:0:
40,129,112170,2,0,P|52:180|59:213,1,70,0|8,0:0|0:0,0:0:0:0:
12,269,112503,2,0,P|8:290|1:324,3,35,2|0|8|0,3:2|3:2|3:1|3:2,0:0:0:0:
23,340,112836,1,0,3:2:0:0:
94,295,113003,2,0,P|117:290|173:276,1,70,10|0,0:0|3:2,0:0:0:0:
233,328,113336,5,10,3:1:0:0:
233,328,113503,2,0,P|256:323|312:309,1,70,0|8,0:0|0:0,0:0:0:0:
374,352,113836,2,0,P|389:284|409:206,1,140,2|0,3:2|0:0,0:0:0:0:
354,149,114336,2,0,P|331:154|275:168,1,70,10|0,0:0|0:0,0:0:0:0:
219,113,114670,6,0,B|181:108|181:108|121:133|121:133|72:127,1,140,10|10,3:1|0:0,0:0:0:0:
14,175,115170,2,0,P|17:192|21:209,3,35,0|0|10|0,3:2|3:2|3:1|3:2,0:0:0:0:
7,248,115503,1,0,3:2:0:0:
89,266,115670,2,0,P|95:294|107:350,1,70,10|0,0:0|3:2,0:0:0:0:
186,348,116003,5,10,3:1:0:0:
186,348,116170,2,0,P|180:320|168:264,1,70,0|8,0:0|0:0,0:0:0:0:
211,205,116503,2,0,P|289:162|339:179,1,140,2|0,3:2|0:0,0:0:0:0:
397,228,117003,2,0,P|403:256|415:312,1,70,10|0,0:0|0:0,0:0:0:0:
495,299,117336,5,10,3:1:0:0:
495,299,117503,2,0,P|489:271|477:215,1,70,0|8,0:0|0:0,0:0:0:0:
498,148,117836,2,0,P|494:130|492:113,3,35,2|0|8|0,3:2|3:2|3:1|3:2,0:0:0:0:
460,84,118170,1,2,3:2:0:0:
385,122,118336,2,0,P|353:117|301:108,1,70,8|2,0:0|3:2,0:0:0:0:
253,53,118670,5,10,3:1:0:0:
170,36,118836,2,0,P|138:31|86:22,1,70,0|8,0:0|0:0,0:0:0:0:
27,66,119170,2,0,P|40:115|61:208,1,140,2|0,3:2|0:0,0:0:0:0:
20,276,119670,2,0,P|10:309|-6:357,1,70,10|2,0:0|0:0,0:0:0:0:
74,379,120003,5,10,3:1:0:0:
143,331,120170,2,0,P|183:320|220:329,1,70,0|10,0:0|3:2,0:0:0:0:
282,368,120503,2,0,P|304:364|339:356,3,35,0|0|10|0,0:0|3:2|3:1|3:2,0:0:0:0:
357,370,120836,1,0,3:2:0:0:
421,315,121003,2,0,P|430:270|444:218,1,70,10|0,0:0|0:0,0:0:0:0:
500,192,121336,5,6,1:2:0:0:
421,162,121503,1,2,0:0:0:0:
342,192,121670,1,2,0:0:0:0:
263,162,121837,1,2,1:2:0:0:
104,106,122170,1,2,0:0:0:0:
104,106,122336,1,2,1:2:0:0:
21,258,122670,6,0,B|131:230|102:339|223:302,1,210,6|0,1:2|0:0,0:0:0:0:
