osu file format v14

[General]
AudioFilename: audio.mp3
AudioLeadIn: 0
PreviewTime: 49253
Countdown: 0
SampleSet: Normal
StackLeniency: 0.4
Mode: 0
LetterboxInBreaks: 0
EpilepsyWarning: 1
WidescreenStoryboard: 1

[Editor]
Bookmarks: 6663,17329,22663,27996,49329,51996,61329,62663,70663,73329,83996,94663,99996,121329,122663
DistanceSpacing: 1.15
BeatDivisor: 2
GridSize: 32
TimelineZoom: 1.25

[Metadata]
Title:POTOMIRU PINERA
TitleUnicode:ポトミル ピニェラ
Artist:Fotzu
ArtistUnicode:Fotzu
Creator:TheShadowOfDark
Version:Easy
Source:東方Project
Tags:Chilean Chile おてんば恋娘 cirno chirumiru misamirú misamiru youtube touhou Beloved Tomboyish Girl hazu- wolf3211 tatan -_tatan_- チルミルチルノ Sebastián Sebastian Piñera videogame japanese spanish video game ytpmv 音MAD
BeatmapID:2160327
BeatmapSetID:1032450

[Difficulty]
HPDrainRate:2
CircleSize:2
OverallDifficulty:3
ApproachRate:4
SliderMultiplier:0.8
SliderTickRate:1

[Events]
//Background and Video events
Video,500,"yporelmarepoto.mp4"
0,0,"bgculiao.jpg",0,0
//Break Periods
2,8203,14556
//Storyboard Layer 0 (Background)
//Storyboard Layer 1 (Fail)
//Storyboard Layer 2 (Pass)
//Storyboard Layer 3 (Foreground)
//Storyboard Layer 4 (Overlay)
//Storyboard Sound Samples

[TimingPoints]
1337,333.333333333333,4,1,1,50,1,0
1337,-100,4,1,1,50,0,0
6670,-100,4,1,1,50,0,0
8003,-100,4,3,1,50,0,0
16003,-111.111111111111,4,2,1,50,0,0
17336,-100,4,3,1,70,0,1
28003,-100,4,2,1,70,0,0
50753,-100,4,2,1,5,0,0
51586,-100,4,2,1,50,0,0
52003,-100,4,2,1,70,0,1
61336,-100,4,2,1,70,0,0
62670,-100,4,2,1,70,0,1
73336,-100,4,2,1,70,0,0
78670,-100,4,2,1,70,0,0
89253,-100,4,2,1,5,0,0
89336,-100,4,2,1,70,0,0
94670,-100,4,1,1,50,0,0
99336,-100,4,2,1,55,0,0
100003,-100,4,2,1,70,0,0
122920,-100,4,2,1,5,0,0

[Colours]
Combo1 : 183,183,183
Combo2 : 66,46,250
Combo3 : 0,168,249
Combo4 : 132,132,255

[HitObjects]
11,90,1337,6,0,L|95:87,1,80,2|2,0:2|0:2,0:0:0:0:
169,134,2003,2,0,P|183:84|151:18,2,120,2|2|2,0:2|0:2|0:2,0:0:0:0:
123,214,3336,1,2,0:2:0:0:
181,284,3670,1,2,0:2:0:0:
268,256,4003,6,0,L|354:255,1,80,2|2,0:2|0:2,0:0:0:0:
430,295,4670,2,0,P|409:250|434:179,1,120,2|2,0:2|0:2,0:0:0:0:
494,120,5503,2,0,L|358:115,1,120,2|2,0:2|0:2,0:0:0:0:
294,68,6336,1,2,0:2:0:0:
256,192,6670,12,0,8003,0:0:0:0:
478,32,16003,6,0,B|442:83|466:130|466:130|490:181|466:241,1,215.999993408203,6|10,0:0|3:1,0:0:0:0:
413,313,17336,5,14,0:1:0:0:
325,283,17670,2,0,L|227:281,1,80,10|8,0:2|0:1,0:0:0:0:
170,335,18336,2,0,P|153:285|159:242,1,80,10|10,0:2|0:1,0:0:0:0:
215,189,19003,2,0,L|294:190,1,80,10|8,0:2|0:1,0:0:0:0:
370,137,19670,1,10,0:2:0:0:
314,63,20003,5,10,0:1:0:0:
392,16,20336,2,0,P|449:33|474:59,1,80,10|8,0:2|0:1,0:0:0:0:
469,137,21003,2,0,L|464:225,1,80,10|10,0:2|0:1,0:0:0:0:
494,303,21670,2,0,P|457:311|405:288,1,80,10|8,0:2|0:1,0:0:0:0:
335,257,22336,1,10,0:2:0:0:
266,318,22670,5,10,0:1:0:0:
188,268,23003,2,0,L|188:173,1,80,10|8,0:2|0:1,0:0:0:0:
254,123,23670,2,0,L|250:25,1,80,10|10,0:2|0:1,0:0:0:0:
161,19,24336,2,0,L|164:98,1,80,10|8,0:2|0:1,0:0:0:0:
188,188,25003,1,10,0:2:0:0:
274,218,25336,5,10,0:1:0:0:
342,155,25670,2,0,L|439:158,1,80,10|10,0:1|0:1,0:0:0:0:
504,197,26336,2,0,P|511:140|491:98,1,80,10|10,0:1|0:1,0:0:0:0:
430,64,27003,2,0,L|350:61,1,80,10|10,0:1|0:1,0:0:0:0:
268,103,27670,1,10,0:1:0:0:
205,35,28003,6,0,P|176:102|224:186,1,160,14|8,3:1|3:1,0:0:0:0:
289,223,29003,1,10,0:0:0:0:
376,186,29336,2,0,P|436:170|509:194,2,120,10|2|8,3:1|3:2|0:0,0:0:0:0:
289,223,30670,6,0,P|226:237|165:217,2,120,10|2|10,3:1|3:2|0:0,0:0:0:0:
376,186,32003,1,10,3:1:0:0:
364,94,32336,1,10,0:0:0:0:
391,6,32670,2,0,P|340:4|303:26,1,80,10|10,3:1|0:0,0:0:0:0:
248,79,33336,6,0,P|194:52|111:46,2,120,10|2|10,3:1|3:2|0:0,0:0:0:0:
309,148,34670,2,0,L|314:269,1,120,10|2,3:1|3:2,0:0:0:0:
205,353,35670,1,8,0:0:0:0:
129,300,36003,6,0,L|-3:313,2,120,10|2|10,3:1|3:2|0:0,0:0:0:0:
211,260,37336,2,0,P|250:229|264:180,1,80,10|10,3:1|0:0,0:0:0:0:
172,177,38003,2,0,P|133:146|119:97,1,80,10|10,3:1|0:0,0:0:0:0:
209,93,38670,6,0,L|349:96,2,120,10|2|10,3:1|3:2|0:0,0:0:0:0:
172,177,40003,2,0,L|312:180,1,120,10|2,3:1|3:2,0:0:0:0:
429,182,41003,1,10,0:0:0:0:
388,264,41336,6,0,P|378:322|401:377,2,120,10|2|10,3:1|3:2|0:0,0:0:0:0:
429,182,42670,1,10,3:1:0:0:
338,165,43003,1,10,0:0:0:0:
269,224,43336,2,0,P|225:240|181:238,1,80,10|10,3:1|0:0,0:0:0:0:
106,221,44003,6,0,L|111:348,2,120,10|2|10,3:1|3:2|0:0,0:0:0:0:
37,159,45336,2,0,P|102:130|165:147,1,120,10|2,3:1|3:2,0:0:0:0:
271,185,46336,1,8,0:0:0:0:
281,276,46670,6,0,L|425:281,2,120,10|2|10,3:1|3:2|0:0,0:0:0:0:
204,326,48003,2,0,L|114:324,1,80,10|10,3:1|3:2,0:0:0:0:
118,232,48670,2,0,L|197:233,1,80,10|10,3:1|0:0,0:0:0:0:
281,276,49336,6,0,P|310:215|362:342,1,320,6|6,1:2|1:2,0:0:0:0:
49,355,52003,6,0,L|48:255,1,80,14|10,3:1|0:0,0:0:0:0:
5,189,52670,2,0,P|52:179|101:194,1,80,10|10,3:1|0:0,0:0:0:0:
175,210,53336,2,0,P|215:224|259:220,1,80,10|10,3:1|0:0,0:0:0:0:
344,194,54003,1,10,3:1:0:0:
411,126,54336,1,10,0:0:0:0:
376,36,54670,6,0,L|287:31,1,80,10|10,3:1|0:0,0:0:0:0:
211,75,55336,2,0,L|122:70,1,80,10|10,3:1|0:0,0:0:0:0:
48,20,56003,2,0,P|32:72|39:107,1,80,10|10,3:1|0:0,0:0:0:0:
77,183,56670,1,10,3:1:0:0:
30,269,57003,1,10,0:0:0:0:
93,341,57336,6,0,L|185:340,1,80,10|10,3:1|0:0,0:0:0:0:
261,377,58003,2,0,P|266:321|249:282,1,80,10|10,3:1|0:0,0:0:0:0:
181,242,58670,2,0,L|101:242,1,80,10|10,3:1|0:0,0:0:0:0:
14,284,59337,2,0,P|3:240|11:206,1,80,10|10,3:1|0:0,0:0:0:0:
46,118,60003,5,10,3:1:0:0:
141,129,60336,1,10,0:0:0:0:
205,57,60670,2,0,L|301:61,2,80,10|10|14,3:1|0:0|3:1,0:0:0:0:
479,270,62670,6,0,L|481:175,1,80,14|10,3:1|0:0,0:0:0:0:
482,94,63336,1,10,3:1:0:0:
397,140,63670,1,10,0:0:0:0:
312,94,64003,2,0,P|266:74|226:74,1,80,10|10,3:1|0:0,0:0:0:0:
151,27,64670,2,0,P|141:73|152:113,1,80,10|10,3:1|0:0,0:0:0:0:
196,186,65336,6,0,L|296:189,2,80,10|10|10,3:1|0:0|3:1,0:0:0:0:
107,222,66336,1,10,0:0:0:0:
180,283,66670,2,0,L|280:286,1,80,10|10,3:1|0:0,0:0:0:0:
355,293,67336,1,10,3:1:0:0:
445,325,67670,1,10,0:0:0:0:
492,241,68003,6,0,L|494:134,1,80,10|10,3:1|0:0,0:0:0:0:
402,129,68670,2,0,L|400:208,1,80,10|10,3:1|0:0,0:0:0:0:
355,293,69336,2,0,P|319:321|276:331,1,80,10|10,3:1|0:0,0:0:0:0:
197,292,70003,1,10,3:1:0:0:
117,345,70336,1,10,0:0:0:0:
50,275,70670,6,0,L|51:160,1,80,10|10,3:1|3:1,0:0:0:0:
51,99,71336,1,10,3:1:0:0:
138,138,71670,1,10,3:1:0:0:
198,63,72003,2,0,P|244:52|290:60,1,80,10|10,3:1|3:1,0:0:0:0:
356,109,72670,1,10,3:1:0:0:
440,63,73003,1,10,3:1:0:0:
505,127,73336,6,0,L|502:299,1,160,6|2,1:2|1:2,0:0:0:0:
444,358,74336,1,10,0:0:0:0:
352,344,74670,2,0,L|354:184,1,160,2|0,1:2|1:2,0:0:0:0:
236,42,76003,6,0,P|159:19|63:63,1,160,2|2,1:2|1:2,0:0:0:0:
21,109,77003,1,10,0:0:0:0:
7,199,77336,2,0,P|84:222|180:178,1,160,2|0,1:2|1:0,0:0:0:0:
281,61,78670,6,0,P|373:78|418:140,1,160,2|2,1:2|1:2,0:0:0:0:
430,217,79670,1,10,0:0:0:0:
394,301,80003,2,0,L|501:313,2,80,2|10|2,1:2|0:0|1:2,0:0:0:0:
303,283,81003,1,10,0:0:0:0:
217,315,81336,6,0,P|119:313|66:267,1,160,2|2,1:2|1:2,0:0:0:0:
38,191,82336,1,10,0:0:0:0:
90,115,82670,2,0,P|161:84|247:95,1,160,2|2,1:2|1:2,0:0:0:0:
423,58,84003,6,0,B|443:103|424:135|424:135|407:170|418:219,1,160,6|2,1:2|1:2,0:0:0:0:
447,299,85003,1,10,0:0:0:0:
373,354,85336,2,0,L|208:350,1,160,2|2,1:2|1:2,0:0:0:0:
120,347,86336,1,10,0:0:0:0:
170,268,86670,6,0,P|199:203|150:98,1,160,2|2,1:2|1:2,0:0:0:0:
109,56,87670,1,10,0:0:0:0:
197,33,88003,2,0,L|356:35,1,160,2|2,1:2|1:2,0:0:0:0:
449,38,89003,1,10,0:0:0:0:
414,123,89336,6,0,L|254:120,1,160,2|2,1:2|1:2,0:0:0:0:
169,83,90336,1,10,0:0:0:0:
81,110,90670,2,0,L|76:26,2,80,2|10|2,1:2|0:0|1:2,0:0:0:0:
87,201,91670,1,10,0:0:0:0:
168,243,92003,6,0,L|341:237,1,160,2|2,1:2|1:2,0:0:0:0:
418,254,93003,1,10,0:0:0:0:
370,334,93336,2,0,L|210:328,1,160,2|2,1:2|1:2,0:0:0:0:
117,325,94336,1,2,0:0:0:0:
33,364,94670,6,0,P|23:325|32:286,1,80,6|2,0:2|0:2,0:0:0:0:
103,229,95336,2,0,L|222:233,2,120,2|2|2,0:2|0:2|0:2,0:0:0:0:
16,195,96670,1,2,0:2:0:0:
13,103,97003,1,2,0:2:0:0:
98,70,97336,6,0,L|199:68,1,80,2|2,0:2|0:2,0:0:0:0:
248,9,98003,2,0,P|269:72|246:130,1,120,2|2,0:2|0:2,0:0:0:0:
198,194,98836,2,0,P|176:257|200:315,1,120,2|2,0:2|0:0,0:0:0:0:
257,371,99670,1,2,1:2:0:0:
348,370,100003,6,0,P|421:330|442:228,1,160,14|8,3:1|3:1,0:0:0:0:
434,169,101003,1,10,0:0:0:0:
383,92,101336,2,0,P|442:77|498:103,2,120,10|2|8,3:1|3:2|0:0,0:0:0:0:
302,136,102670,6,0,P|243:151|187:125,2,120,10|2|10,3:1|3:2|0:0,0:0:0:0:
383,92,104003,1,10,3:1:0:0:
397,182,104336,1,10,0:0:0:0:
353,263,104670,2,0,P|336:303|288:334,1,80,10|10,3:1|0:0,0:0:0:0:
222,359,105336,6,0,L|82:356,2,120,10|2|10,3:1|3:2|0:0,0:0:0:0:
308,326,106670,2,0,P|316:259|303:206,1,120,10|2,3:1|3:2,0:0:0:0:
239,86,107670,1,8,0:0:0:0:
161,132,108003,6,0,L|38:137,2,120,10|2|10,3:1|3:2|0:0,0:0:0:0:
239,86,109336,2,0,L|327:88,1,80,10|10,3:1|0:0,0:0:0:0:
322,179,110003,2,0,L|242:177,1,80,10|10,3:1|0:0,0:0:0:0:
161,132,110670,6,0,P|135:194|76:232,2,120,10|2|10,3:1|3:2|0:0,0:0:0:0:
129,45,112003,2,0,L|2:43,1,120,10|2,3:1|3:2,0:0:0:0:
20,180,113003,1,10,0:0:0:0:
49,266,113336,6,0,P|42:319|6:380,2,120,10|2|10,3:1|3:2|0:0,0:0:0:0:
20,180,114670,1,10,3:1:0:0:
110,162,115003,1,10,0:0:0:0:
179,223,115336,2,0,P|216:235|255:228,1,80,10|10,3:1|0:0,0:0:0:0:
343,197,116003,6,0,P|407:183|468:197,2,120,10|2|10,3:1|3:2|0:0,0:0:0:0:
255,227,117336,2,0,L|256:96,1,120,10|2,3:1|3:2,0:0:0:0:
371,33,118336,1,8,0:0:0:0:
438,96,118670,6,0,L|437:223,2,120,10|2|10,3:1|3:2|0:0,0:0:0:0:
371,33,120003,2,0,L|281:31,1,80,10|10,3:1|3:2,0:0:0:0:
211,77,120670,2,0,L|121:75,1,80,10|10,3:1|0:0,0:0:0:0:
61,14,121336,6,0,B|31:54|29:108|77:159|77:159|117:204|116:264|70:325,1,320,6|6,1:2|1:2,0:0:0:0:
