osu file format v14

[General]
AudioFilename: audio.mp3
AudioLeadIn: 0
PreviewTime: 49253
Countdown: 0
SampleSet: Normal
StackLeniency: 0.4
Mode: 0
LetterboxInBreaks: 0
EpilepsyWarning: 1
WidescreenStoryboard: 1

[Editor]
Bookmarks: 6663,17329,22663,27996,49329,51996,61413,61579,61663,61746,61829,61996,62163,62246,62329,62413,62496,62579,62663,62746,62913,62996,63079,63163,63329,63496,70663,73329,84413,94663,99996,121329,122663
DistanceSpacing: 0.5
BeatDivisor: 4
GridSize: 4
TimelineZoom: 2.25

[Metadata]
Title:POTOMIRU PINERA
TitleUnicode:ポトミル ピニェラ
Artist:Fotzu
ArtistUnicode:Fotzu
Creator:TheShadowOfDark
Version:Collab Insane
Source:東方Project
Tags:Chilean Chile おてんば恋娘 cirno chirumiru misamirú misamiru youtube touhou Beloved Tomboyish Girl hazu- wolf3211 tatan -_tatan_- チルミルチルノ Sebastián Sebastian Piñera videogame japanese spanish video game ytpmv 音MAD
BeatmapID:2163406
BeatmapSetID:1032450

[Difficulty]
HPDrainRate:5
CircleSize:3.8
OverallDifficulty:7.4
ApproachRate:9
SliderMultiplier:1.5
SliderTickRate:1

[Events]
//Background and Video events
Video,500,"yporelmarepoto.mp4"
0,0,"bgculiao.jpg",0,0
//Break Periods
2,8203,15246
//Storyboard Layer 0 (Background)
//Storyboard Layer 1 (Fail)
//Storyboard Layer 2 (Pass)
//Storyboard Layer 3 (Foreground)
//Storyboard Layer 4 (Overlay)
//Storyboard Sound Samples

[TimingPoints]
1337,333.333333333333,4,1,1,50,1,0
1586,-100,4,1,1,5,0,0
1670,-100,4,1,1,50,0,0
1920,-100,4,1,1,5,0,0
2003,-100,4,1,1,50,0,0
3586,-100,4,1,1,5,0,0
3670,-100,4,1,1,50,0,0
4253,-100,4,1,1,5,0,0
4336,-100,4,1,1,50,0,0
4586,-100,4,1,1,5,0,0
4670,-100,4,1,1,50,0,0
6670,-100,4,1,1,50,0,0
8003,-100,4,3,1,50,0,0
16003,-111.111111111111,4,2,1,50,0,0
17336,-90.9090909090909,4,3,1,70,0,1
28003,-100,4,2,1,70,0,0
50670,-117.647058823529,4,2,1,70,0,0
50753,-333.333333333333,4,2,1,5,0,0
51586,-117.647058823529,4,2,1,50,0,0
52003,-83.3333333333333,4,2,1,70,0,1
61336,-125,4,2,1,70,0,0
62670,-83.3333333333333,4,2,1,70,0,1
73336,-100,4,2,1,70,0,0
77586,-100,4,2,1,5,0,0
77670,-100,4,2,1,70,0,0
78586,-100,4,2,1,5,0,0
78670,-100,4,2,1,70,0,0
81253,-100,4,2,1,5,0,0
81336,-100,4,2,1,70,0,0
89253,-100,4,2,1,5,0,0
89336,-100,4,2,1,70,0,0
94670,-100,4,1,1,50,0,0
94920,-100,4,1,1,5,0,0
95003,-100,4,1,1,50,0,0
95253,-100,4,1,1,5,0,0
95336,-100,4,1,1,50,0,0
96920,-100,4,1,1,5,0,0
97003,-100,4,1,1,50,0,0
97586,-100,4,1,1,5,0,0
97670,-100,4,1,1,50,0,0
97920,-100,4,1,1,5,0,0
98003,-100,4,1,1,50,0,0
99336,-125,4,2,1,55,0,0
100003,-100,4,2,1,70,0,0
122670,-125,4,2,1,70,0,0
122920,-76.9230769230769,4,2,1,5,0,0

[Colours]
Combo1 : 178,178,178
Combo2 : 66,46,250
Combo3 : 0,168,249
Combo4 : 132,132,255

[HitObjects]
60,126,1337,6,0,P|71:76|136:57,1,112.5,2|0,0:2|2:2,0:0:0:0:
268,54,1670,2,0,P|214:61|146:72,1,112.5,2|0,0:2|2:2,0:0:0:0:
124,54,2003,1,2,0:2:0:0:
224,176,2170,1,0,0:2:0:0:
362,30,2336,2,0,P|355:75|348:115,1,75,2|2,0:2|0:2,0:0:0:0:
350,104,2836,5,0,0:2:0:0:
410,296,3003,1,2,0:2:0:0:
497,159,3170,1,0,0:2:0:0:
282,253,3336,2,0,B|235:258|235:258|226:263|226:263|216:260|216:260|172:264,1,112.5,2|0,0:2|2:2,0:0:0:0:
138,245,3670,1,2,0:2:0:0:
138,245,4003,6,0,P|144:299|153:359,1,112.5,2|0,0:2|2:2,0:0:0:0:
44,279,4336,2,0,P|37:223|30:168,1,112.5,2|0,0:2|2:2,0:0:0:0:
49,134,4670,1,2,0:2:0:0:
138,245,4836,1,0,0:2:0:0:
260,134,5003,2,0,P|221:140|173:150,1,75,2|2,0:2|0:2,0:0:0:0:
186,147,5503,2,0,P|260:168|331:190,1,150,2|2,0:2|0:2,0:0:0:0:
512,245,6003,2,0,P|440:267|368:287,1,150,2|2,0:2|0:2,0:0:0:0:
479,111,6670,5,6,0:2:0:0:
256,192,6753,12,0,8003,0:0:0:0:
91,347,16003,5,6,0:0:0:0:
175,244,16170,2,0,L|165:203,3,33.7499989700318,0|0|0|0,3:2|3:2|3:2|3:2,0:0:0:0:
176,182,16503,2,0,P|141:188|108:195,1,67.4999979400635,2|2,3:2|3:2,0:0:0:0:
209,57,16836,1,0,3:2:0:0:
223,63,16919,1,0,0:0:0:0:
237,70,17003,6,0,L|269:65,3,33.7499989700318,10|0|0|0,3:1|0:0|0:0|0:0,0:0:0:0:
358,53,17336,6,0,L|371:95,1,41.2500012588501,14|0,0:1|0:0,0:0:0:0:
403,109,17503,2,0,L|416:151,1,41.2500012588501,0|0,0:0|0:0,0:0:0:0:
448,165,17670,2,0,P|437:227|423:295,1,123.75000377655,10|2,0:2|0:2,0:0:0:0:
294,365,18086,1,0,0:0:0:0:
294,365,18170,2,0,L|304:311,1,41.2500012588501,0|0,0:0|0:0,0:0:0:0:
322,232,18336,2,0,P|282:243|234:256,1,82.5000025177003,10|0,0:2|0:0,0:0:0:0:
66,372,18670,6,0,L|76:318,1,41.2500012588501,10|0,0:1|0:0,0:0:0:0:
62,296,18836,2,0,L|72:242,1,41.2500012588501,0|0,0:0|0:0,0:0:0:0:
56,220,19003,2,0,P|80:154|55:107,1,123.75000377655,10|2,0:2|0:2,0:0:0:0:
23,93,19336,2,0,L|62:81,1,41.2500012588501,8|0,0:1|0:0,0:0:0:0:
169,3,19503,1,0,0:0:0:0:
206,177,19670,2,0,P|191:140|173:93,1,82.5000025177003,10|0,0:2|0:0,0:0:0:0:
315,17,20003,6,0,L|332:61,1,41.2500012588501,10|0,0:1|0:0,0:0:0:0:
320,91,20170,2,0,L|337:135,1,41.2500012588501,0|0,0:0|0:0,0:0:0:0:
325,165,20336,2,0,P|384:147|449:130,1,123.75000377655,10|2,0:2|0:2,0:0:0:0:
501,246,20753,1,0,0:0:0:0:
501,246,20836,2,0,P|471:253|441:262,1,41.2500012588501,0|0,0:0|0:0,0:0:0:0:
393,366,21003,2,0,P|398:329|371:287,1,82.5000025177003,10|0,0:2|0:0,0:0:0:0:
206,177,21336,6,0,P|212:200|226:221,1,41.2500012588501,10|0,0:1|0:0,0:0:0:0:
253,233,21503,2,0,P|262:250|267:270,1,41.2500012588501,0|0,0:0|0:0,0:0:0:0:
267,308,21670,2,0,B|223:316|223:316|207:324|207:324|191:324|191:324|141:334,1,123.75000377655,10|2,0:2|0:2,0:0:0:0:
123,357,22003,2,0,L|111:317,1,41.2500012588501,8|0,0:1|0:0,0:0:0:0:
79,191,22170,1,0,0:0:0:0:
7,349,22336,1,10,0:2:0:0:
88,175,22503,1,0,0:0:0:0:
0,41,22670,6,0,L|41:35,1,41.2500012588501,10|0,0:1|0:0,0:0:0:0:
71,47,22836,2,0,L|112:41,1,41.2500012588501,0|0,0:0|0:0,0:0:0:0:
146,48,23003,2,0,B|202:37|202:37|208:39|208:39|268:28,1,123.75000377655,10|2,0:2|0:2,0:0:0:0:
434,57,23420,1,0,0:0:0:0:
434,57,23503,2,0,P|409:61|385:65,1,41.2500012588501,0|0,0:0|0:0,0:0:0:0:
342,193,23670,2,0,B|334:156|334:156|334:151|334:151|326:111,1,82.5000025177003,10|0,0:2|0:0,0:0:0:0:
484,183,24003,6,0,L|492:223,1,41.2500012588501,10|0,0:1|0:0,0:0:0:0:
483,255,24170,2,0,L|491:295,1,41.2500012588501,0|0,0:0|0:0,0:0:0:0:
482,327,24336,2,0,P|423:337|359:348,1,123.75000377655,10|2,0:2|0:2,0:0:0:0:
328,336,24670,2,0,L|337:386,1,41.2500012588501,8|0,0:1|0:0,0:0:0:0:
255,262,24836,1,0,0:0:0:0:
115,362,25003,2,0,P|155:354|196:346,1,82.5000025177003,10|0,0:2|0:0,0:0:0:0:
49,283,25336,6,0,P|58:260|59:234,3,41.2500012588501,10|8|8|8,0:1|0:1|0:1|0:1,0:0:0:0:
51,211,25670,2,0,P|42:188|41:162,3,41.2500012588501,10|8|8|8,0:1|0:1|0:1|0:1,0:0:0:0:
61,145,26003,2,0,P|70:122|71:96,1,41.2500012588501,10|8,0:1|0:1,0:0:0:0:
147,26,26170,2,0,P|138:49|137:75,1,41.2500012588501,8|8,0:1|0:1,0:0:0:0:
172,179,26336,2,0,P|181:156|182:130,1,41.2500012588501,10|8,0:1|0:1,0:0:0:0:
258,60,26503,2,0,P|249:83|248:109,1,41.2500012588501,8|8,0:1|0:1,0:0:0:0:
339,101,26670,6,0,L|384:95,3,41.2500012588501,10|8|8|8,0:1|0:1|0:1|0:1,0:0:0:0:
409,81,27003,2,0,L|454:87,3,41.2500012588501,10|8|8|8,0:1|0:1|0:1|0:1,0:0:0:0:
481,77,27336,2,0,L|475:122,1,41.2500012588501,10|8,0:1|0:1,0:0:0:0:
423,199,27503,2,0,L|417:244,1,41.2500012588501,8|8,0:1|0:1,0:0:0:0:
352,331,27670,1,10,0:1:0:0:
349,290,27753,1,8,0:1:0:0:
320,261,27836,1,8,0:1:0:0:
280,258,27919,1,8,0:1:0:0:
247,282,28003,6,0,P|210:289|173:298,1,75,14|0,3:1|0:0,0:0:0:0:
34,214,28336,1,8,0:0:0:0:
65,363,28503,1,2,3:2:0:0:
158,212,28670,2,0,B|148:164|148:164|143:154|143:154|143:141|143:141|136:102|136:102|148:120|172:125,1,150,8|10,3:1|0:0,0:0:0:0:
216,35,29170,1,0,0:0:0:0:
362,111,29336,6,0,P|325:107|280:104,1,75,10|0,3:1|0:0,0:0:0:0:
450,52,29670,1,8,0:0:0:0:
493,208,29836,2,0,L|487:246,1,37.5,2|0,3:2|3:2,0:0:0:0:
463,264,30003,2,0,L|457:302,1,37.5,8|0,3:1|3:2,0:0:0:0:
433,320,30170,1,2,3:2:0:0:
281,246,30336,2,0,P|318:248|355:252,1,75,8|2,0:0|3:2,0:0:0:0:
197,356,30670,6,0,P|207:319|197:283,1,75,10|0,3:1|0:0,0:0:0:0:
78,170,31003,1,8,0:0:0:0:
34,295,31170,1,2,3:2:0:0:
163,200,31336,2,0,P|159:127|98:82,1,150,8|10,3:1|0:0,0:0:0:0:
78,170,31836,1,0,0:0:0:0:
246,30,32003,6,0,P|207:26|166:21,1,75,10|0,3:1|0:0,0:0:0:0:
250,126,32336,1,10,0:0:0:0:
361,28,32503,2,0,L|355:69,1,37.5,0|0,3:2|3:2,0:0:0:0:
371,90,32670,2,0,L|365:131,1,37.5,10|0,3:1|3:2,0:0:0:0:
381,152,32836,1,0,3:2:0:0:
499,41,33003,2,0,P|493:76|488:115,1,75,10|0,0:0|3:2,0:0:0:0:
489,335,33336,6,0,P|493:297|500:260,1,75,10|0,3:1|0:0,0:0:0:0:
381,152,33670,1,8,0:0:0:0:
367,283,33836,1,2,3:2:0:0:
201,277,34003,2,0,P|274:272|352:268,1,150,8|10,3:1|0:0,0:0:0:0:
263,160,34503,1,0,0:0:0:0:
103,323,34670,6,0,P|98:285|93:243,1,75,10|0,3:1|0:0,0:0:0:0:
79,115,35003,1,8,0:0:0:0:
235,48,35170,2,0,L|276:45,1,37.5,2|0,3:2|3:2,0:0:0:0:
300,54,35336,2,0,L|341:51,1,37.5,8|0,3:1|3:2,0:0:0:0:
365,60,35503,1,2,3:2:0:0:
492,26,35670,2,0,P|478:66|478:103,1,75,8|2,0:0|3:2,0:0:0:0:
511,245,36003,6,0,P|478:226|441:227,1,75,10|0,3:1|0:0,0:0:0:0:
290,286,36336,1,8,0:0:0:0:
413,339,36503,1,2,3:2:0:0:
298,159,36670,2,0,B|304:225|304:225|306:230|306:230|314:308,1,150,8|10,3:1|0:0,0:0:0:0:
197,253,37170,1,2,0:0:0:0:
63,358,37336,6,0,P|96:353|141:346,1,75,10|0,3:1|0:0,0:0:0:0:
197,253,37670,1,10,0:0:0:0:
75,112,37836,2,0,L|79:155,1,37.5,0|0,3:2|3:2,0:0:0:0:
96,173,38003,2,0,L|100:216,1,37.5,10|0,3:1|3:2,0:0:0:0:
117,234,38170,1,0,3:2:0:0:
176,107,38336,2,0,P|172:69|169:32,1,75,10|0,0:0|3:2,0:0:0:0:
292,89,38670,6,0,P|295:126|298:163,1,75,10|0,3:1|0:0,0:0:0:0:
470,231,39003,1,8,0:0:0:0:
416,76,39170,1,2,3:2:0:0:
348,226,39336,2,0,P|277:240|223:192,1,150,8|10,3:1|0:0,0:0:0:0:
169,32,39836,1,0,0:0:0:0:
1,124,40003,6,0,P|35:118|77:111,1,75,10|0,3:1|0:0,0:0:0:0:
169,32,40336,1,8,0:0:0:0:
223,191,40503,2,0,L|215:236,1,37.5,2|0,3:2|3:2,0:0:0:0:
198,251,40670,2,0,L|190:296,1,37.5,8|0,3:1|3:2,0:0:0:0:
173,311,40836,1,2,3:2:0:0:
323,243,41003,2,0,P|328:205|334:168,1,75,10|0,0:0|3:2,0:0:0:0:
364,12,41336,6,0,P|327:21|291:30,1,75,10|0,3:1|0:0,0:0:0:0:
439,98,41670,1,8,0:0:0:0:
489,9,41836,1,2,3:2:0:0:
479,197,42003,2,0,B|413:183|413:183|409:179|409:179|402:181|402:181|326:167,1,150,8|10,3:1|0:0,0:0:0:0:
207,140,42503,1,0,0:0:0:0:
257,335,42670,6,0,P|248:297|238:261,1,75,10|0,3:1|0:0,0:0:0:0:
207,140,43003,1,10,0:0:0:0:
76,242,43170,2,0,L|64:198,1,37.5,0|0,3:2|3:2,0:0:0:0:
45,185,43337,2,0,L|33:141,1,37.5,10|0,3:1|3:2,0:0:0:0:
14,128,43503,1,0,3:2:0:0:
148,30,43670,2,0,P|111:43|73:37,1,75,10|0,0:0|3:2,0:0:0:0:
207,140,44003,6,0,P|244:127|281:132,1,75,10|0,3:1|0:0,0:0:0:0:
416,225,44336,1,8,0:0:0:0:
354,97,44503,1,2,3:2:0:0:
281,317,44670,2,0,B|267:268|267:268|267:251|267:251|253:203|253:203|250:237,1,150,8|10,3:1|0:0,0:0:0:0:
139,310,45170,1,0,0:0:0:0:
35,148,45336,6,0,P|41:186|46:222,1,75,10|0,3:1|0:0,0:0:0:0:
139,310,45670,1,8,0:0:0:0:
169,144,45836,2,0,L|213:139,1,37.5,2|0,3:2|3:2,0:0:0:0:
233,125,46003,2,0,L|277:120,1,37.5,8|0,3:1|3:2,0:0:0:0:
297,106,46170,1,2,3:2:0:0:
416,225,46336,2,0,P|406:183|397:146,1,75,8|2,0:0|3:2,0:0:0:0:
477,12,46670,6,0,P|485:48|494:84,1,75,10|0,3:1|0:0,0:0:0:0:
416,225,47003,1,8,0:0:0:0:
379,60,47170,1,2,3:2:0:0:
512,179,47336,2,0,P|496:252|479:330,1,150,8|10,3:1|0:0,0:0:0:0:
319,292,47836,1,2,0:0:0:0:
135,359,48003,6,0,P|173:360|207:341,1,75,10|0,3:1|0:0,0:0:0:0:
141,233,48336,1,10,3:2:0:0:
215,77,48503,2,0,L|222:118,1,37.5,0|0,0:0|3:2,0:0:0:0:
244,133,48670,2,0,L|251:174,1,37.5,10|0,3:1|3:2,0:0:0:0:
273,189,48836,1,0,3:2:0:0:
130,125,49003,2,0,P|122:80|116:48,1,75,10|0,0:0|0:0,0:0:0:0:
322,87,49336,5,6,1:2:0:0:
378,5,49503,1,2,0:0:0:0:
215,77,49670,1,2,0:0:0:0:
369,200,49836,2,0,B|363:260|363:260|365:269|365:269|356:354,1,150,2|2,1:2|0:0,0:0:0:0:
460,269,50336,1,2,1:2:0:0:
256,357,50670,6,0,B|238:202|238:202|292:156|333:191|342:226|325:253|307:278|257:260,1,350.625006687641,6|0,1:2|1:0,0:0:0:0:
269,263,51670,1,0,1:0:0:0:
178,368,51836,2,0,L|173:329,1,31.8750006079674,0|0,1:0|1:0,0:0:0:0:
82,242,52003,6,0,L|96:334,1,89.9999972534181,14|0,3:1|0:0,0:0:0:0:
28,368,52253,1,0,0:0:0:0:
28,368,52336,2,0,L|13:272,1,89.9999972534181,10|0,0:0|3:2,0:0:0:0:
30,140,52670,2,0,L|37:91,3,44.999998626709,10|0|0|0,3:1|0:0|0:0|0:0,0:0:0:0:
40,57,53003,2,0,B|75:60|75:60|84:59|84:59|93:62|93:62|135:67,1,89.9999972534181,10|2,0:0|0:0,0:0:0:0:
226,84,53253,1,0,0:0:0:0:
226,84,53336,6,0,P|199:116|204:186,1,89.9999972534181,10|0,3:1|0:0,0:0:0:0:
343,306,53670,2,0,B|383:299|383:299|389:301|389:301|436:292,1,89.9999972534181,10|0,0:0|3:2,0:0:0:0:
476,208,53920,1,0,3:2:0:0:
476,208,54003,2,0,P|450:212|431:215,1,44.999998626709,10|0,3:1|3:2,0:0:0:0:
347,150,54170,2,0,P|369:146|391:143,1,44.999998626709,0|0,3:2|0:0,0:0:0:0:
461,50,54336,2,0,P|415:56|370:64,1,89.9999972534181,10|2,0:0|3:2,0:0:0:0:
246,78,54670,6,0,P|247:57|236:26,1,44.999998626709,10|0,3:1|0:0,0:0:0:0:
160,0,54836,2,0,P|155:19|155:45,1,44.999998626709,0|0,0:0|0:0,0:0:0:0:
174,131,55003,2,0,P|132:119|81:134,1,89.9999972534181,10|0,0:0|3:2,0:0:0:0:
61,320,55336,2,0,P|57:290|54:267,1,44.999998626709,10|0,3:1|0:0,0:0:0:0:
144,338,55503,2,0,P|140:308|137:285,1,44.999998626709,0|0,0:0|0:0,0:0:0:0:
225,352,55670,2,0,P|218:301|213:262,1,89.9999972534181,10|2,0:0|0:0,0:0:0:0:
345,176,56003,6,0,P|350:220|356:265,1,89.9999972534181,10|0,3:1|0:0,0:0:0:0:
441,291,56253,1,0,0:0:0:0:
441,291,56336,2,0,P|436:267|431:243,1,44.999998626709,10|0,0:0|0:0,0:0:0:0:
483,146,56503,2,0,P|488:170|493:194,1,44.999998626709,0|0,3:2|3:2,0:0:0:0:
406,100,56670,2,0,P|401:76|396:52,1,44.999998626709,10|0,3:1|3:2,0:0:0:0:
299,25,56836,1,0,3:2:0:0:
299,25,56920,1,0,0:0:0:0:
299,25,57003,2,0,L|307:71,2,44.999998626709,10|0|2,0:0|0:0|3:2,0:0:0:0:
200,204,57336,6,0,L|196:249,1,44.999998626709,10|0,3:1|0:0,0:0:0:0:
275,266,57503,2,0,L|270:310,1,44.999998626709,0|0,0:0|0:0,0:0:0:0:
344,370,57670,2,0,P|356:322|401:290,1,89.9999972534181,10|0,0:0|3:2,0:0:0:0:
512,347,57920,1,0,3:2:0:0:
512,347,58003,2,0,P|502:303|494:258,1,89.9999972534181,10|0,3:1|0:0,0:0:0:0:
428,116,58336,2,0,L|435:161,1,44.999998626709,10|0,0:0|0:0,0:0:0:0:
506,57,58503,2,0,L|513:102,1,44.999998626709,2|0,0:0|0:0,0:0:0:0:
419,24,58670,6,0,B|384:27|384:27|375:26|375:26|366:29|366:29|324:34,1,89.9999972534181,10|0,3:1|0:0,0:0:0:0:
186,5,59003,2,0,P|203:39|202:101,1,89.9999972534181,10|0,0:0|3:2,0:0:0:0:
160,168,59253,1,0,3:2:0:0:
160,168,59336,2,0,L|100:167,1,44.999998626709,10|0,3:1|3:2,0:0:0:0:
92,82,59503,2,0,L|32:81,1,44.999998626709,0|0,3:2|0:0,0:0:0:0:
5,152,59670,2,0,P|-2:192|9:250,1,89.9999972534181,10|2,0:0|3:2,0:0:0:0:
54,365,60003,6,0,P|77:363|104:353,1,44.999998626709,10|0,3:1|0:0,0:0:0:0:
162,302,60170,2,0,P|182:296|219:299,1,44.999998626709,0|0,0:0|0:0,0:0:0:0:
301,362,60336,2,0,P|256:369|207:376,1,89.9999972534181,10|0,0:0|3:2,0:0:0:0:
307,273,60586,1,0,3:2:0:0:
307,273,60670,2,0,P|334:268|357:265,1,44.999998626709,10|0,3:1|0:0,0:0:0:0:
434,333,60836,2,0,P|411:336|389:340,1,44.999998626709,0|0,0:0|0:0,0:0:0:0:
421,161,61003,2,0,B|438:195|438:195|430:253,1,89.9999972534181,10|2,0:0|0:0,0:0:0:0:
335,145,61253,1,0,0:0:0:0:
335,145,61336,6,0,P|300:84|369:114,1,180,14|2,3:1|0:0,0:0:0:0:
240,18,62170,1,0,1:0:0:0:
209,29,62253,1,0,1:0:0:0:
178,41,62336,2,0,L|137:33,3,30,8|0|2|0,0:0|0:0|1:0|1:0,0:0:0:0:
96,25,62670,6,0,L|103:80,3,44.999998626709,14|0|0|0,3:1|0:0|0:0|0:0,0:0:0:0:
61,102,63003,2,0,L|60:168,1,44.999998626709,10|0,0:0|0:0,0:0:0:0:
140,180,63170,2,0,L|139:246,1,44.999998626709,0|0,3:2|3:2,0:0:0:0:
185,301,63336,2,0,P|132:314|73:283,1,89.9999972534181,10|0,3:1|0:0,0:0:0:0:
233,222,63587,1,0,0:0:0:0:
233,222,63670,2,0,P|286:209|345:240,1,89.9999972534181,10|2,0:0|0:0,0:0:0:0:
449,307,64003,6,0,L|444:255,1,44.999998626709,10|0,3:1|0:0,0:0:0:0:
509,221,64170,2,0,L|505:171,1,44.999998626709,0|0,0:0|0:0,0:0:0:0:
430,157,64336,2,0,B|427:109|427:109|432:100|432:100|430:68,1,89.9999972534181,10|0,0:0|3:2,0:0:0:0:
320,15,64670,2,0,P|265:15|218:52,1,89.9999972534181,10|0,3:1|3:2,0:0:0:0:
167,122,64920,1,0,0:0:0:0:
167,122,65003,2,0,L|163:62,1,44.999998626709,10|0,0:0|0:0,0:0:0:0:
89,60,65170,2,0,L|85:0,1,44.999998626709,2|0,3:2|3:2,0:0:0:0:
6,89,65336,6,0,B|9:159|9:159|43:195,1,89.9999972534181,10|0,3:1|0:0,0:0:0:0:
95,231,65586,1,0,0:0:0:0:
95,231,65670,2,0,P|32:230|-6:256,1,89.9999972534181,10|0,0:0|3:2,0:0:0:0:
109,353,66003,2,0,B|160:352|160:352|168:348|168:348|209:347,1,89.9999972534181,10|0,3:1|0:0,0:0:0:0:
278,314,66253,1,0,0:0:0:0:
278,314,66336,2,0,L|274:366,1,44.999998626709,10|0,0:0|0:0,0:0:0:0:
204,260,66503,2,0,L|200:215,1,44.999998626709,2|0,0:0|0:0,0:0:0:0:
301,120,66670,5,10,3:1:0:0:
301,120,66753,1,0,0:0:0:0:
301,120,66836,2,0,L|298:185,1,44.999998626709,0|0,0:0|0:0,0:0:0:0:
381,201,67003,2,0,L|387:83,1,89.9999972534181,10|0,0:0|3:2,0:0:0:0:
507,197,67336,2,0,P|508:229|497:299,1,89.9999972534181,10|0,3:1|3:2,0:0:0:0:
464,360,67586,1,0,0:0:0:0:
464,360,67670,2,0,B|417:359|417:359|413:353|413:353|363:353,1,89.9999972534181,10|2,0:0|3:2,0:0:0:0:
233,310,68003,6,0,L|242:361,3,44.999998626709,10|0|0|0,3:1|0:0|0:0|0:0,0:0:0:0:
111,278,68336,2,0,P|146:351|171:313,1,134.999995880127,10|0,0:0|3:2,0:0:0:0:
184,239,68670,2,0,L|176:132,1,89.9999972534181,10|0,3:1|0:0,0:0:0:0:
151,24,69003,2,0,P|192:19|254:53,1,89.9999972534181,10|2,0:0|0:0,0:0:0:0:
312,98,69252,1,0,0:0:0:0:
312,98,69336,6,0,B|321:35|321:35|345:66,1,89.9999972534181,10|0,3:1|0:0,0:0:0:0:
318,253,69670,2,0,L|318:321,1,44.999998626709,10|0,0:0|0:0,0:0:0:0:
234,316,69836,2,0,L|234:384,1,44.999998626709,0|0,3:2|3:2,0:0:0:0:
190,244,70003,2,0,L|190:199,3,44.999998626709,10|0|0|0,3:1|3:2|3:2|0:0,0:0:0:0:
174,160,70336,2,0,L|174:115,3,44.999998626709,10|0|2|0,0:0|0:0|3:2|3:2,0:0:0:0:
217,32,70670,5,10,3:1:0:0:
265,21,70753,1,8,3:1:0:0:
313,28,70836,1,8,3:1:0:0:
355,54,70920,1,8,3:1:0:0:
379,96,71003,2,0,P|391:117|400:148,3,44.999998626709,10|8|8|8,3:1|3:1|3:1|3:1,0:0:0:0:
369,178,71336,2,0,P|370:201|366:225,3,44.999998626709,10|8|8|8,3:1|3:1|3:1|3:1,0:0:0:0:
335,257,71670,2,0,L|232:252,1,89.9999972534181,10|10,3:1|3:1,0:0:0:0:
200,106,72003,5,10,3:1:0:0:
220,66,72086,1,8,3:1:0:0:
257,33,72170,1,8,3:1:0:0:
305,22,72253,1,8,3:1:0:0:
354,21,72336,2,0,L|429:25,3,44.999998626709,10|8|8|8,3:1|3:1|3:1|3:1,0:0:0:0:
490,46,72670,1,10,3:1:0:0:
488,72,72753,1,8,3:1:0:0:
486,98,72836,2,0,L|482:156,1,44.999998626709,10|8,3:1|3:1,0:0:0:0:
408,131,73003,2,0,L|404:189,1,44.999998626709,10|8,3:1|3:1,0:0:0:0:
327,165,73170,2,0,L|323:223,1,44.999998626709,10|8,3:1|3:1,0:0:0:0:
247,196,73336,6,0,B|180:193|180:193|165:184|165:184|91:183,1,150,6|8,1:2|0:0,0:0:0:0:
20,247,73836,1,2,0:0:0:0:
195,288,74003,2,0,P|138:269|99:277,1,75,2|0,1:2|0:0,0:0:0:0:
2,369,74336,2,0,P|59:350|98:358,1,75,10|0,0:0|0:0,0:0:0:0:
200,377,74670,6,0,P|124:341|216:197,1,300,2|0,1:2|1:2,0:0:0:0:
326,274,75503,1,2,0:0:0:0:
195,288,75670,1,10,0:0:0:0:
336,186,75836,1,0,0:0:0:0:
369,351,76003,6,0,P|366:280|357:194,1,150,2|8,1:2|0:0,0:0:0:0:
320,52,76503,1,2,0:0:0:0:
227,17,76670,2,0,P|218:65|239:112,1,75,2|0,1:2|0:0,0:0:0:0:
336,186,77003,2,0,P|294:173|239:190,1,75,10|0,0:0|0:0,0:0:0:0:
156,226,77336,6,0,B|161:278|161:278|167:288|167:288|171:353,1,112.5,2|0,1:2|0:0,0:0:0:0:
170,336,77670,1,8,0:0:0:0:
255,269,77836,1,0,0:0:0:0:
376,372,78003,2,0,L|301:370,1,75,0|0,1:0|0:0,0:0:0:0:
255,269,78336,2,0,L|379:265,1,112.5,10|0,0:0|0:0,0:0:0:0:
401,264,78670,6,0,P|332:222|350:80,1,225,2|2,1:2|0:0,0:0:0:0:
511,0,79336,1,2,1:2:0:0:
463,81,79503,1,0,0:0:0:0:
416,163,79670,1,10,0:0:0:0:
338,90,79836,1,0,0:0:0:0:
229,189,80003,6,0,P|289:175|321:185,2,75,2|0|10,1:2|0:0|0:0,0:0:0:0:
142,257,80503,1,0,0:0:0:0:
41,208,80670,1,2,1:2:0:0:
132,146,80836,1,0,0:0:0:0:
229,189,81003,2,0,P|235:252|219:328,1,112.5,10|0,0:0|0:0,0:0:0:0:
224,318,81336,6,0,L|308:311,1,75,2|0,1:2|0:0,0:0:0:0:
382,239,81670,1,10,0:0:0:0:
439,315,81836,1,0,0:0:0:0:
507,173,82003,2,0,P|446:177|417:161,1,75,2|0,1:2|0:0,0:0:0:0:
322,119,82336,1,10,0:0:0:0:
471,81,82503,1,0,0:0:0:0:
341,28,82670,6,0,P|262:33|201:71,1,150,2|8,1:2|0:0,0:0:0:0:
109,16,83170,1,2,0:0:0:0:
93,175,83336,2,0,L|101:86,1,75,2|0,1:2|0:0,0:0:0:0:
201,176,83670,1,10,0:0:0:0:
133,263,83836,1,0,0:0:0:0:
231,338,84003,6,0,P|273:308|394:338,1,150,6|10,1:2|0:0,0:0:0:0:
393,330,84420,1,0,0:0:0:0:
416,348,84503,2,0,L|415:254,1,75,2|2,0:0|1:2,0:0:0:0:
416,168,84836,1,0,0:0:0:0:
322,222,85003,2,0,L|323:283,2,37.5,10|0|0,0:0|0:0|0:0,0:0:0:0:
249,146,85336,6,0,L|94:138,1,150,2|10,1:2|0:0,0:0:0:0:
108,154,85753,1,0,0:0:0:0:
116,170,85836,1,2,0:0:0:0:
125,186,85920,1,0,0:0:0:0:
134,202,86003,1,2,1:2:0:0:
143,218,86086,1,0,0:0:0:0:
152,234,86170,1,2,0:0:0:0:
43,312,86336,2,0,P|34:265|44:232,1,75,10|0,0:0|0:0,0:0:0:0:
153,353,86670,6,0,B|197:338|227:350|227:350|261:365|308:348,1,150,2|10,1:2|0:0,0:0:0:0:
396,310,87086,1,0,0:0:0:0:
396,310,87170,2,0,L|393:387,2,75,2|2|2,0:0|1:2|0:0,0:0:0:0:
310,213,87670,1,10,0:0:0:0:
304,230,87753,1,0,0:0:0:0:
298,247,87836,1,2,0:0:0:0:
207,194,88003,6,0,P|200:118|216:43,1,150,2|10,1:2|0:0,0:0:0:0:
205,62,88420,1,0,0:0:0:0:
190,73,88503,1,2,0:0:0:0:
173,81,88586,1,0,0:0:0:0:
154,86,88670,1,2,1:2:0:0:
135,87,88753,1,0,0:0:0:0:
116,85,88836,1,2,0:0:0:0:
33,16,89003,2,0,P|11:65|27:142,1,112.5,10|0,0:0|0:0,0:0:0:0:
26,142,89336,6,0,P|41:217|18:289,1,150,2|10,1:2|0:0,0:0:0:0:
82,344,89752,1,0,0:0:0:0:
82,344,89836,2,0,L|176:341,1,75,2|2,0:0|1:2,0:0:0:0:
194,254,90170,1,0,0:0:0:0:
269,340,90336,2,0,L|270:294,2,37.5,10|0|2,0:0|0:0|0:0,0:0:0:0:
360,309,90670,6,0,B|360:264|335:241|335:241|305:207|318:147,1,150,2|10,1:2|0:0,0:0:0:0:
314,170,91086,1,0,0:0:0:0:
314,170,91170,1,2,0:0:0:0:
354,78,91336,2,0,P|297:72|259:90,1,75,2|2,1:2|0:0,0:0:0:0:
429,175,91670,2,0,L|426:137,2,37.5,10|0|2,0:0|0:0|0:0,0:0:0:0:
432,278,92003,6,0,P|415:240|308:227,1,150,2|10,1:2|0:0,0:0:0:0:
248,270,92420,1,0,0:0:0:0:
248,270,92503,2,0,P|188:288|156:280,1,75,2|2,0:0|1:2,0:0:0:0:
70,265,92836,1,0,0:0:0:0:
119,367,93003,1,10,0:0:0:0:
119,367,93086,1,0,0:0:0:0:
119,367,93170,1,2,0:0:0:0:
23,198,93336,6,0,B|22:266|22:266|13:281|13:281|14:365,1,150,2|10,1:2|0:0,0:0:0:0:
13,345,93753,1,0,0:0:0:0:
13,345,93836,1,2,0:0:0:0:
119,367,94003,1,2,1:2:0:0:
219,310,94170,2,0,L|222:357,2,37.5,2|2|2,0:0|0:0|0:0,0:0:0:0:
213,204,94503,1,2,0:0:0:0:
321,252,94670,6,0,P|377:252|425:224,1,112.5,6|0,0:2|2:2,0:0:0:0:
477,161,95003,2,0,L|472:287,1,112.5,2|0,0:2|2:2,0:0:0:0:
468,353,95336,1,2,0:2:0:0:
380,283,95503,1,0,0:2:0:0:
304,373,95670,2,0,L|215:364,1,75,2|2,0:2|0:2,0:0:0:0:
229,365,96170,5,0,0:2:0:0:
41,231,96337,1,2,0:2:0:0:
72,357,96504,1,0,0:2:0:0:
200,153,96670,2,0,B|197:211|197:211|193:221|193:221|191:287,1,112.5,2|0,0:2|2:2,0:0:0:0:
171,296,97004,1,2,0:2:0:0:
171,296,97337,6,0,L|299:287,1,112.5,2|0,0:2|2:2,0:0:0:0:
390,214,97670,2,0,L|262:205,1,112.5,2|0,0:2|2:2,0:0:0:0:
200,153,98004,1,2,0:2:0:0:
283,288,98170,1,0,0:2:0:0:
382,129,98336,2,0,L|472:121,1,75,2|2,0:2|0:2,0:0:0:0:
456,122,98836,2,0,P|445:189|467:270,1,150,2|2,0:2|0:2,0:0:0:0:
376,368,99336,6,0,L|294:362,1,60,2|0,0:0|1:0,0:0:0:0:
283,288,99586,1,0,1:0:0:0:
283,288,99670,2,0,L|201:282,1,60,2|0,1:2|0:0,0:0:0:0:
137,316,100003,6,0,P|129:288|143:236,1,75,14|0,3:1|0:0,0:0:0:0:
261,145,100336,1,8,0:0:0:0:
131,121,100503,1,2,3:2:0:0:
238,47,100670,2,0,B|295:45|295:45|325:63|325:63|398:60,1,150,8|10,3:1|0:0,0:0:0:0:
497,52,101170,1,0,0:0:0:0:
407,216,101336,6,0,L|420:134,1,75,10|0,3:1|0:0,0:0:0:0:
501,279,101670,1,8,0:0:0:0:
395,320,101836,2,0,L|357:326,1,37.5,2|0,3:2|3:2,0:0:0:0:
332,308,102003,2,0,L|294:314,1,37.5,8|0,3:1|3:2,0:0:0:0:
269,297,102170,1,2,3:2:0:0:
180,245,102336,2,0,P|164:282|170:331,1,75,8|2,0:0|3:2,0:0:0:0:
270,177,102670,5,10,3:1:0:0:
176,128,102836,1,0,0:0:0:0:
105,252,103003,2,0,L|189:244,1,75,8|2,0:0|3:2,0:0:0:0:
13,212,103336,2,0,B|-3:254|16:291|16:291|30:322|6:377,1,150,8|10,3:1|0:0,0:0:0:0:
148,338,103836,1,0,0:0:0:0:
254,237,104003,6,0,L|179:244,1,75,10|0,3:1|0:0,0:0:0:0:
316,328,104336,1,10,0:0:0:0:
336,213,104503,2,0,L|330:175,1,37.5,0|0,3:2|3:2,0:0:0:0:
346,151,104670,2,0,L|340:113,1,37.5,10|0,3:1|3:2,0:0:0:0:
356,89,104836,1,0,3:2:0:0:
177,67,105003,2,0,P|211:91|268:91,1,75,10|0,0:0|3:2,0:0:0:0:
395,4,105336,6,0,P|359:-6|323:1,1,75,10|0,3:1|0:0,0:0:0:0:
346,151,105670,1,8,0:0:0:0:
460,96,105836,1,2,3:2:0:0:
466,250,106003,2,0,P|478:169|463:88,1,150,8|10,3:1|0:0,0:0:0:0:
395,4,106503,1,0,0:0:0:0:
346,151,106670,5,10,3:1:0:0:
243,96,106836,1,0,0:0:0:0:
248,202,107003,1,8,0:0:0:0:
148,153,107170,2,0,L|107:160,1,37.5,2|0,3:2|3:2,0:0:0:0:
86,174,107336,2,0,L|45:181,1,37.5,8|0,3:1|3:2,0:0:0:0:
24,196,107503,1,2,3:2:0:0:
115,330,107670,2,0,P|120:291|114:255,1,75,8|2,0:0|3:2,0:0:0:0:
248,202,108003,6,0,P|242:240|248:276,1,75,10|0,3:1|0:0,0:0:0:0:
304,359,108336,1,8,0:0:0:0:
379,243,108503,1,2,3:2:0:0:
444,366,108670,2,0,B|440:316|440:316|464:274|464:274|460:217,1,150,8|10,3:1|0:0,0:0:0:0:
364,129,109170,1,2,0:0:0:0:
379,243,109336,5,10,3:1:0:0:
248,202,109503,1,0,0:0:0:0:
495,170,109670,1,10,0:0:0:0:
364,129,109836,2,0,L|321:122,1,37.5,0|0,3:2|3:2,0:0:0:0:
305,103,110003,2,0,L|262:96,1,37.5,10|0,3:1|3:2,0:0:0:0:
246,78,110170,1,0,3:2:0:0:
140,172,110336,2,0,P|148:131|134:87,1,75,10|0,0:0|3:2,0:0:0:0:
29,147,110670,5,10,3:1:0:0:
111,258,110836,1,0,0:0:0:0:
19,272,111003,2,0,L|112:269,1,75,8|2,0:0|3:2,0:0:0:0:
246,340,111336,2,0,P|204:289|241:192,1,150,8|10,3:1|0:0,0:0:0:0:
309,146,111836,1,0,0:0:0:0:
372,229,112003,6,0,L|453:227,1,75,10|0,3:1|0:0,0:0:0:0:
419,93,112336,1,8,0:0:0:0:
309,146,112503,2,0,L|302:109,1,37.5,2|0,3:2|3:2,0:0:0:0:
284,86,112670,2,0,L|277:49,1,37.5,8|0,3:1|3:2,0:0:0:0:
259,26,112836,1,0,3:2:0:0:
168,104,113003,2,0,P|116:110|90:98,1,75,10|0,0:0|3:2,0:0:0:0:
0,39,113336,6,0,L|5:142,2,75,10|0|8,3:1|0:0|0:0,0:0:0:0:
64,190,113836,1,2,3:2:0:0:
168,104,114003,2,0,P|183:182|161:275,1,150,8|10,3:1|0:0,0:0:0:0:
115,343,114503,1,0,0:0:0:0:
294,362,114670,6,0,L|211:358,1,75,10|0,3:1|0:0,0:0:0:0:
283,276,115003,1,10,0:0:0:0:
391,353,115170,2,0,L|395:315,1,37.5,0|0,3:2|3:2,0:0:0:0:
412,291,115337,2,0,L|416:253,1,37.5,10|0,3:1|3:2,0:0:0:0:
434,230,115503,1,0,3:2:0:0:
472,113,115670,2,0,P|435:126|397:120,1,75,10|0,0:0|3:2,0:0:0:0:
198,64,116003,6,0,P|235:51|272:56,1,75,10|0,3:1|0:0,0:0:0:0:
344,196,116336,1,8,0:0:0:0:
246,146,116503,1,2,3:2:0:0:
237,307,116670,2,0,L|239:156,1,150,8|10,3:1|0:0,0:0:0:0:
139,284,117170,1,0,0:0:0:0:
52,212,117336,6,0,L|46:137,1,75,10|0,3:1|0:0,0:0:0:0:
13,295,117670,1,8,0:0:0:0:
150,190,117836,2,0,L|194:185,1,37.5,2|0,3:2|3:2,0:0:0:0:
214,171,118003,2,0,L|258:166,1,37.5,8|0,3:1|3:2,0:0:0:0:
278,152,118170,1,2,3:2:0:0:
308,311,118336,2,0,P|271:319|236:306,1,75,8|2,0:0|3:2,0:0:0:0:
356,226,118670,5,10,3:1:0:0:
410,326,118836,1,0,0:0:0:0:
478,225,119003,1,8,0:0:0:0:
424,125,119169,1,2,3:2:0:0:
356,226,119336,2,0,P|282:249|190:222,1,150,8|10,3:1|0:0,0:0:0:0:
127,153,119836,1,2,0:0:0:0:
44,218,120003,6,0,L|52:305,1,75,10|0,3:1|0:0,0:0:0:0:
156,337,120336,1,10,3:2:0:0:
212,234,120503,2,0,L|219:193,1,37.5,0|0,0:0|3:2,0:0:0:0:
241,178,120670,2,0,L|248:137,1,37.5,10|0,3:1|3:2,0:0:0:0:
270,122,120836,1,0,3:2:0:0:
438,188,121003,2,0,P|397:199|339:187,1,75,10|0,0:0|0:0,0:0:0:0:
381,69,121336,5,6,1:2:0:0:
489,267,121503,1,2,0:0:0:0:
512,82,121670,1,2,0:0:0:0:
364,196,121836,2,0,B|378:259|378:259|365:293|365:293|377:350,1,150,2|2,1:2|0:0,0:0:0:0:
283,248,122336,1,2,1:2:0:0:
43,55,122670,6,0,B|94:73|135:70|180:50|180:50|87:100|136:265,1,360,6|0,1:2|0:0,0:0:0:0:
