osu file format v14

[General]
AudioFilename: audio.mp3
AudioLeadIn: 0
PreviewTime: 101975
Countdown: 0
SampleSet: Soft
StackLeniency: 0.6
Mode: 0
LetterboxInBreaks: 0
EpilepsyWarning: 1
WidescreenStoryboard: 0

[Editor]
Bookmarks: 1316,8532,10779,14990,20356,23629,37667,38599,45613,45847,61277,97748
DistanceSpacing: 1
BeatDivisor: 4
GridSize: 8
TimelineZoom: 1.1

[Metadata]
Title:Pumped Up Kicks (Bridge and Law remix) 18+
TitleUnicode:Pumped Up Kicks (Bridge and Law remix) 18+
Artist:Foster The People
ArtistUnicode:Foster The People
Creator:brick64
Version:Insane
Source:
Tags:non-finished chill remix foster pumped up better run outrun my gun columbine
BeatmapID:1004532
BeatmapSetID:469767

[Difficulty]
HPDrainRate:6
CircleSize:4.3
OverallDifficulty:5.8
ApproachRate:7.7
SliderMultiplier:1.7
SliderTickRate:2

[Events]
//Background and Video events
0,0,"alltherotherkidswiththepumpedupkicksbetterrunbetterrunoutrunmygun-snaresnare-.jpg",0,0
//Break Periods
2,55837,97859
//Storyboard Layer 0 (Background)
//Storyboard Layer 1 (Fail)
//Storyboard Layer 2 (Pass)
//Storyboard Layer 3 (Foreground)
//Storyboard Sound Samples

[TimingPoints]
5,467.537403542678,4,2,0,100,1,0
8149,-100,4,2,0,100,0,0
16362,467.577403542678,4,2,0,100,1,0
106164,-66.6666666666667,4,2,0,100,0,1
120658,-100,4,2,0,100,0,0

[Colours]
Combo1 : 66,193,255
Combo2 : 45,150,255
Combo3 : 80,61,254
Combo4 : 12,109,182

[HitObjects]
128,64,1316,5,2,2:0:0:0:
144,200,2809,1,0,2:0:0:0:
248,256,3043,1,0,2:0:0:0:
288,152,3276,1,0,2:0:0:0:
368,256,3738,5,4,2:0:0:0:
392,184,4238,1,0,2:0:0:0:
144,80,4679,5,0,2:0:0:0:
88,176,4915,1,0,2:0:0:0:
144,272,5148,1,4,2:0:0:0:
368,80,5614,5,0,2:0:0:0:
424,176,5848,1,0,2:0:0:0:
368,272,6082,1,4,2:0:0:0:
256,128,6315,5,2,2:0:0:0:
256,256,6549,1,2,2:0:0:0:
290,104,6785,6,0,L|114:104,2,170
120,104,7954,1,0,0:0:0:0:
368,224,8653,5,0,2:0:0:0:
328,152,8889,1,0,2:0:0:0:
264,112,9122,1,0,2:0:0:0:
200,144,9356,1,0,2:0:0:0:
112,272,9590,2,0,L|192:272,1,79.687503039837
144,128,10291,5,4,2:0:0:0:
120,200,10525,1,0,2:0:0:0:
200,184,10759,1,4,2:0:0:0:
328,176,11225,1,0,0:0:0:0:
392,120,11692,1,0,0:0:0:0:
144,304,12161,5,0,0:0:0:0:
88,208,12395,1,0,0:0:0:0:
144,112,12629,1,0,0:0:0:0:
368,304,13096,5,0,0:0:0:0:
424,208,13330,1,0,0:0:0:0:
368,112,13564,1,0,0:0:0:0:
256,136,14031,5,0,0:0:0:0:
256,248,14264,1,0,0:0:0:0:
288,160,14498,6,0,L|384:160,1,85
224,160,14966,2,0,L|128:160,1,85
224,224,15433,2,0,L|128:224,1,85
288,224,15901,1,0,3:0:0:0:
256,192,16362,5,14,2:0:0:0:
256,192,16596,1,2,0:0:0:0:
304,312,16830,1,0,0:0:0:0:
456,240,17064,1,0,0:0:0:0:
360,232,17298,1,2,0:0:0:0:
256,192,17530,2,8,B|256:128|256:128|296:128,1,85
144,112,18231,1,0,0:0:0:0:
232,240,18700,1,0,0:0:0:0:
376,144,19168,1,8,0:0:0:0:
272,48,19634,5,0,0:0:0:0:
168,120,19867,1,0,0:0:0:0:
272,192,20101,2,0,P|272:368|272:368,1,170
176,256,20804,1,0,0:0:0:0:
88,184,21038,2,0,L|88:104,1,80
192,72,21738,1,0,0:0:0:0:
264,40,22205,1,0,0:0:0:0:
256,192,22673,6,0,L|376:192,1,85,0|0,2:0|0:0,0:0:0:0:
208,264,23376,2,0,L|320:264,2,85
136,264,24077,1,4,0:0:0:0:
176,200,24311,1,4,0:0:0:0:
96,200,24544,1,0,0:0:0:0:
88,120,24779,5,0,0:0:0:0:
88,48,25013,2,0,L|176:48,3,85
288,88,25948,1,0,0:0:0:0:
304,192,26182,5,0,0:0:0:0:
240,288,26415,1,2,0:0:0:0:
136,272,26649,1,0,0:0:0:0:
40,304,26883,1,2,0:0:0:0:
80,208,27117,1,0,0:0:0:0:
128,112,27350,1,2,0:0:0:0:
224,96,27584,1,0,0:0:0:0:
304,32,27818,1,2,0:0:0:0:
136,168,28052,5,4,0:0:0:0:
208,168,28286,1,4,0:0:0:0:
64,168,28519,1,0,0:0:0:0:
208,248,28753,2,8,L|320:248,1,85
296,168,29220,1,0,0:0:0:0:
296,80,29454,2,8,L|184:80,3,85
112,56,30390,5,0,0:0:0:0:
80,160,30624,1,0,0:0:0:0:
48,256,30857,1,0,0:0:0:0:
144,312,31091,2,0,L|232:312,3,85
288,216,32026,1,0,0:0:0:0:
280,72,32258,5,6,0:0:0:0:
184,120,32726,1,6,0:0:0:0:
184,216,32960,1,0,0:0:0:0:
184,120,33193,1,6,0:0:0:0:
344,136,33663,1,0,0:0:0:0:
272,240,33897,1,0,0:0:0:0:
184,136,34130,1,0,0:0:0:0:
120,80,34364,5,10,2:0:0:0:
48,192,34598,1,10,2:0:0:0:
48,80,34832,1,0,2:0:0:0:
120,192,35065,1,0,2:0:0:0:
200,312,35533,5,0,0:0:0:0:
256,192,35767,1,0,0:0:0:0:
312,312,36001,2,0,L|400:312,2,85
384,240,36702,1,0,0:0:0:0:
312,240,36936,2,0,L|216:240,2,85
312,168,37636,2,0,L|400:168,1,85,2|0,0:0|0:0,0:0:0:0:
480,128,38105,1,8,0:0:0:0:
392,72,38339,1,10,0:0:0:0:
220,56,38572,5,10,0:0:0:0:
112,56,38806,1,0,0:0:0:0:
48,176,39040,1,4,0:0:0:0:
104,288,39274,1,4,0:0:0:0:
240,288,39507,2,0,L|328:288,3,85,2|0|0|2,0:0|0:0|0:0|0:0,0:0:0:0:
400,216,40443,2,0,L|328:160,3,85,2|0|0|2,0:0|0:0|0:0|0:0,0:0:0:0:
216,168,41378,2,0,L|128:168,1,85
56,88,41845,1,2,3:0:0:0:
56,168,42079,1,2,3:0:0:0:
80,224,42545,5,0,0:0:0:0:
80,304,42779,2,4,P|168:304|176:304,1,80
256,304,43248,1,0,0:0:0:0:
256,192,43482,2,0,B|320:240,2,80,4|0|4,0:0|0:0|0:0,0:0:0:0:
376,304,44181,1,0,0:0:0:0:
416,240,44417,1,4,0:0:0:0:
448,304,44651,1,0,0:0:0:0:
496,248,44885,1,4,0:0:0:0:
496,152,45118,2,0,L|400:152,1,80
304,88,45586,5,2,0:0:0:0:
240,88,45820,2,0,L|144:88,1,80,2|0,0:0|0:0,0:0:0:0:
96,144,46287,1,0,0:0:0:0:
152,192,46521,1,0,0:0:0:0:
96,240,46755,1,0,0:0:0:0:
152,288,46989,1,0,0:0:0:0:
104,344,47223,2,0,P|160:368|232:288,1,170
256,200,47924,2,0,L|256:96,2,85
104,24,48625,2,0,B|192:24|192:24|280:40,1,170
80,96,49559,5,0,0:0:0:0:
144,64,49792,1,0,0:0:0:0:
144,136,50026,2,0,L|256:136,1,85,0|0,0:0|2:0,0:0:0:0:
432,280,50494,5,0,0:0:0:0:
368,248,50728,1,0,0:0:0:0:
368,320,50961,2,0,L|272:320,1,85,0|0,0:0|2:0,0:0:0:0:
288,320,51429,1,0,0:0:0:0:
112,72,51897,6,0,L|304:72,1,170
360,160,52599,1,0,0:0:0:0:
112,312,52833,6,0,L|304:312,1,170
282,312,53767,1,0,0:0:0:0:
360,224,54001,1,0,0:0:0:0:
282,312,54234,1,0,0:0:0:0:
230,72,54470,5,0,0:0:0:0:
152,160,54704,1,0,0:0:0:0:
230,72,54938,1,0,0:0:0:0:
152,160,55170,2,0,L|248:160,2,85
256,192,98654,5,0,0:0:0:0:
256,192,99122,1,0,0:0:0:0:
256,192,99589,1,0,0:0:0:0:
256,192,100057,1,0,0:0:0:0:
256,192,100525,1,0,0:0:0:0:
256,192,100992,1,0,0:0:0:0:
256,192,101460,1,0,0:0:0:0:
256,192,101929,5,0,0:0:0:0:
256,192,102161,1,0,0:0:0:0:
256,192,102395,1,0,0:0:0:0:
256,192,102629,1,0,0:0:0:0:
256,192,102862,1,0,0:0:0:0:
256,192,103096,1,0,0:0:0:0:
256,192,103330,1,0,0:0:0:0:
256,192,103564,1,0,0:0:0:0:
256,192,103798,1,0,0:0:0:0:
256,192,104150,5,0,0:0:0:0:
256,192,104501,1,0,0:0:0:0:
256,192,104735,1,0,0:0:0:0:
256,192,104967,1,0,0:0:0:0:
256,192,105202,1,0,0:0:0:0:
256,192,105435,1,0,0:0:0:0:
256,192,105670,1,0,0:0:0:0:
256,192,106136,1,0,0:0:0:0:
80,224,106604,5,0,0:0:0:0:
80,304,106838,2,4,L|208:304,1,127.500004863739
256,304,107307,1,0,0:0:0:0:
256,192,107541,2,0,B|360:272,2,127.500004863739,4|0|4,0:0|0:0|0:0,0:0:0:0:
376,304,108240,1,0,0:0:0:0:
416,240,108476,1,4,0:0:0:0:
448,304,108710,1,0,0:0:0:0:
496,248,108944,1,4,0:0:0:0:
496,152,109177,2,14,L|352:152,1,127.500004863739
