osu file format v14

[General]
AudioFilename: audio.mp3
AudioLeadIn: 0
PreviewTime: 98901
Countdown: 0
SampleSet: Soft
StackLeniency: 0.6
Mode: 0
LetterboxInBreaks: 0
WidescreenStoryboard: 1

[Editor]
Bookmarks: 14023,15893,31323,45817,58909,76209,77144,98184,106133,121095,136057,151019,183982,186553,194034,198009,205256,220218,235180
DistanceSpacing: 0.7
BeatDivisor: 4
GridSize: 16
TimelineZoom: 1.7

[Metadata]
Title:Pumped Up Kicks (Bridge and Law Remix)
TitleUnicode:Pumped Up Kicks (Bridge and Law Remix)
Artist:Foster The People
ArtistUnicode:Foster The People
Creator:Lazix
Version:Insane
Source:
Tags:pop edm english electronic
BeatmapID:1974370
BeatmapSetID:824807

[Difficulty]
HPDrainRate:6
CircleSize:4
OverallDifficulty:8
ApproachRate:8
SliderMultiplier:1.7
SliderTickRate:1

[Events]
//Background and Video events
0,0,"FTPbg.jpg",0,0
//Break Periods
2,179974,183232
//Storyboard Layer 0 (Background)
//Storyboard Layer 1 (Fail)
//Storyboard Layer 2 (Pass)
//Storyboard Layer 3 (Foreground)
//Storyboard Layer 4 (Overlay)
//Storyboard Sound Samples

[TimingPoints]
16361,467.562828755114,4,2,0,65,1,0
16361,-83.3333333333333,4,2,0,65,0,0
31323,-83.3333333333333,4,2,0,65,0,0
52830,-250,4,2,0,65,0,0
53298,-83.3333333333333,4,2,0,65,0,0
60779,-100,4,2,0,80,0,0
75040,-133.333333333333,4,2,0,80,0,0
76209,-100,4,2,0,50,0,0
91171,-200,4,2,0,50,0,0
98184,-83.3333333333333,4,2,0,70,0,0
102392,-58.8235294117647,4,2,0,80,0,0
106133,-66.6666666666667,4,2,0,100,0,1
107769,-58.8235294117647,4,2,0,100,0,1
113380,-66.6666666666667,4,2,0,100,0,1
115484,-58.8235294117647,4,2,0,100,0,1
121095,-90.9090909090909,4,2,0,100,0,1
136057,-133.333333333333,4,2,0,80,0,0
139096,-83.3333333333333,4,2,0,80,0,0
142602,-66.6666666666667,4,2,0,80,0,0
143304,-100,4,2,0,80,0,0
151019,-200,4,2,0,50,0,0
165747,-200,4,2,0,50,0,0
173462,-200,4,2,0,50,0,0
186553,-133.333333333333,4,2,0,50,0,0
194034,-71.4285714285714,4,2,0,80,0,0
198009,-66.6666666666667,4,2,0,100,0,0
199411,-133.333333333333,4,2,0,100,0,0
203152,-83.3333333333333,4,2,0,100,0,0
205256,-66.6666666666667,4,2,0,100,0,1
227699,-57.1428571428571,4,2,0,100,0,1
232842,-66.6666666666667,4,2,0,100,0,1
235180,-66.6666666666667,4,2,0,100,0,0
239622,-45.4545454545455,4,2,0,100,0,0
239739,-66.6666666666667,4,2,0,100,0,0
247804,-45.4545454545455,4,2,0,100,0,0

[Colours]
Combo1 : 255,155,0
Combo2 : 0,0,255
Combo3 : 128,128,192
Combo4 : 192,192,192

[HitObjects]
256,192,14023,12,0,15893,0:0:0:0:
120,100,16361,6,0,B|144:76|208:98|217:140,1,101.999996887207
284,266,16828,2,0,B|254:282|191:241|201:200,1,101.999996887207
260,92,17296,1,0,0:0:0:0:
202,222,17529,1,0,0:0:0:0:
326,163,17763,2,0,B|366:151|366:151|398:212,1,101.999996887207
398,338,18231,2,0,B|367:345|367:345|326:278,1,101.999996887207,2|0,0:0|0:0,0:0:0:0:
243,147,18698,2,0,B|208:163|208:163|225:254,1,101.999996887207,2|0,0:0|0:0,0:0:0:0:
219,225,19049,1,0,0:0:0:0:
219,225,19166,1,2,0:0:0:0:
318,314,19400,6,0,P|371:341|437:327,2,101.999996887207
122,270,20101,2,0,P|167:233|181:182,1,101.999996887207
189,71,20569,1,0,0:0:0:0:
275,229,20802,1,0,0:0:0:0:
335,99,21036,2,0,P|317:53|260:37,1,101.999996887207
134,115,21504,1,0,0:0:0:0:
285,146,21737,6,0,B|330:199|274:269,1,101.999996887207
404,303,22205,2,0,B|369:252|407:209,1,101.999996887207
476,248,22673,1,0,0:0:0:0:
283,343,22906,1,0,0:0:0:0:
335,205,23140,1,2,0:0:0:0:
335,205,23374,6,0,B|343:142|274:124|274:124|289:80|356:85,1,203.999993774414
501,92,24075,1,0,0:0:0:0:
415,199,24309,2,0,L|472:283,1,101.999996887207
472,283,24660,1,0,0:0:0:0:
472,283,24777,2,0,L|386:345,1,101.999996887207
242,293,25244,2,0,B|276:277|276:277|266:199,1,101.999996887207
219,82,25712,2,0,B|185:98|185:98|195:176,1,101.999996887207
321,254,26179,2,0,B|355:238|355:238|345:160,1,101.999996887207
346,174,26530,1,0,0:0:0:0:
346,174,26647,1,0,0:0:0:0:
230,131,26881,6,0,P|169:126|122:157,2,101.999996887207
347,193,27582,2,0,P|397:199|441:169,1,101.999996887207
372,275,28050,1,0,0:0:0:0:
380,111,28283,1,0,0:0:0:0:
380,111,28400,1,0,0:0:0:0:
380,111,28517,2,0,P|317:87|262:110,1,101.999996887207
154,205,28985,1,0,0:0:0:0:
318,173,29218,5,0,0:0:0:0:
220,279,29452,1,0,0:0:0:0:
311,79,29686,1,0,0:0:0:0:
385,268,29920,1,0,0:0:0:0:
211,145,30154,1,0,0:0:0:0:
410,152,30387,1,0,0:0:0:0:
224,313,30621,1,2,0:0:0:0:
342,106,30855,1,2,0:0:0:0:
346,78,31323,6,0,B|321:41|171:52|228:192,1,203.999993774414,2|0,0:0|0:0,0:0:0:0:
290,135,32024,2,0,B|319:101|267:-42|149:50,1,203.999993774414,2|0,0:0|0:0,0:0:0:0:
217,97,32725,2,0,B|233:70|279:29|344:44|378:89|371:193|511:143,1,305.999990661621,2|0,0:0|0:0,0:0:0:0:
289,137,33660,1,0,0:0:0:0:
131,224,33894,5,2,0:0:0:0:
364,235,34128,1,2,0:0:0:0:
192,269,34362,1,2,0:0:0:0:
333,298,34595,1,2,0:0:0:0:
231,343,34829,1,2,0:0:0:0:
384,358,35063,2,0,B|442:326|442:326|458:185,1,203.999993774414
384,358,35764,1,0,0:0:0:0:
237,325,35998,5,2,0:0:0:0:
430,296,36232,1,2,0:0:0:0:
195,231,36465,1,2,0:0:0:0:
427,98,36699,2,0,B|422:160|364:179|328:167|304:100|262:140,1,203.999993774414,2|0,0:0|0:0,0:0:0:0:
427,98,37401,1,0,0:0:0:0:
311,37,37635,1,0,0:0:0:0:
311,37,37751,1,0,0:0:0:0:
311,37,37868,1,2,0:0:0:0:
373,188,38102,1,8,0:0:0:0:
232,105,38336,1,10,0:0:0:0:
393,325,38570,5,0,0:0:0:0:
393,325,38804,2,0,P|451:261|360:166,1,203.999993774414,2|0,0:0|0:0,0:0:0:0:
368,246,39505,2,0,P|310:182|407:104,1,203.999993774414,2|0,0:0|0:0,0:0:0:0:
389,174,40206,2,0,B|237:192|237:192|213:123|291:60,1,305.999990661621,2|0,0:0|0:0,0:0:0:0:
379,203,41141,1,0,0:0:0:0:
245,309,41375,5,2,0:0:0:0:
113,262,41609,1,2,0:0:0:0:
310,246,41843,1,2,0:0:0:0:
71,195,42076,1,2,0:0:0:0:
352,176,42310,1,2,0:0:0:0:
55,139,42544,2,0,P|153:114|135:15,1,203.999993774414
43,40,43362,6,0,L|85:68,1,50.9999984436036,0|2,0:0|0:0,0:0:0:0:
199,126,43713,1,2,0:0:0:0:
54,257,43947,1,2,0:0:0:0:
195,44,44180,2,0,B|228:118|347:57|369:133,1,203.999993774414,2|0,0:0|0:0,0:0:0:0:
296,176,44882,2,0,B|329:250|425:191|470:265,1,203.999993774414
237,249,45583,1,8,0:0:0:0:
383,296,45817,1,8,0:0:0:0:
161,105,46285,6,0,L|112:239,1,101.999996887207
264,60,46752,2,0,L|225:169,1,101.999996887207
361,33,47220,2,0,L|322:142,1,101.999996887207
326,129,47570,1,0,0:0:0:0:
326,129,47687,1,0,0:0:0:0:
440,246,47921,1,0,0:0:0:0:
355,327,48155,2,0,B|317:348|317:348|272:298,1,101.999996887207
131,160,48622,6,0,B|121:197|121:197|196:272,1,101.999996887207
241,234,48973,2,0,L|194:191,1,50.9999984436036
415,165,49324,1,2,0:0:0:0:
319,206,49557,2,0,L|396:282,1,101.999996887207,2|0,0:0|0:0,0:0:0:0:
207,283,50025,5,0,0:0:0:0:
353,171,50259,1,0,0:0:0:0:
276,338,50493,1,0,0:0:0:0:
259,155,50726,1,0,0:0:0:0:
405,265,50960,1,0,0:0:0:0:
129,123,51194,1,0,0:0:0:0:
129,123,51311,2,0,B|126:77|196:47|260:76,1,152.999995330811
265,242,51895,1,0,0:0:0:0:
361,127,52129,1,0,0:0:0:0:
184,228,52363,2,0,B|120:278|151:312|149:313,1,101.999996887207
161,325,52714,1,0,0:0:0:0:
175,333,52830,6,0,B|204:346|240:314,1,68
448,207,53532,6,0,L|358:254,1,101.999996887207
252,216,53999,2,0,L|342:168,1,101.999996887207
184,204,54467,2,0,L|139:228,1,50.9999984436036
162,170,54701,2,0,L|264:116,1,101.999996887207
252,122,55051,1,0,0:0:0:0:
252,122,55168,1,0,0:0:0:0:
121,331,55402,1,0,0:0:0:0:
121,331,56103,5,0,0:0:0:0:
206,170,56454,2,0,L|268:208,1,50.9999984436036
368,255,56805,1,2,0:0:0:0:
179,68,57038,1,2,0:0:0:0:
175,240,57506,6,0,B|202:263|202:263|268:210,1,101.999996887207
352,73,57974,2,0,B|312:54|312:54|261:122,1,101.999996887207
262,120,58324,1,0,0:0:0:0:
251,137,58441,2,0,B|160:90,1,101.999996887207
256,192,58909,12,8,60545,0:0:0:0:
256,192,60779,5,8,0:0:0:0:
356,68,61247,2,0,B|401:119|401:119|448:114,1,85
181,177,61714,2,0,B|136:228|136:228|89:223,1,85
333,250,62182,2,0,B|378:301|378:301|425:296,1,85
394,299,62532,1,0,0:0:0:0:
394,299,62649,1,0,0:0:0:0:
249,179,62883,5,0,0:0:0:0:
188,347,63117,1,0,0:0:0:0:
317,224,63351,1,0,0:0:0:0:
140,226,63584,1,0,0:0:0:0:
309,346,63818,2,0,L|273:284,1,42.5
249,241,64052,1,0,0:0:0:0:
358,201,64286,5,2,0:0:0:0:
201,153,64519,1,2,0:0:0:0:
407,85,64753,1,0,0:0:0:0:
300,276,64987,6,0,B|332:225|309:191,1,85
216,96,65455,6,0,B|189:126|202:176|202:176|179:211|126:190,1,170
216,96,66156,1,0,0:0:0:0:
278,150,66390,1,0,0:0:0:0:
441,140,66624,1,0,0:0:0:0:
492,72,66857,2,0,B|441:61|441:61|435:179|435:179|275:166|275:166|283:49|283:49|220:66,1,510
111,94,68494,5,0,0:0:0:0:
111,94,68728,2,0,P|104:135|164:191,1,127.5
203,192,69195,1,0,0:0:0:0:
360,236,69429,2,0,L|323:269,1,42.5
293,289,69663,1,0,0:0:0:0:
487,230,69896,1,0,0:0:0:0:
185,90,70130,2,0,B|170:44|217:2|270:12|313:39|320:115|307:148|242:152|249:234,1,340
261,328,71299,1,0,0:0:0:0:
261,328,71416,1,0,0:0:0:0:
261,328,71533,1,0,0:0:0:0:
362,228,71767,1,2,0:0:0:0:
155,143,72000,1,2,0:0:0:0:
309,95,72234,5,0,0:0:0:0:
348,97,72468,2,0,P|363:153|344:191,2,85
298,31,73169,1,0,0:0:0:0:
255,29,73286,2,0,B|187:44|180:90|153:106|104:105|61:83,1,212.5
240,140,74105,5,0,0:0:0:0:
150,239,74339,2,0,P|135:295|154:333,2,85
259,136,75040,2,0,B|344:135|293:222|337:299|443:278|454:191,1,286.875010943413
417,117,76209,6,0,L|460:75,3,42.5
318,84,76676,2,0,L|320:42,3,42.5
222,121,77144,2,0,L|178:98,3,42.5
354,149,78079,5,0,0:0:0:0:
354,149,78196,1,0,0:0:0:0:
354,149,78313,2,0,L|310:98,1,42.5
272,196,78547,5,0,0:0:0:0:
272,196,78664,1,0,0:0:0:0:
272,196,78780,2,0,L|217:206,1,42.5
274,286,79014,5,0,0:0:0:0:
274,286,79132,1,0,0:0:0:0:
274,286,79248,2,0,L|297:329,1,42.5
173,328,79949,5,0,0:0:0:0:
173,328,80066,1,0,0:0:0:0:
173,328,80183,2,0,L|226:303,1,42.5
283,225,80417,5,0,0:0:0:0:
283,225,80534,1,0,0:0:0:0:
283,225,80651,2,0,L|240:184,1,42.5
143,177,80884,5,0,0:0:0:0:
143,177,81001,1,0,0:0:0:0:
143,177,81118,2,0,L|136:235,1,42.5
285,161,81819,5,0,0:0:0:0:
239,169,81935,1,0,0:0:0:0:
199,155,82053,2,0,L|176:106,1,42.5
276,68,82287,5,0,0:0:0:0:
324,63,82403,1,0,0:0:0:0:
364,78,82521,2,0,L|390:140,1,42.5
361,221,82754,5,0,0:0:0:0:
326,255,82870,1,0,0:0:0:0:
286,268,82988,2,0,L|226:236,1,42.5
179,180,83690,6,0,L|113:178,3,42.5,2|0|0|0,0:0|0:0|0:0|0:0,0:0:0:0:
255,192,84157,6,0,P|241:227|231:236,3,42.5,2|0|0|0,0:0|0:0|0:0|0:0,0:0:0:0:
316,147,84625,6,0,P|329:184|320:204,3,42.5,2|0|0|0,0:0|0:0|0:0|0:0,0:0:0:0:
195,139,85560,5,2,0:0:0:0:
195,139,85677,1,0,0:0:0:0:
195,139,85794,2,0,L|251:138,1,42.5
312,220,86027,5,2,0:0:0:0:
312,220,86144,1,0,0:0:0:0:
312,220,86261,2,0,L|256:221,1,42.5
185,298,86495,5,2,0:0:0:0:
185,298,86612,1,0,0:0:0:0:
185,298,86729,2,0,L|241:297,1,42.5
349,135,87430,5,2,0:0:0:0:
349,135,87547,1,0,0:0:0:0:
349,135,87664,2,0,L|301:109,1,42.5
192,156,87898,5,2,0:0:0:0:
192,156,88015,1,0,0:0:0:0:
192,156,88131,2,0,L|217:120,1,42.5
136,30,88365,5,2,0:0:0:0:
136,30,88482,1,0,0:0:0:0:
136,30,88599,2,0,L|176:43,1,42.5
45,165,89300,5,2,0:0:0:0:
61,204,89416,1,0,0:0:0:0:
84,240,89534,2,0,L|144:257,1,42.5
92,320,89767,5,2,0:0:0:0:
130,341,89884,1,0,0:0:0:0:
170,354,90002,2,0,L|217:328,1,42.5
278,364,90235,5,2,0:0:0:0:
300,328,90352,1,0,0:0:0:0:
318,289,90469,2,0,L|302:241,1,42.5
285,155,90703,2,0,L|342:177,2,42.5,2|0|0,0:0|0:0|0:0,0:0:0:0:
162,171,91171,6,0,L|162:72,1,85,2|2,0:0|0:0,0:0:0:0:
162,86,92339,1,0,0:0:0:0:
224,143,92573,1,2,0:0:0:0:
285,84,92807,2,0,L|329:84,1,42.5,0|2,0:0|0:0,0:0:0:0:
327,84,93508,1,2,0:0:0:0:
440,85,94443,2,0,L|440:179,1,85,2|2,0:0|0:0,0:0:0:0:
440,170,95379,1,2,0:0:0:0:
371,249,96080,2,0,L|371:300,1,42.5,0|2,0:0|0:0,0:0:0:0:
446,357,96548,2,0,L|446:306,1,42.5,0|2,0:0|0:0,0:0:0:0:
446,313,97249,1,2,0:0:0:0:
345,310,98184,6,0,B|242:334|242:334|133:310,1,203.999993774414,2|2,0:0|0:0,0:0:0:0:
36,348,98885,1,0,0:0:0:0:
202,229,99119,1,2,0:0:0:0:
36,348,99353,1,0,0:0:0:0:
202,229,99587,1,2,0:0:0:0:
40,229,99820,6,0,B|129:168,1,101.999996887207,0|2,0:0|0:0,0:0:0:0:
53,117,100288,2,0,L|108:79,1,50.9999984436036
139,62,100522,1,2,0:0:0:0:
202,155,100756,1,0,0:0:0:0:
49,27,100989,1,2,0:0:0:0:
202,155,101223,1,0,0:0:0:0:
49,27,101457,1,2,0:0:0:0:
202,155,101691,1,0,0:0:0:0:
168,75,101924,6,0,B|270:56|270:56|380:75,1,203.999993774414,2|2,0:0|0:0,0:0:0:0:
476,36,102626,1,0,0:0:0:0:
310,155,102860,1,2,0:0:0:0:
476,36,103094,1,0,0:0:0:0:
310,155,103327,1,2,0:0:0:0:
476,36,103561,1,0,0:0:0:0:
310,155,103795,1,2,0:0:0:0:
476,36,104029,1,0,0:0:0:0:
421,169,104262,6,0,L|358:219,1,72.2500013780594,2|0,0:0|0:0,0:0:0:0:
136,215,104496,2,0,L|211:167,1,72.2500013780594
345,298,104730,2,0,L|265:263,1,72.2500013780594,2|0,0:0|0:0,0:0:0:0:
167,86,104964,2,0,L|249:114,1,72.2500013780594
215,354,105197,2,0,L|188:271,1,72.2500013780594,2|0,0:0|0:0,0:0:0:0:
302,40,105431,2,0,L|341:107,1,72.2500013780594
431,286,105665,5,2,0:0:0:0:
431,286,105782,1,0,0:0:0:0:
270,337,106133,6,0,P|326:290|349:225,1,127.500004863739
270,337,106600,1,0,0:0:0:0:
118,260,106834,1,0,0:0:0:0:
330,154,107068,1,0,0:0:0:0:
63,72,107301,2,0,L|128:61,1,63.7500024318696
170,56,107535,1,0,0:0:0:0:
417,116,107769,5,0,0:0:0:0:
340,320,108003,2,0,B|332:278|332:278|351:233|351:233|332:175,1,144.500002756119,4|0,0:0|0:0,0:0:0:0:
184,107,108470,2,0,B|191:148|191:148|172:193|172:193|191:251,1,144.500002756119,4|0,0:0|0:0,0:0:0:0:
281,29,108938,1,4,0:0:0:0:
404,143,109172,2,0,B|416:62|416:62|490:31,2,144.500002756119
329,335,109873,2,0,L|177:257,1,144.500002756119
420,277,110341,1,0,0:0:0:0:
220,179,110574,1,0,0:0:0:0:
420,277,110808,2,0,L|264:205,1,144.500002756119
79,298,111276,1,0,0:0:0:0:
81,111,111510,6,0,B|158:117|169:71|234:82,1,144.500002756119
411,191,111977,2,0,B|334:197|323:151|261:163,1,144.500002756119
434,98,112445,1,0,0:0:0:0:
199,252,112678,1,0,0:0:0:0:
388,268,112912,1,8,0:0:0:0:
95,125,113146,1,8,0:0:0:0:
85,318,113380,6,0,B|163:307|190:283|143:206,1,127.500004863739
57,122,113847,1,0,0:0:0:0:
258,288,114081,1,0,0:0:0:0:
152,92,114315,1,0,0:0:0:0:
152,92,114432,1,0,0:0:0:0:
152,92,114549,2,0,P|232:87|255:33,1,127.500004863739
208,238,115016,1,0,0:0:0:0:
434,194,115250,1,0,0:0:0:0:
401,289,115484,6,0,B|336:245|336:245|350:161,1,144.500002756119,4|0,0:0|0:0,0:0:0:0:
208,68,115951,2,0,B|219:134|219:134|154:178,1,144.500002756119,4|0,0:0|0:0,0:0:0:0:
154,178,116302,1,0,0:0:0:0:
154,178,116419,1,4,0:0:0:0:
273,323,116653,1,0,0:0:0:0:
42,191,116887,6,0,B|85:192|66:250|146:283,1,144.500002756119
67,59,117354,1,0,0:0:0:0:
170,198,117588,1,0,0:0:0:0:
345,192,117822,2,0,B|429:157|410:99|478:93,1,144.500002756119
410,70,118172,1,0,0:0:0:0:
360,72,118289,1,0,0:0:0:0:
258,269,118523,2,0,P|349:312|379:295,1,144.500002756119
360,72,118991,5,0,0:0:0:0:
460,219,119224,1,0,0:0:0:0:
246,126,119458,1,0,0:0:0:0:
390,173,119692,1,0,0:0:0:0:
162,251,119926,1,0,0:0:0:0:
356,257,120159,1,0,0:0:0:0:
110,187,120393,1,4,0:0:0:0:
455,38,120627,1,4,0:0:0:0:
381,231,121095,6,0,P|453:164|378:105,1,187.000005706787,2|2,0:0|0:0,0:0:0:0:
160,186,121796,2,0,P|88:119|163:60,1,187.000005706787,2|2,0:0|0:0,0:0:0:0:
297,156,122497,2,0,B|355:220|247:312|294:329,1,187.000005706787,2|2,0:0|0:0,0:0:0:0:
447,286,123199,1,2,0:0:0:0:
447,286,123315,1,0,0:0:0:0:
447,286,123432,1,2,0:0:0:0:
230,225,123666,1,2,0:0:0:0:
418,102,123900,1,2,0:0:0:0:
178,51,124134,1,2,0:0:0:0:
343,162,124368,1,2,0:0:0:0:
147,223,124601,1,2,0:0:0:0:
56,301,124835,6,0,B|60:369|153:318|180:252|206:247,1,187.000005706787,2|2,0:0|0:0,0:0:0:0:
412,248,125536,2,0,L|423:293,1,46.7500014266968,2|0,0:0|0:0,0:0:0:0:
434,324,125770,1,2,0:0:0:0:
377,78,126004,1,2,0:0:0:0:
332,305,126238,1,2,0:0:0:0:
201,111,126472,6,0,L|79:147,1,93.5000028533936,2|0,0:0|0:0,0:0:0:0:
334,168,126939,1,0,0:0:0:0:
68,68,127173,1,0,0:0:0:0:
118,279,127407,1,0,0:0:0:0:
202,144,127640,1,4,0:0:0:0:
189,337,127874,1,4,0:0:0:0:
272,206,128108,1,4,0:0:0:0:
332,353,128342,1,4,0:0:0:0:
417,216,128576,6,0,P|436:146|332:99,1,187.000005706787,2|2,0:0|0:0,0:0:0:0:
362,165,129277,2,0,P|277:98|333:23,1,187.000005706787,2|2,0:0|0:0,0:0:0:0:
349,91,129978,2,0,B|306:134|203:103|198:183,1,187.000005706787,2|2,0:0|0:0,0:0:0:0:
358,311,130680,1,2,0:0:0:0:
358,311,130797,1,0,0:0:0:0:
358,311,130913,1,2,0:0:0:0:
113,363,131147,5,2,0:0:0:0:
211,310,131381,1,2,0:0:0:0:
32,188,131615,1,2,0:0:0:0:
280,225,131849,1,2,0:0:0:0:
124,39,132082,1,2,0:0:0:0:
364,290,132316,6,0,P|309:272|293:151,1,187.000005706787,2|2,0:0|0:0,0:0:0:0:
435,161,133017,2,0,L|394:184,1,46.7500014266968,2|0,0:0|0:0,0:0:0:0:
356,203,133251,1,2,0:0:0:0:
467,319,133485,1,2,0:0:0:0:
271,324,133719,1,2,0:0:0:0:
427,172,133953,5,0,0:0:0:0:
359,310,134186,1,0,0:0:0:0:
236,184,134420,1,0,0:0:0:0:
376,333,134654,1,0,0:0:0:0:
171,201,134888,1,0,0:0:0:0:
396,348,135121,1,0,0:0:0:0:
85,205,135355,1,8,0:0:0:0:
295,348,135589,1,8,0:0:0:0:
356,67,135823,1,0,0:0:0:0:
370,94,136057,6,0,B|319:160|325:203|324:203,1,95.6250036478044
402,189,136524,2,0,B|385:251|314:262,1,95.6250036478044
329,329,136992,2,0,B|267:312|256:241,1,95.6250036478044
240,192,137459,1,0,0:0:0:0:
240,192,137576,1,0,0:0:0:0:
240,192,137693,1,0,0:0:0:0:
107,105,138394,2,0,P|149:77|214:84,1,95.6250036478044
332,260,139096,5,8,0:0:0:0:
199,182,139330,1,8,0:0:0:0:
333,105,139563,1,0,0:0:0:0:
333,105,139797,1,0,0:0:0:0:
346,318,140265,1,0,0:0:0:0:
324,193,140498,2,0,L|270:238,1,50.9999984436036
126,263,140732,2,0,L|170:224,1,50.9999984436036
85,114,141083,5,0,0:0:0:0:
133,97,141200,1,0,0:0:0:0:
182,109,141317,1,0,0:0:0:0:
223,138,141434,1,0,0:0:0:0:
175,240,141667,2,0,P|243:252|376:186,1,203.999993774414
410,294,142602,2,0,L|356:337,1,63.7500024318696
451,183,142836,2,0,L|507:137,1,63.7500024318696
324,171,143070,2,0,L|275:211,1,63.7500024318696
368,47,143304,1,0,0:0:0:0:
206,267,143538,5,8,0:0:0:0:
418,196,143771,1,8,0:0:0:0:
418,196,143888,1,8,0:0:0:0:
132,211,144239,5,8,0:0:0:0:
273,7,144473,1,8,0:0:0:0:
273,7,144590,1,8,0:0:0:0:
386,324,144940,5,4,0:0:0:0:
349,72,145408,1,8,0:0:0:0:
240,313,145641,1,8,0:0:0:0:
240,313,145758,1,8,0:0:0:0:
156,81,146109,1,8,0:0:0:0:
240,313,146343,1,8,0:0:0:0:
240,313,146460,1,8,0:0:0:0:
62,83,146810,1,4,0:0:0:0:
462,153,147161,5,0,0:0:0:0:
462,153,147278,2,0,P|438:96|381:73,1,127.5
383,149,147746,2,0,P|362:199|398:291,1,127.5
321,320,148213,1,0,0:0:0:0:
268,338,148330,1,0,0:0:0:0:
217,335,148447,1,0,0:0:0:0:
176,306,148564,1,0,0:0:0:0:
149,264,148681,1,0,0:0:0:0:
101,236,148798,1,0,0:0:0:0:
48,252,148915,1,0,0:0:0:0:
48,252,149616,5,0,0:0:0:0:
174,156,149967,1,0,0:0:0:0:
174,156,150083,2,0,L|231:183,1,42.5
307,247,150317,2,0,L|370:230,1,42.5
429,209,150551,1,0,0:0:0:0:
307,87,151019,6,0,B|265:104|240:96|240:96|259:177|205:213|115:214|78:154|114:95,1,340
424,181,154759,6,0,B|419:290|330:255|287:216|228:291,1,255
129,274,156629,1,0,0:0:0:0:
95,248,156863,1,0,0:0:0:0:
86,206,157097,1,0,0:0:0:0:
118,178,157331,2,0,B|202:133|220:216,1,127.5
276,336,158500,2,0,B|338:328|465:176|391:124|326:111|290:166,2,340
233,336,162474,1,0,0:0:0:0:
193,320,162708,1,0,0:0:0:0:
177,280,162941,1,0,0:0:0:0:
203,246,163175,1,0,0:0:0:0:
232,276,163409,1,0,0:0:0:0:
190,266,163643,2,0,P|152:238|138:200,1,85
137,97,164344,2,0,P|167:53|205:40,2,85
209,186,165747,6,0,B|270:176|272:208|272:208|271:261|287:301|411:328|423:246,1,297.5
357,216,167851,2,0,B|381:180|394:107|355:79|308:92|308:92|277:102|268:155|196:152|173:93,1,340
211,75,169955,1,0,0:0:0:0:
229,113,170189,1,0,0:0:0:0:
227,155,170422,1,0,0:0:0:0:
221,239,170890,2,0,B|210:276|192:290,1,42.5
140,332,171358,1,0,0:0:0:0:
140,332,171591,2,0,B|127:292|127:292|146:280|146:280|98:263|98:263|143:250|229:204,1,255
326,176,173228,5,0,0:0:0:0:
326,176,173345,1,0,0:0:0:0:
326,176,173462,1,0,0:0:0:0:
297,255,173695,1,0,0:0:0:0:
304,296,173929,1,0,0:0:0:0:
277,329,174163,1,0,0:0:0:0:
234,326,174397,2,0,P|174:358|103:342,1,127.5
165,280,175332,6,0,B|139:253|138:223|195:209|183:175|181:152|123:152|142:112|192:93,1,212.5
228,84,176735,1,0,0:0:0:0:
267,100,176968,1,0,0:0:0:0:
309,105,177202,2,0,B|359:106|359:106|401:134,2,85
255,192,178371,2,0,L|281:237,1,42.5
372,271,178839,2,0,L|345:312,1,42.5
310,325,179306,1,0,0:0:0:0:
189,365,179774,1,0,0:0:0:0:
256,192,183982,12,8,186553,0:0:0:0:
435,120,187021,5,8,0:0:0:0:
435,120,187488,2,8,L|296:72,1,127.500004863739
314,78,188424,5,8,0:0:0:0:
66,253,188891,1,8,0:0:0:0:
66,253,189360,2,8,L|187:295,1,127.500004863739
187,295,190294,5,8,0:0:0:0:
293,100,190761,1,8,0:0:0:0:
293,100,191229,2,8,L|167:56,1,127.500004863739
172,58,192164,5,8,0:0:0:0:
394,249,192632,1,8,0:0:0:0:
394,249,193099,2,8,L|284:314,1,127.500004863739
284,314,194034,2,0,L|389:251,1,118.999996368408,8|0,0:0|0:0,0:0:0:0:
386,252,194502,5,8,0:0:0:0:
172,58,194736,1,0,0:0:0:0:
172,58,194969,2,0,L|290:99,1,118.999996368408,8|0,0:0|0:0,0:0:0:0:
284,97,195437,5,8,0:0:0:0:
187,295,195671,1,0,0:0:0:0:
187,295,195904,2,0,L|73:253,1,118.999996368408,8|0,0:0|0:0,0:0:0:0:
75,253,196372,5,8,0:0:0:0:
314,78,196606,1,0,0:0:0:0:
314,78,196840,2,0,L|427:118,1,118.999996368408,8|0,0:0|0:0,0:0:0:0:
426,117,197307,5,8,0:0:0:0:
170,235,197541,1,0,0:0:0:0:
134,95,197775,2,8,B|228:104|228:104|171:235,1,237.999992736817
352,258,198710,2,0,B|258:249|258:249|320:97,1,255.000009727478,8|8,0:0|0:0,0:0:0:0:
156,59,199411,2,0,L|118:110,1,63.7500024318696
319,106,199879,5,0,0:0:0:0:
119,265,200113,1,0,0:0:0:0:
348,208,200346,1,0,0:0:0:0:
185,133,200580,1,0,0:0:0:0:
250,251,200814,1,0,0:0:0:0:
278,155,201048,1,0,0:0:0:0:
208,183,201282,1,4,0:0:0:0:
252,206,201515,1,4,0:0:0:0:
170,84,203152,6,0,B|194:60|258:82|258:128,1,101.999996887207
352,284,203619,2,0,B|328:308|256:286|256:247,1,101.999996887207
193,155,204087,1,0,0:0:0:0:
325,212,204320,1,0,0:0:0:0:
114,255,204554,1,0,0:0:0:0:
332,110,204788,1,2,0:0:0:0:
353,105,205256,6,0,B|448:203|448:202,1,127.500004863739
346,335,205723,1,0,0:0:0:0:
263,187,205957,1,0,0:0:0:0:
428,308,206191,1,0,0:0:0:0:
79,208,206425,6,0,L|124:160,1,63.7500024318696
149,134,206659,1,0,0:0:0:0:
342,265,206892,1,0,0:0:0:0:
172,212,207126,1,0,0:0:0:0:
315,103,207360,5,0,0:0:0:0:
301,123,207594,2,0,B|364:118|364:118|421:88,1,127.500004863739
432,146,207944,2,0,L|372:180,1,63.7500024318696,2|0,0:0|0:0,0:0:0:0:
101,299,208295,1,0,0:0:0:0:
315,260,208529,6,0,B|369:233|369:233|438:242,1,127.500004863739
174,121,208996,2,0,B|113:130|113:130|48:102,1,127.500004863739
349,42,209464,1,0,0:0:0:0:
214,178,209698,1,0,0:0:0:0:
62,65,209932,1,0,0:0:0:0:
67,216,210165,6,0,L|200:312,1,127.500004863739
104,353,210633,2,0,B|176:368|176:368|242:358,1,127.500004863739
373,277,211100,1,0,0:0:0:0:
204,120,211334,1,0,0:0:0:0:
297,301,211568,1,0,0:0:0:0:
406,72,211802,1,0,0:0:0:0:
174,226,212036,1,8,0:0:0:0:
192,70,212269,2,0,B|176:150|81:143|53:235|116:291,1,255.000009727478,8|0,0:0|0:0,0:0:0:0:
426,175,212971,5,0,0:0:0:0:
334,352,213204,1,0,0:0:0:0:
253,211,213438,1,0,0:0:0:0:
253,211,213555,2,0,L|198:242,1,63.7500024318696,2|0,0:0|0:0,0:0:0:0:
386,55,213906,2,0,B|341:123|348:171|348:171|275:105|209:120,1,255.000009727478
38,171,214607,1,0,0:0:0:0:
355,308,214841,5,0,0:0:0:0:
274,340,215075,2,0,B|274:277|274:277|327:200,1,127.500004863739
216,218,215425,2,0,L|132:234,1,63.7500024318696,2|0,0:0|0:0,0:0:0:0:
386,128,215776,1,0,0:0:0:0:
98,137,216010,6,0,L|193:28,1,127.500004863739
414,247,216477,2,0,L|318:355,1,127.500004863739
256,128,216945,1,0,0:0:0:0:
83,297,217179,1,0,0:0:0:0:
83,297,217296,1,2,0:0:0:0:
83,297,217413,2,0,B|166:329|166:329|226:308,1,127.500004863739
397,183,217880,5,0,0:0:0:0:
117,153,218114,1,0,0:0:0:0:
431,266,218347,1,0,0:0:0:0:
192,102,218581,1,0,0:0:0:0:
361,338,218815,1,0,0:0:0:0:
359,135,219049,1,0,0:0:0:0:
185,313,219282,1,0,0:0:0:0:
275,51,219517,1,8,0:0:0:0:
61,234,219750,1,8,0:0:0:0:
410,256,219984,1,0,0:0:0:0:
139,126,220218,6,0,P|206:77|276:203,1,255.000009727478,2|2,0:0|0:0,0:0:0:0:
209,161,220919,2,2,P|212:94|353:124,1,255.000009727478
279,129,221620,2,2,B|246:58|191:66|96:85|63:149|167:271|77:283|16:202,1,382.500014591218
205,158,222555,5,2,0:0:0:0:
456,199,222789,1,2,0:0:0:0:
229,261,223023,1,2,0:0:0:0:
367,181,223257,1,2,0:0:0:0:
241,355,223490,1,2,0:0:0:0:
417,286,223724,1,2,0:0:0:0:
144,324,223958,2,2,B|172:304|179:264|179:264|260:300|305:236|288:164,1,255.000009727478,2|0,0:0|0:0,0:0:0:0:
95,254,224659,1,0,0:0:0:0:
357,319,224893,5,2,0:0:0:0:
117,371,225127,1,2,0:0:0:0:
319,226,225360,1,2,0:0:0:0:
68,174,225594,2,0,B|113:221|155:228|204:208|217:131|298:161,1,255.000009727478,2|0,0:0|0:0,0:0:0:0:
141,134,226296,1,0,0:0:0:0:
285,69,226530,1,0,0:0:0:0:
321,79,226646,1,0,0:0:0:0:
342,110,226763,1,0,0:0:0:0:
291,275,226998,1,4,0:0:0:0:
479,126,227231,1,4,0:0:0:0:
218,172,227465,1,0,0:0:0:0:
417,216,227699,6,2,B|460:128|339:117|339:117|289:194|210:167,1,297.500002837181
221,253,228400,6,2,B|151:240|116:194|154:130|174:90|174:90|235:115|267:72,1,297.500002837181
214,24,229102,2,2,B|174:105|201:222|263:195|303:157|344:246,1,297.500002837181
261,348,229803,1,2,0:0:0:0:
218,333,229920,1,2,0:0:0:0:
192,291,230036,1,2,0:0:0:0:
192,168,230270,5,2,0:0:0:0:
374,272,230504,1,2,0:0:0:0:
179,63,230738,1,2,0:0:0:0:
394,194,230971,1,2,0:0:0:0:
128,240,231205,1,2,0:0:0:0:
449,65,231439,2,2,B|450:22|450:22|326:40|326:40|411:150,1,297.500002837181
389,299,232141,2,2,L|328:241,1,74.3750007092953
302,216,232375,1,2,0:0:0:0:
150,50,232608,2,2,B|126:103|126:103|40:133,1,148.750001418591
61,43,233076,5,0,0:0:0:0:
273,131,233309,1,0,0:0:0:0:
44,231,233543,1,0,0:0:0:0:
231,57,233777,1,0,0:0:0:0:
126,333,234011,1,0,0:0:0:0:
398,112,234244,1,4,0:0:0:0:
137,133,234478,1,4,0:0:0:0:
414,325,234712,1,4,0:0:0:0:
64,219,234946,1,0,0:0:0:0:
372,46,235180,6,0,P|316:48|270:100,1,127.500004863739,2|0,0:0|0:0,0:0:0:0:
279,136,235531,1,0,0:0:0:0:
267,172,235647,2,0,B|204:188|225:259|96:252|44:152,1,255.000009727478,2|2,0:0|0:0,0:0:0:0:
201,39,236349,5,0,0:0:0:0:
245,35,236466,1,0,0:0:0:0:
278,64,236583,1,2,0:0:0:0:
302,267,236816,1,0,0:0:0:0:
190,154,237050,1,2,0:0:0:0:
405,242,237284,1,0,0:0:0:0:
149,258,237518,1,2,0:0:0:0:
327,180,237751,1,2,0:0:0:0:
307,219,237868,1,0,0:0:0:0:
305,263,237985,1,0,0:0:0:0:
200,144,238219,1,0,0:0:0:0:
124,286,238453,2,0,B|168:278|176:347|234:341,1,127.500004863739,2|0,0:0|0:0,0:0:0:0:
429,50,238920,6,0,B|346:148|439:287|439:287|378:238|319:242,1,382.500014591218,2|0,0:0|0:0,0:0:0:0:
62,151,239856,2,0,B|199:196|252:282|359:141|297:34|171:58,1,382.500014591218,2|0,0:0|0:0,0:0:0:0:
192,86,240674,1,0,0:0:0:0:
210,126,240791,2,0,B|274:190|350:156|381:195|365:258|336:295|290:291,1,255.000009727478,2|0,0:0|0:0,0:0:0:0:
288,313,241374,1,0,0:0:0:0:
323,340,241491,1,0,0:0:0:0:
374,340,241608,1,0,0:0:0:0:
410,304,241725,1,2,0:0:0:0:
160,145,242193,5,2,0:0:0:0:
115,150,242309,1,0,0:0:0:0:
74,139,242427,2,0,L|45:81,1,63.7500024318696
163,31,242661,5,2,0:0:0:0:
211,26,242777,1,0,0:0:0:0:
251,41,242895,2,0,L|280:110,1,63.7500024318696
227,217,243128,5,2,0:0:0:0:
181,234,243244,1,0,0:0:0:0:
139,230,243362,2,0,L|91:172,1,63.7500024318696
241,108,243596,5,2,0:0:0:0:
287,122,243712,1,0,0:0:0:0:
318,151,243830,2,0,L|329:213,1,63.7500024318696
361,330,244064,2,0,B|421:355,2,63.7500024318696,2|0|0,0:0|0:0|0:0,0:0:0:0:
183,261,244531,5,2,0:0:0:0:
462,172,244765,1,0,0:0:0:0:
183,261,244999,1,2,0:0:0:0:
462,172,245233,2,0,L|395:132,1,63.7500024318696
324,84,245466,1,2,0:0:0:0:
349,196,245700,1,0,0:0:0:0:
84,67,245934,1,2,0:0:0:0:
349,196,246168,1,0,0:0:0:0:
106,71,246401,5,0,0:0:0:0:
106,71,246518,1,0,0:0:0:0:
106,71,246635,2,0,P|122:141|178:182,1,127.500004863739
261,344,247103,5,0,0:0:0:0:
261,344,247220,1,0,0:0:0:0:
261,344,247337,2,0,P|332:335|365:285,1,127.500004863739
390,20,247804,6,0,B|350:167|270:237|270:237|336:191|389:199,1,374.000011413575
115,74,248505,2,0,B|163:82|229:36|229:36|149:106|116:224|136:258,1,374.000011413575
460,229,249207,2,0,B|416:253|424:340|424:340|369:221|292:164|243:204,1,374.000011413575
113,287,249908,5,0,0:0:0:0:
245,330,250025,1,0,0:0:0:0:
