osu file format v14

[General]
AudioFilename: audio.mp3
AudioLeadIn: 0
PreviewTime: 98901
Countdown: 0
SampleSet: Soft
StackLeniency: 0.6
Mode: 0
LetterboxInBreaks: 0
WidescreenStoryboard: 1

[Editor]
Bookmarks: 31325,59385,98668,106033,121115,136548,151460,166010,187054,194303,198278,200148,205233,220197,235630
DistanceSpacing: 1.4
BeatDivisor: 4
GridSize: 16
TimelineZoom: 1.5

[Metadata]
Title:Pumped Up Kicks (Bridge and Law Remix)
TitleUnicode:Pumped Up Kicks (Bridge and Law Remix)
Artist:Foster The People
ArtistUnicode:Foster The People
Creator:Lazix
Version:Hard
Source:
Tags:pop edm english electronic
BeatmapID:1747331
BeatmapSetID:824807

[Difficulty]
HPDrainRate:6
CircleSize:3.8
OverallDifficulty:6
ApproachRate:7.5
SliderMultiplier:1.4
SliderTickRate:1

[Events]
//Background and Video events
0,0,"FTPbg.jpg",0,0
//Break Periods
2,46016,58084
2,179974,183157
//Storyboard Layer 0 (Background)
//Storyboard Layer 1 (Fail)
//Storyboard Layer 2 (Pass)
//Storyboard Layer 3 (Foreground)
//Storyboard Layer 4 (Overlay)
//Storyboard Sound Samples

[TimingPoints]
16361,467.562828755114,4,2,0,80,1,0
16361,-100,4,2,0,80,0,0
31323,-83.3333333333333,4,2,0,80,0,0
60779,-100,4,2,0,80,0,0
76209,-133.333333333333,4,2,0,50,0,0
83690,-133.333333333333,4,2,0,50,0,0
91171,-100,4,2,0,50,0,0
98184,-83.3333333333333,4,2,0,70,0,0
102626,-66.6666666666667,4,2,0,80,0,0
106133,-66.6666666666667,4,2,0,100,0,1
121095,-90.9090909090909,4,2,0,100,0,1
136057,-90.9090909090909,4,2,0,80,0,0
142602,-66.6666666666667,4,2,0,80,0,0
143304,-100,4,2,0,80,0,0
151019,-181.818181818181,4,2,0,50,0,0
186553,-83.3333333333333,4,2,0,50,0,0
194031,-71.4285714285714,4,2,0,80,0,0
198009,-66.6666666666667,4,2,0,100,0,0
205256,-66.6666666666667,4,2,0,100,0,1
234712,-58.8235294117647,4,2,0,100,0,0

[Colours]
Combo1 : 255,155,0
Combo2 : 0,0,255
Combo3 : 128,128,192
Combo4 : 192,192,192

[HitObjects]
256,192,14023,12,0,15893,0:0:0:0:
128,80,16361,6,0,P|158:94|208:80,1,70
265,45,16828,1,0,0:0:0:0:
282,127,17062,1,0,0:0:0:0:
340,67,17296,2,0,P|374:61|408:68,1,70
468,127,17763,1,0,0:0:0:0:
426,200,17997,1,0,0:0:0:0:
348,169,18231,2,0,L|253:165,1,70,2|0,0:0|0:0,0:0:0:0:
221,86,18698,2,0,L|155:150,1,70,2|0,0:0|0:0,0:0:0:0:
72,123,19166,2,0,L|74:198,1,70,2|0,0:0|0:0,0:0:0:0:
72,291,19633,6,0,P|97:319|134:322,1,70
217,283,20101,1,0,0:0:0:0:
351,323,20569,2,0,P|388:297|399:262,1,70
395,177,21036,1,0,0:0:0:0:
186,200,21504,6,0,P|138:264|26:232,1,210
89,157,22439,1,0,0:0:0:0:
31,77,22673,2,0,L|116:60,1,70
197,54,23140,1,2,0:0:0:0:
130,125,23374,1,2,0:0:0:0:
227,133,23608,6,0,P|291:124|369:151,1,140
420,67,24309,1,0,0:0:0:0:
361,146,24543,2,0,L|312:152,1,35
290,154,24777,1,0,0:0:0:0:
242,68,25010,2,0,P|220:39|178:30,2,70
246,166,25712,2,0,L|246:241,1,70,2|0,0:0|0:0,0:0:0:0:
245,334,26179,1,2,0:0:0:0:
339,359,26413,1,0,0:0:0:0:
409,290,26647,2,0,L|338:265,1,70,2|0,0:0|0:0,0:0:0:0:
262,210,27114,6,0,P|264:171|311:137,1,70
351,208,27582,1,0,0:0:0:0:
422,40,28050,2,0,P|469:34|472:45,1,70
482,64,28400,1,0,0:0:0:0:
477,88,28517,1,0,0:0:0:0:
455,176,28751,1,0,0:0:0:0:
368,129,28985,6,0,B|301:100|301:100|228:148,1,140
169,198,29686,1,0,0:0:0:0:
96,132,29920,1,0,0:0:0:0:
17,191,30154,1,0,0:0:0:0:
60,278,30387,1,0,0:0:0:0:
158,278,30621,1,2,0:0:0:0:
158,278,30855,1,2,0:0:0:0:
309,107,31323,6,0,P|258:103|229:124,1,83.9999974365235,2|0,0:0|0:0,0:0:0:0:
176,214,31790,1,0,0:0:0:0:
256,287,32024,2,0,P|304:287|339:261,1,83.9999974365235,2|0,0:0|0:0,0:0:0:0:
371,165,32491,1,0,0:0:0:0:
282,100,32725,2,0,P|234:100|207:127,1,83.9999974365235,2|0,0:0|0:0,0:0:0:0:
166,224,33193,5,0,0:0:0:0:
79,143,33427,2,0,P|58:106|81:59,1,83.9999974365235
173,13,33894,1,2,0:0:0:0:
260,91,34128,1,2,0:0:0:0:
159,151,34362,1,2,0:0:0:0:
266,198,34595,1,2,0:0:0:0:
269,315,34829,1,2,0:0:0:0:
380,277,35063,2,0,P|414:253|435:214,1,83.9999974365235
452,99,35531,6,0,B|372:31|372:31|352:109,1,167.999994873047
325,205,36232,1,2,0:0:0:0:
215,248,36466,1,2,0:0:0:0:
100,228,36699,2,0,P|68:170|110:77,1,167.999994873047,2|0,0:0|0:0,0:0:0:0:
196,22,37401,1,0,0:0:0:0:
303,2,37635,1,0,0:0:0:0:
401,48,37868,1,0,0:0:0:0:
401,48,38102,2,8,L|453:129,1,83.9999974365235
459,221,38570,1,0,0:0:0:0:
362,271,38804,6,0,P|307:276|275:260,1,83.9999974365235,2|0,0:0|0:0,0:0:0:0:
209,183,39271,1,0,0:0:0:0:
298,120,39505,2,0,B|341:122|377:145,1,83.9999974365235,2|0,0:0|0:0,0:0:0:0:
423,244,39972,1,0,0:0:0:0:
321,285,40206,2,0,P|272:279|224:245,1,83.9999974365235,2|0,0:0|0:0,0:0:0:0:
157,193,40674,6,0,P|146:154|158:109,2,83.9999974365235
175,309,41375,1,2,0:0:0:0:
262,231,41609,1,2,0:0:0:0:
161,171,41843,1,2,0:0:0:0:
268,124,42076,1,2,0:0:0:0:
199,27,42310,1,2,0:0:0:0:
143,130,42544,2,0,P|198:138|231:125,1,83.9999974365235
325,70,43012,5,0,0:0:0:0:
216,26,43245,2,0,L|163:32,1,41.9999987182618
132,38,43479,1,2,0:0:0:0:
44,117,43713,2,2,P|30:173|51:205,2,83.9999974365235
151,68,44414,2,0,P|215:100|236:204,1,167.999994873047
157,236,45583,6,8,P|183:191|176:151,1,83.9999974365235
256,192,58909,12,8,60779,0:0:0:0:
434,323,61247,6,0,P|460:268|403:137,1,210
315,131,62182,1,0,0:0:0:0:
289,44,62415,1,0,0:0:0:0:
289,44,62532,1,0,0:0:0:0:
289,44,62649,2,0,P|211:33|140:63,1,140
14,190,63584,2,0,L|104:190,1,70
133,189,63935,1,0,0:0:0:0:
182,190,64052,1,0,0:0:0:0:
127,271,64286,2,2,L|205:271,1,70
295,271,64753,1,0,0:0:0:0:
302,173,64987,6,0,P|337:171|376:191,1,70
420,268,65455,1,0,0:0:0:0:
386,359,65688,1,0,0:0:0:0:
451,285,65922,2,0,B|464:252|464:252|456:204,1,70
370,173,66390,2,0,B|361:138|361:138|372:94,1,70
417,19,66857,5,0,0:0:0:0:
303,23,67091,2,0,P|255:39|231:121,1,140
303,198,68026,5,0,0:0:0:0:
227,146,68260,2,0,L|297:110,1,70
373,150,68728,2,0,L|389:225,1,70
291,239,69195,1,0,0:0:0:0:
239,155,69429,1,0,0:0:0:0:
189,155,69546,1,0,0:0:0:0:
139,154,69663,1,0,0:0:0:0:
33,252,70130,6,0,P|68:288|180:285,1,140
228,233,70832,1,0,0:0:0:0:
310,181,71065,2,0,L|310:106,1,70
311,61,71416,1,0,0:0:0:0:
312,11,71533,1,0,0:0:0:0:
403,47,71767,2,2,L|403:125,1,70
397,214,72234,1,0,0:0:0:0:
298,212,72468,6,0,B|307:249|307:249|284:295,1,70
214,337,72936,1,0,0:0:0:0:
118,318,73169,2,0,B|73:275|73:275|84:193,1,140
105,102,73871,2,0,B|131:75|131:75|177:77,1,70
261,81,74338,2,0,B|293:81|293:81|308:115,1,70
235,180,74806,1,0,0:0:0:0:
235,180,75040,2,0,B|251:244|340:279|427:269|464:198,1,280
483,99,76209,6,0,L|457:60,1,26.2500010013581
439,55,76442,1,0,0:0:0:0:
405,60,76559,2,0,B|371:74|347:57|304:22|304:22|278:58|277:104|214:98,1,236.250009012223
118,178,78079,6,0,L|130:217,1,26.2500010013581
137,238,78313,1,0,0:0:0:0:
149,269,78429,2,0,B|170:332|170:332|226:316|230:260|236:230|312:238,1,236.250009012223
451,155,79949,6,0,L|419:131,1,26.2500010013581
397,126,80183,1,0,0:0:0:0:
363,118,80300,2,0,B|343:79|343:79|295:114|295:114|264:90|232:77|206:96|188:137|216:159,1,236.250009012223
205,327,81819,6,0,L|234:302,1,26.2500010013581
255,288,82053,1,0,0:0:0:0:
286,274,82170,2,0,B|333:173|430:219|452:144|418:106,1,236.250009012223
276,90,83690,6,2,L|254:112,1,26.2500010013581
231,135,83923,1,0,0:0:0:0:
201,156,84040,2,0,B|158:188|158:188|167:243|146:290|63:306|44:251,1,236.250009012223
57,114,85560,6,2,L|97:96,1,26.2500010013581
117,94,85794,1,0,0:0:0:0:
152,88,85910,2,0,B|195:69|236:90|229:128|235:163|271:183|312:198|366:176,1,236.250009012223
459,78,87430,6,2,L|442:113,1,26.2500010013581
430,134,87664,1,0,0:0:0:0:
413,166,87781,2,0,B|422:237|344:226|248:269|341:348,1,236.250009012223
247,222,89300,6,2,L|277:186,1,26.2500010013581
286,173,89534,1,0,0:0:0:0:
311,146,89651,2,0,B|360:118|330:77|223:181|196:144|159:155|135:116,1,236.250009012223
58,249,91171,6,2,P|112:300|177:299,1,140
337,84,92339,5,0,0:0:0:0:
337,84,92573,2,2,P|378:108|395:144,1,70
108,174,93508,1,2,0:0:0:0:
212,49,94443,6,2,P|148:49|115:114,1,140
119,113,95379,1,0,0:0:0:0:
286,354,96080,2,0,P|351:343|367:327,1,70,0|2,0:0|0:0,0:0:0:0:
352,341,96548,1,0,0:0:0:0:
455,66,97249,1,0,0:0:0:0:
250,89,98184,6,2,P|169:137|82:110,1,167.999994873047
100,122,99119,2,0,P|129:150|120:197,1,83.9999974365235,2|0,0:0|0:0,0:0:0:0:
124,190,99587,1,2,0:0:0:0:
240,197,99820,2,0,P|313:164|404:200,1,167.999994873047
337,279,100522,2,0,P|297:266|321:247,1,83.9999974365235,2|0,0:0|0:0,0:0:0:0:
421,203,100989,2,0,P|441:164|400:168,1,83.9999974365235,2|0,0:0|0:0,0:0:0:0:
297,136,101457,2,0,P|257:123|281:104,1,83.9999974365235,2|0,0:0|0:0,0:0:0:0:
388,83,101924,6,0,P|355:34|244:30,1,167.999994873047,2|2,0:0|0:0,0:0:0:0:
166,143,102626,1,0,0:0:0:0:
304,93,102860,1,2,0:0:0:0:
271,235,103093,1,0,0:0:0:0:
403,170,103327,1,2,0:0:0:0:
282,85,103561,1,0,0:0:0:0:
310,229,103795,1,2,0:0:0:0:
178,162,104029,1,0,0:0:0:0:
226,300,104262,2,0,L|252:362,10,52.5000020027161,2|0|0|0|2|0|0|0|2|0|0,0:0|0:0|0:0|0:0|0:0|0:0|0:0|0:0|0:0|0:0|0:0,0:0:0:0:
179,205,105665,1,0,0:0:0:0:
179,205,105782,1,0,0:0:0:0:
278,80,106133,6,0,P|326:64|381:87,1,105.000004005432
277,192,106600,1,0,0:0:0:0:
424,192,106834,1,0,0:0:0:0:
361,325,107068,2,0,P|311:326|256:279,1,105.000004005432
260,159,107535,2,0,P|238:116|171:93,1,105.000004005432
91,189,108003,6,0,L|49:291,1,105.000004005432,4|0,0:0|0:0,0:0:0:0:
181,246,108470,2,0,L|246:145,1,105.000004005432,4|0,0:0|0:0,0:0:0:0:
319,274,108938,2,0,L|240:348,1,105.000004005432,4|0,0:0|0:0,0:0:0:0:
113,299,109406,6,0,P|92:243|106:202,1,105.000004005432
239,173,109873,1,0,0:0:0:0:
113,47,110341,6,0,P|92:94|105:143,1,105.000004005432
239,173,110808,1,0,0:0:0:0:
117,191,111042,2,0,P|69:207|57:275,1,105.000004005432
198,268,111510,1,0,0:0:0:0:
92,353,111743,6,0,B|244:347|244:347|299:288,1,210.000008010865
363,193,112445,1,0,0:0:0:0:
232,232,112678,1,0,0:0:0:0:
146,132,112912,1,0,0:0:0:0:
146,132,113146,1,8,0:0:0:0:
61,175,113380,6,0,P|70:86|180:48,1,210.000008010865
299,48,114081,1,0,0:0:0:0:
421,108,114315,1,0,0:0:0:0:
447,147,114432,1,0,0:0:0:0:
435,192,114549,1,0,0:0:0:0:
369,311,114782,2,0,P|339:277|357:215,1,105.000004005432
419,103,115250,1,0,0:0:0:0:
282,84,115484,6,0,L|324:186,1,105.000004005432,4|0,0:0|0:0,0:0:0:0:
216,283,115951,2,0,L|126:228,1,105.000004005432,4|0,0:0|0:0,0:0:0:0:
192,96,116419,2,0,L|288:155,1,105.000004005432,4|0,0:0|0:0,0:0:0:0:
428,161,116887,6,0,P|440:111|412:69,1,105.000004005432
274,120,117354,1,0,0:0:0:0:
120,161,117822,6,0,P|107:111|135:69,1,105.000004005432
274,120,118289,1,0,0:0:0:0:
406,55,118523,2,0,B|475:84|475:84|364:183,1,210.000008010865
258,265,119224,5,0,0:0:0:0:
285,120,119458,1,0,0:0:0:0:
158,194,119692,1,0,0:0:0:0:
201,53,119926,1,0,0:0:0:0:
259,187,120159,1,0,0:0:0:0:
113,210,120393,1,4,0:0:0:0:
253,272,120627,1,4,0:0:0:0:
253,272,121095,6,2,P|298:330|381:309,1,154.000004699707
328,231,121796,2,2,P|264:183|197:240,1,154.000004699707
268,293,122497,2,2,P|369:334|414:285,1,154.000004699707
344,196,123432,6,2,P|254:196|254:196,1,77.0000023498536
247,98,123900,2,2,L|247:182,1,77.0000023498536
145,196,124368,2,2,L|238:196,1,77.0000023498536
329,193,124835,1,2,0:0:0:0:
300,328,125303,6,0,B|279:281|279:281|195:349,1,154.000004699707,2|0,0:0|0:0,0:0:0:0:
101,288,126004,2,2,P|69:288|41:242,2,77.0000023498536
160,207,126705,2,0,L|251:207,1,77.0000023498536
325,255,127173,2,0,L|382:190,1,77.0000023498536
429,112,127640,1,0,0:0:0:0:
328,111,127874,2,0,P|296:111|262:77,2,77.0000023498536,4|4|0,0:0|0:0|0:0,0:0:0:0:
428,121,128576,6,2,P|428:153|403:204,1,77.0000023498536
334,114,129043,1,2,0:0:0:0:
247,118,129277,2,2,L|248:45,2,38.5000011749268
146,121,129744,1,2,0:0:0:0:
45,117,129978,2,2,P|45:165|66:197,1,77.0000023498536
140,260,130446,2,0,B|117:350|244:253,1,154.000004699707,2|0,0:0|0:0,0:0:0:0:
311,174,131147,5,2,0:0:0:0:
215,72,131381,1,2,0:0:0:0:
347,113,131615,1,2,0:0:0:0:
257,7,131849,1,2,0:0:0:0:
395,3,132082,1,2,0:0:0:0:
395,3,132316,2,2,B|426:45|426:45|340:112,1,154.000004699707
246,44,133017,5,2,0:0:0:0:
227,81,133134,1,2,0:0:0:0:
240,121,133251,1,2,0:0:0:0:
364,183,133485,1,2,0:0:0:0:
241,247,133719,1,2,0:0:0:0:
367,304,133953,1,2,0:0:0:0:
367,304,134186,2,0,L|441:273,1,77.0000023498536
473,139,134654,2,0,B|405:88|405:88,1,77.0000023498536
309,186,135121,2,0,L|412:186,1,77.0000023498536,0|8,0:0|0:0,0:0:0:0:
231,187,135589,1,8,0:0:0:0:
411,27,136057,6,0,P|497:30|497:62,1,115.50000352478
503,37,136524,2,0,P|471:72|478:110,1,77.0000023498536
422,186,136992,2,0,P|374:154|347:195,1,115.50000352478
346,191,137459,2,0,B|299:212|276:191|268:143|266:18|237:2|195:9|162:32|156:57,1,308.000009399414
67,197,139096,2,8,P|99:197|145:221,1,77.0000023498536
207,289,139563,1,0,0:0:0:0:
208,188,139797,6,0,P|208:156|227:114,1,77.0000023498536
297,44,140265,1,0,0:0:0:0:
393,69,140498,2,0,L|416:39,3,38.5000011749268
363,179,141200,2,0,L|334:215,2,38.5000011749268
458,148,141667,2,0,B|487:256|415:315|415:315|389:265,1,231.000007049561
262,233,142602,2,0,B|215:186|215:186|263:154|263:154|215:111|215:111|264:83|264:83|216:31|216:31,1,315.000012016297,0|0,0:3|0:3,0:3:0:0:
130,95,143538,5,8,0:0:0:0:
80,159,143771,2,8,B|45:108|43:79|91:26,1,140
181,158,144473,2,8,B|217:106|220:66|170:25,1,140,8|4,0:0|0:0,0:0:0:0:
378,284,145408,5,8,0:0:0:0:
432,224,145641,2,8,B|462:265|468:302|421:357,1,140
324,225,146343,2,8,B|291:277|294:306|335:358,1,140,8|4,0:0|0:0,0:0:0:0:
222,269,147161,6,0,L|202:235,1,35
110,138,147629,2,0,L|169:153,1,35
278,171,148096,2,0,L|262:127,3,35
249,17,148681,2,0,L|285:45,1,35
319,74,148914,1,0,0:0:0:0:
422,98,149616,1,0,0:0:0:0:
304,110,149967,6,0,L|305:149,1,35
260,154,150200,2,0,L|260:191,1,35
215,199,150434,2,0,L|215:238,1,35
69,159,151019,6,0,B|158:182|221:41|370:102,1,308.000009399414
353,282,154759,6,0,B|355:218|419:204|468:189|468:189|420:172|357:154|359:90,2,308.000009399414
347,125,160370,6,0,B|319:47|218:18|142:76,1,231.000007049561
73,120,162123,5,0,0:0:0:0:
69,143,162240,2,0,B|76:178|110:198|110:198|33:240|20:295|73:353|149:321,2,308.000009399414
160,48,167851,6,0,P|160:176|242:227,1,231.000007049561
323,174,169721,6,0,L|370:110,1,77.0000023498536
373,161,170422,2,0,L|321:235,1,77.0000023498536
278,226,171124,1,0,0:0:0:0:
178,224,171591,2,0,B|177:177|177:177|199:165|199:165|178:136|178:136|162:132|162:132|357:132,1,308.000009399414
202,69,175332,6,0,P|127:186|236:306,1,308.000009399414
300,368,177670,2,0,P|301:256|228:217,1,192.500005874634
140,212,179072,1,0,0:0:0:0:
193,296,179306,1,0,0:0:0:0:
68,354,179774,1,0,0:0:0:0:
256,192,183982,12,8,186554,0:0:0:0:
398,68,187021,6,8,B|292:82|292:82|275:148,1,167.999994873047
352,148,187956,2,8,B|339:204|339:204|227:225,1,167.999994873047
266,136,188891,2,8,B|151:166|151:166|140:222,1,167.999994873047
226,225,189826,2,8,B|215:279|215:279|106:305,1,167.999994873047
143,216,190761,2,8,B|155:157|155:157|269:143,1,167.999994873047
347,142,191697,2,8,B|336:201|336:201|228:231,1,167.999994873047
105,121,192632,1,8,0:0:0:0:
346,192,193099,1,8,0:0:0:0:
127,317,193567,1,8,0:0:0:0:
256,192,194034,6,0,L|328:262,1,97.9999970092774,8|0,0:0|0:0,0:0:0:0:
256,192,194502,2,0,L|177:285,1,97.9999970092774,8|0,0:0|0:0,0:0:0:0:
256,192,194970,2,0,L|184:116,1,97.9999970092774,8|0,0:0|0:0,0:0:0:0:
256,192,195437,2,8,L|338:119,1,97.9999970092774,8|0,0:0|0:0,0:0:0:0:
256,192,195905,5,8,0:0:0:0:
256,128,196138,1,0,0:0:0:0:
320,192,196372,1,8,0:0:0:0:
256,256,196606,1,0,0:0:0:0:
192,192,196840,1,8,0:0:0:0:
192,64,197074,1,0,0:0:0:0:
352,64,197307,1,8,0:0:0:0:
256,192,197541,1,0,0:0:0:0:
256,16,197775,6,0,L|256:133,1,97.9999970092774,8|0,0:0|0:0,0:0:0:0:
368,32,198242,2,0,L|331:137,1,105.000004005432,8|0,0:0|0:0,0:0:0:0:
464,80,198710,2,0,L|392:169,1,105.000004005432,8|0,0:0|0:0,0:0:0:0:
481,197,199178,2,0,B|392:197|392:197|407:125|391:78|351:47|277:25|223:20|159:40|114:74|72:128|71:203|78:259|112:293|152:315|224:314|283:289|329:252|340:201|339:149|274:125|203:173,1,945.00003604889,8|0,0:0|0:0,0:0:0:0:
219,163,201515,1,4,0:0:0:0:
146,149,203152,6,0,L|358:148,1,210.000008010865
305,222,203853,2,0,L|191:222,1,105.000004005432
256,304,204321,2,0,L|256:73,1,210.000008010865,0|2,0:0|0:0,0:0:0:0:
372,40,205256,6,0,P|404:72|399:133,1,105.000004005432
294,214,205723,1,0,0:0:0:0:
294,77,205957,1,0,0:0:0:0:
351,200,206191,1,0,0:0:0:0:
228,280,206425,2,0,P|291:317|415:277,1,210.000008010865
479,157,207126,6,0,P|479:109|453:56,1,105.000004005432
361,158,207594,2,0,P|367:219|346:255,1,105.000004005432
304,278,207944,1,2,0:0:0:0:
259,293,208061,1,0,0:0:0:0:
177,183,208295,1,0,0:0:0:0:
130,273,208529,6,0,P|98:225|106:74,1,210.000008010865
166,174,209230,1,0,0:0:0:0:
195,33,209464,2,0,B|239:131|239:131|294:20,1,210.000008010865
342,150,210165,1,0,0:0:0:0:
452,174,210399,2,0,P|440:240|389:264,1,105.000004005432
275,274,210867,1,0,0:0:0:0:
323,146,211100,1,0,0:0:0:0:
196,197,211334,1,0,0:0:0:0:
157,77,211568,1,0,0:0:0:0:
115,100,211685,1,0,0:0:0:0:
92,141,211802,1,0,0:0:0:0:
191,218,212036,1,8,0:0:0:0:
314,161,212269,6,0,P|230:160|190:205,1,105.000004005432,8|0,0:0|0:0,0:0:0:0:
272,232,212737,2,0,P|379:222|445:150,1,210.000008010865
395,22,213438,1,0,0:0:0:0:
354,12,213555,1,2,0:0:0:0:
311,13,213672,1,0,0:0:0:0:
199,92,213906,2,0,P|178:134|221:154,1,105.000004005432
330,134,214373,2,0,P|372:155|351:198,1,105.000004005432
214,189,214841,1,0,0:0:0:0:
101,86,215075,2,0,P|143:56|195:55,1,105.000004005432,0|0,0:0|0:0,0:0:0:0:
236,61,215425,1,2,0:0:0:0:
272,82,215542,1,0,0:0:0:0:
272,218,215776,1,0,0:0:0:0:
192,230,216010,6,0,P|250:302|346:251,1,210.000008010865
418,145,216711,1,0,0:0:0:0:
409,281,216945,1,0,0:0:0:0:
285,338,217179,1,0,0:0:0:0:
244,350,217296,1,2,0:0:0:0:
208,328,217413,1,0,0:0:0:0:
112,231,217646,2,0,B|77:161|69:42|152:78,1,210.000008010865
265,152,218348,5,0,0:0:0:0:
407,118,218581,1,0,0:0:0:0:
296,215,218815,1,0,0:0:0:0:
315,69,219049,1,0,0:0:0:0:
189,145,219283,1,0,0:0:0:0:
326,196,219517,1,8,0:0:0:0:
204,277,219750,1,8,0:0:0:0:
79,173,220218,6,2,P|95:109|225:92,1,210.000008010865
351,131,220919,2,2,P|294:222|195:185,1,210.000008010865
242,79,221621,2,2,P|144:70|102:166,1,210.000008010865
191,274,222322,2,0,L|190:163,1,105.000004005432
188,21,222789,5,2,0:0:0:0:
283,132,223023,1,0,0:0:0:0:
146,77,223257,1,0,0:0:0:0:
256,174,223491,1,0,0:0:0:0:
109,185,223725,1,0,0:0:0:0:
229,268,223958,2,0,L|136:351,1,105.000004005432
93,213,224426,2,2,B|35:117|35:117|133:93,1,210.000008010865,2|0,0:0|0:0,0:0:0:0:
172,183,225127,1,2,0:0:0:0:
248,70,225361,1,2,0:0:0:0:
305,153,225595,6,0,B|342:231|342:231|184:270,1,210.000008010865,2|0,0:0|0:0,0:0:0:0:
173,132,226296,2,0,B|126:157|126:157|132:230,1,105.000004005432
222,268,226764,1,0,0:0:0:0:
74,264,226998,1,4,0:0:0:0:
191,351,227231,1,0,0:0:0:0:
313,270,227465,1,0,0:0:0:0:
215,175,227699,6,2,P|177:226|188:265,1,105.000004005432,2|0,0:0|0:0,0:0:0:0:
94,147,228166,1,2,0:0:0:0:
222,74,228400,1,2,0:0:0:0:
262,62,228517,1,2,0:0:0:0:
298,82,228634,1,2,0:0:0:0:
360,214,228868,1,2,0:0:0:0:
267,328,229102,2,2,P|243:284|268:223,1,105.000004005432,2|0,0:0|0:0,0:0:0:0:
333,107,229569,6,2,P|380:98|393:145,1,105.000004005432
317,271,230037,2,2,P|308:318|353:334,1,105.000004005432
450,223,230504,1,2,0:0:0:0:
306,190,230738,1,2,0:0:0:0:
421,99,230972,1,2,0:0:0:0:
275,80,231206,1,2,0:0:0:0:
405,145,231439,6,2,B|360:107|360:107|322:165|322:165|240:165,1,210.000008010865
93,152,232141,1,2,0:0:0:0:
51,160,232258,1,2,0:0:0:0:
33,198,232375,2,2,P|29:265|58:286,1,105.000004005432
199,263,232842,2,2,P|191:318|152:356,1,105.000004005432
277,265,233310,6,0,P|293:233|347:190,1,105.000004005432
480,129,233777,2,0,P|414:92|371:104,1,105.000004005432
276,192,234245,2,4,P|222:190|183:156,1,105.000004005432
258,13,234712,1,4,0:0:0:0:
258,13,235180,6,0,L|258:141,1,119.000002269745,2|0,0:0|0:0,0:0:0:0:
295,170,235531,1,0,0:0:0:0:
259,209,235647,2,0,L|259:328,1,119.000002269745,2|0,0:0|0:0,0:0:0:0:
164,255,236115,1,2,0:0:0:0:
161,135,236349,1,0,0:0:0:0:
210,134,236466,1,0,0:0:0:0:
258,136,236583,1,2,0:0:0:0:
376,133,236816,1,0,0:0:0:0:
342,247,237050,6,0,L|265:155,1,119.000002269745,2|0,0:0|0:0,0:0:0:0:
185,244,237518,2,0,L|267:153,1,119.000002269745,2|0,0:0|0:0,0:0:0:0:
190,63,237985,2,0,L|269:159,1,119.000002269745,2|0,0:0|0:0,0:0:0:0:
339,63,238453,2,0,L|258:163,1,119.000002269745,2|0,0:0|0:0,0:0:0:0:
171,230,238920,2,0,B|206:88|166:367|329:364|329:364|329:244,1,357.000006809235,2|0,0:0|0:0,0:0:0:0:
329,178,239856,2,0,B|329:61|329:61|492:58|487:195,1,357.000006809235,2|0,0:0|0:0,0:0:0:0:
469,234,240674,1,0,0:0:0:0:
426,275,240791,6,0,B|369:304|282:322|228:291|228:291|247:245|247:245|181:249|181:249|206:196|206:196|165:199|165:199|186:131,1,476.00000907898
159,29,242193,6,0,L|101:8,2,59.5000011348725,2|0|0,0:0|0:0|0:0,0:0:0:0:
260,95,242661,2,0,L|317:81,2,59.5000011348725,2|0|0,0:0|0:0|0:0,0:0:0:0:
172,159,243128,2,0,L|119:133,2,59.5000011348725,2|0|0,0:0|0:0|0:0,0:0:0:0:
266,222,243596,2,0,L|329:205,2,59.5000011348725,2|0|0,0:0|0:0|0:0,0:0:0:0:
179,304,244064,2,0,L|173:366,2,59.5000011348725,2|0|0,0:0|0:0|0:0,0:0:0:0:
194,189,244531,1,0,0:0:0:0:
127,90,244765,1,0,0:0:0:0:
194,189,244999,1,0,0:0:0:0:
266,94,245233,1,0,0:0:0:0:
310,203,245466,2,0,L|446:203,1,119.000002269745
377,311,245934,5,0,0:0:0:0:
429,203,246168,1,0,0:0:0:0:
334,131,246401,2,0,P|224:96|124:157,1,238.00000453949
230,211,247103,2,0,P|294:275|431:194,1,238.00000453949
322,195,247804,2,0,P|358:68|279:32,1,238.00000453949
277,120,248505,2,0,B|186:155|281:245|159:329,1,238.00000453949
151,201,249207,2,0,B|251:163|256:303|387:287,1,238.00000453949
478,290,249908,2,0,L|456:345,1,59.5000011348725
