osu file format v14

[General]
AudioFilename: audio.mp3
AudioLeadIn: 0
PreviewTime: 98901
Countdown: 0
SampleSet: Soft
StackLeniency: 0.7
Mode: 0
LetterboxInBreaks: 0
WidescreenStoryboard: 1

[Editor]
Bookmarks: 14023,15893,31323,45817,58909,76209,77144,98184,106133,121095,136057,151019,183982,186553,194034,205256,220218,235180
DistanceSpacing: 2
BeatDivisor: 4
GridSize: 16
TimelineZoom: 1.7

[Metadata]
Title:Pumped Up Kicks (Bridge and Law Remix)
TitleUnicode:Pumped Up Kicks (Bridge and Law Remix)
Artist:Foster The People
ArtistUnicode:Foster The People
Creator:Lazix
Version:Faster Than My Bullet
Source:
Tags:pop edm english electronic
BeatmapID:1780976
BeatmapSetID:824807

[Difficulty]
HPDrainRate:7.2
CircleSize:4.2
OverallDifficulty:9
ApproachRate:8.5
SliderMultiplier:1.9
SliderTickRate:1

[Events]
//Background and Video events
0,0,"FTPbg.jpg",0,0
//Break Periods
2,179973,183307
//Storyboard Layer 0 (Background)
//Storyboard Layer 1 (Fail)
//Storyboard Layer 2 (Pass)
//Storyboard Layer 3 (Foreground)
//Storyboard Layer 4 (Overlay)
//Storyboard Sound Samples

[TimingPoints]
16361,467.562828755114,4,2,0,65,1,0
16361,-100,4,2,0,65,0,0
31323,-83.3333333333333,4,2,0,65,0,0
35764,-50,4,2,0,65,0,0
35998,-83.3333333333333,4,2,0,65,0,0
52363,-100,4,2,0,65,0,0
53298,-83.3333333333333,4,2,0,65,0,0
60779,-100,4,2,0,80,0,0
75040,-133.333333333333,4,2,0,80,0,0
76209,-100,4,2,0,50,0,0
83690,-133.333333333333,4,2,0,50,0,0
89300,-100,4,2,0,50,0,0
90703,-133.333333333333,4,2,0,50,0,0
91171,-200,4,2,0,50,0,0
98184,-83.3333333333333,4,2,0,70,0,0
102392,-66.6666666666667,4,2,0,80,0,0
105665,-50,4,2,0,80,0,0
106133,-66.6666666666667,4,2,0,100,0,1
121095,-90.9090909090909,4,2,0,100,0,1
136057,-133.333333333333,4,2,0,80,0,0
142602,-66.6666666666667,4,2,0,80,0,0
143304,-100,4,2,0,80,0,0
151019,-200,4,2,0,50,0,0
164344,-500,4,2,0,50,0,0
165747,-200,4,2,0,50,0,0
171591,-500,4,2,0,50,0,0
172526,-1000,4,2,0,50,0,0
173462,-200,4,2,0,50,0,0
186553,-133.333333333333,4,2,0,50,0,0
194034,-71.4285714285714,4,2,0,80,0,0
198009,-52.6315789473684,4,2,0,85,0,0
199411,-133.333333333333,4,2,0,100,0,0
203152,-83.3333333333333,4,2,0,100,0,0
205256,-58.8235294117647,4,2,0,100,0,1
212269,-55.5555555555556,4,2,0,100,0,1
220218,-52.6315789473684,4,2,0,100,0,1
221621,-40,4,2,0,100,0,1
222088,-55.5555555555556,4,2,0,100,0,1
227699,-66.6666666666667,4,2,0,100,0,1
232842,-58.8235294117647,4,2,0,100,0,1
235180,-55.5555555555556,4,2,0,100,0,0
239622,-45.4545454545455,4,2,0,100,0,0
239739,-58.8235294117647,4,2,0,100,0,0
244531,-33.3333333333333,4,2,0,100,0,0
247804,-28.5714285714286,4,2,0,100,0,0

[Colours]
Combo1 : 255,155,0
Combo2 : 0,0,255
Combo3 : 128,128,192
Combo4 : 192,192,192

[HitObjects]
256,192,14023,12,0,15893,0:0:0:0:
213,91,16361,5,0,0:0:0:0:
213,91,16594,1,0,0:0:0:0:
213,91,16828,2,0,P|210:155|232:190,1,95
310,272,17296,1,0,0:0:0:0:
241,102,17529,1,0,0:0:0:0:
173,264,17763,1,0,0:0:0:0:
357,195,17997,1,0,0:0:0:0:
173,264,18231,6,0,P|215:287|262:290,1,95,2|0,0:0|0:0,0:0:0:0:
236,84,18698,2,0,P|218:128|227:174,1,95,2|0,0:0|0:0,0:0:0:0:
290,140,19049,1,0,0:0:0:0:
360,153,19166,2,0,P|321:204|281:209,1,95,2|0,0:0|0:0,0:0:0:0:
83,181,19633,5,0,0:0:0:0:
236,254,19867,1,0,0:0:0:0:
229,73,20101,2,0,B|114:156|114:156|110:206,1,190
271,208,20802,1,0,0:0:0:0:
135,308,21037,2,0,B|267:255|267:255|271:204,1,190
280,76,21737,5,0,0:0:0:0:
280,76,21971,2,0,B|320:111|329:159,1,95
294,292,22439,1,0,0:0:0:0:
200,140,22673,1,0,0:0:0:0:
411,141,22906,1,0,0:0:0:0:
311,302,23140,1,2,0:0:0:0:
341,106,23374,1,2,0:0:0:0:
260,66,23608,6,0,P|353:29|426:74,1,190
426,229,24309,2,0,P|360:210|325:163,1,95
307,129,24660,1,0,0:0:0:0:
331,62,24777,1,0,0:0:0:0:
258,244,25011,1,0,0:0:0:0:
207,77,25244,1,0,0:0:0:0:
338,194,25478,1,0,0:0:0:0:
414,136,25712,6,0,P|372:113|325:110,1,95,2|0,0:0|0:0,0:0:0:0:
276,300,26179,2,0,P|294:256|285:210,1,95,2|0,0:0|0:0,0:0:0:0:
217,187,26530,1,0,0:0:0:0:
146,169,26647,2,0,P|187:122|225:113,1,95,2|0,0:0|0:0,0:0:0:0:
348,159,27114,1,0,0:0:0:0:
201,224,27348,1,0,0:0:0:0:
287,325,27582,2,0,B|345:316|379:249|341:164,1,190
235,104,28283,1,0,0:0:0:0:
202,167,28400,1,0,0:0:0:0:
132,148,28517,2,0,B|79:119|62:65|62:65|96:29|147:56,1,190
221,122,29218,5,0,0:0:0:0:
306,46,29452,1,0,0:0:0:0:
291,200,29686,1,0,0:0:0:0:
157,90,29920,1,0,0:0:0:0:
161,258,30154,1,0,0:0:0:0:
304,193,30387,5,0,0:0:0:0:
112,167,30621,1,2,0:0:0:0:
299,273,30855,5,2,0:0:0:0:
66,104,31089,1,0,0:0:0:0:
87,88,31323,6,0,B|161:64|136:203|286:137,1,227.999993041992,2|0,0:0|0:0,0:0:0:0:
440,48,32024,2,0,B|486:150|329:145|352:246,1,227.999993041992,2|0,0:0|0:0,0:0:0:0:
247,328,32725,2,0,B|172:241|312:189|210:110,1,227.999993041992,2|0,0:0|0:0,0:0:0:0:
168,217,33427,1,0,0:0:0:0:
126,278,33543,1,0,0:0:0:0:
166,340,33660,1,0,0:0:0:0:
338,279,33894,5,2,0:0:0:0:
373,58,34128,1,2,0:0:0:0:
263,185,34362,1,2,0:0:0:0:
228,36,34595,1,2,0:0:0:0:
91,66,34829,2,0,B|40:114|22:176|67:236|126:228|126:228|92:299|159:335,1,341.999989562989,2|0,0:0|0:0,0:0:0:0:
278,343,35764,6,0,B|338:342|350:295|350:295|377:338|435:330,1,190
278,343,36232,5,2,0:0:0:0:
131,337,36466,1,2,0:0:0:0:
54,212,36699,2,0,B|52:141|81:72|185:44|216:172|333:93,1,341.999989562989,2|0,0:0|0:0,0:0:0:0:
453,206,37635,1,0,0:0:0:0:
432,276,37751,1,0,0:0:0:0:
371,318,37868,1,0,0:0:0:0:
147,321,38102,1,8,0:0:0:0:
389,123,38336,1,8,0:0:0:0:
219,180,38570,1,0,0:0:0:0:
87,94,38804,6,0,B|122:35|188:52|205:79|220:184,1,227.999993041992,2|0,0:0|0:0,0:0:0:0:
433,101,39505,2,0,B|380:62|329:86|305:109|303:235,1,227.999993041992,2|0,0:0|0:0,0:0:0:0:
110,222,40206,2,0,B|53:217|30:163|44:100|105:83|171:88|216:142|231:224|219:344,1,455.999986083985,2|0,0:0|0:0,0:0:0:0:
315,219,41375,1,2,0:0:0:0:
465,135,41609,1,2,0:0:0:0:
305,50,41843,1,2,0:0:0:0:
408,305,42076,1,2,0:0:0:0:
238,237,42310,2,0,P|277:89|343:221,1,341.999989562989,2|0,0:0|0:0,0:0:0:0:
288,173,43245,5,2,0:0:0:0:
288,173,43362,1,2,0:0:0:0:
288,173,43479,1,2,0:0:0:0:
454,132,43713,1,0,0:0:0:0:
250,362,43947,1,2,0:0:0:0:
458,224,44180,2,0,B|386:262|360:196|281:178|219:222|234:295|251:363,1,341.999989562989,2|0,0:0|0:0,0:0:0:0:
250,362,45116,1,0,0:0:0:0:
226,101,45583,5,8,0:0:0:0:
284,151,45817,5,8,0:0:0:0:
273,314,46285,6,0,P|219:292|180:243,1,113.999996520996
133,330,46752,2,0,P|100:287|36:255,1,113.999996520996
270,173,47220,1,0,0:0:0:0:
144,57,47453,2,0,L|184:97,1,56.9999982604981
270,173,47687,1,0,0:0:0:0:
332,326,47921,5,0,0:0:0:0:
177,243,48155,1,0,0:0:0:0:
192,37,48622,2,0,P|113:42|67:80,1,113.999996520996
65,81,48973,1,2,0:0:0:0:
81,104,49090,1,0,0:0:0:0:
224,293,49324,1,0,0:0:0:0:
51,216,49557,2,0,P|89:262|139:287,1,113.999996520996
228,237,50025,6,0,B|165:211|147:162,1,113.999996520996
252,154,50492,2,0,P|304:175|345:214,1,113.999996520996
386,277,50843,1,0,0:0:0:0:
458,294,50960,2,0,P|415:345|354:346,1,113.999996520996
143,339,51428,2,0,B|94:255|53:248|53:248|78:210|67:144,1,227.999993041992
183,59,52129,1,0,0:0:0:0:
172,206,52363,2,0,P|203:250|261:252,1,95
261,110,52830,2,0,P|306:129|309:222,1,142.5
289,256,53298,5,0,0:0:0:0:
376,127,53532,1,0,0:0:0:0:
217,109,53766,1,0,0:0:0:0:
351,23,53999,1,0,0:0:0:0:
61,131,54233,2,0,P|97:79|157:47,1,113.999996520996
212,69,54584,1,0,0:0:0:0:
271,21,54701,2,0,P|289:69|252:137,2,113.999996520996
323,33,55402,2,0,B|348:110|305:181|305:181|512:124,1,341.999989562989
459,231,56337,6,0,L|402:253,1,56.9999982604981
329,277,56571,1,0,0:0:0:0:
451,309,56805,1,2,0:0:0:0:
185,379,57038,1,2,0:0:0:0:
349,261,57506,6,0,B|339:198|339:198|280:169,1,113.999996520996
223,294,57974,2,0,B|259:369|259:369|294:374,1,113.999996520996
327,353,58324,2,0,L|327:296,1,56.9999982604981
342,143,58675,1,0,0:0:0:0:
69,62,58908,1,0,0:0:0:0:
256,192,59142,1,0,0:0:0:0:
256,192,59259,12,8,60545,0:0:0:0:
256,192,60779,5,8,0:0:0:0:
256,80,61247,6,0,P|197:130|170:132,1,95
51,192,61714,2,0,P|100:238|153:244,1,95
282,271,62182,2,0,P|265:307|182:329,1,95
138,324,62532,1,0,0:0:0:0:
108,253,62649,1,0,0:0:0:0:
227,95,62883,1,0,0:0:0:0:
42,117,63117,6,0,P|11:177|21:214,1,95
177,345,63584,1,0,0:0:0:0:
138,166,63818,1,0,0:0:0:0:
201,124,63935,1,0,0:0:0:0:
271,152,64052,1,0,0:0:0:0:
405,312,64286,1,0,0:0:0:0:
195,224,64519,1,0,0:0:0:0:
421,173,64753,5,0,0:0:0:0:
263,43,64987,2,0,P|187:34|117:124,1,190
263,269,65688,1,0,0:0:0:0:
234,108,65922,1,0,0:0:0:0:
111,257,66156,1,0,0:0:0:0:
65,114,66390,2,0,P|86:80|161:64,1,95
297,64,66857,6,0,L|297:161,1,95
462,65,67325,2,0,L|367:65,1,95
461,227,67792,2,0,L|461:132,1,95
301,221,68260,2,0,L|396:221,1,95
402,66,68728,6,0,P|439:98|463:151,1,95
406,320,69195,1,0,0:0:0:0:
304,138,69429,1,0,0:0:0:0:
233,98,69546,1,0,0:0:0:0:
152,100,69663,2,0,P|120:116|85:164,1,95
239,329,70130,6,0,B|380:380|474:326|474:326|362:298|372:240,1,380
452,132,71299,2,0,L|502:81,2,47.5
334,250,71767,1,2,0:0:0:0:
209,25,72000,1,2,0:0:0:0:
371,93,72234,1,0,0:0:0:0:
98,96,72468,6,0,P|89:140|115:200,1,95
204,282,72936,1,0,0:0:0:0:
38,307,73169,2,0,B|181:364|206:276,1,190
180,93,73871,6,0,P|211:48|260:39,1,95
446,75,74338,2,0,P|458:114|445:173,1,95
354,284,74806,1,0,0:0:0:0:
154,186,75040,2,0,B|126:94|170:66|328:110|371:187,1,320.625012230874
376,232,76209,5,0,0:0:0:0:
332,251,76325,1,0,0:0:0:0:
289,271,76442,1,0,0:0:0:0:
246,291,76559,1,0,0:0:0:0:
201,263,76676,5,0,0:0:0:0:
203,214,76793,1,0,0:0:0:0:
206,167,76910,1,0,0:0:0:0:
209,119,77026,1,0,0:0:0:0:
255,93,77144,5,0,0:0:0:0:
292,122,77260,1,0,0:0:0:0:
329,152,77377,1,0,0:0:0:0:
367,183,77494,1,0,0:0:0:0:
347,276,78079,5,0,0:0:0:0:
299,277,78195,1,0,0:0:0:0:
252,278,78312,1,0,0:0:0:0:
205,280,78429,1,0,0:0:0:0:
180,233,78546,5,0,0:0:0:0:
201,189,78663,1,0,0:0:0:0:
222,146,78780,1,0,0:0:0:0:
243,103,78896,1,0,0:0:0:0:
294,116,79014,5,0,0:0:0:0:
317,157,79130,1,0,0:0:0:0:
339,199,79247,1,0,0:0:0:0:
362,242,79364,1,0,0:0:0:0:
390,319,79949,5,0,0:0:0:0:
344,303,80066,1,0,0:0:0:0:
298,289,80182,1,0,0:0:0:0:
252,272,80299,1,0,0:0:0:0:
322,222,80417,5,0,0:0:0:0:
276,206,80534,1,0,0:0:0:0:
230,192,80650,1,0,0:0:0:0:
184,175,80767,1,0,0:0:0:0:
255,128,80884,5,0,0:0:0:0:
207,112,81001,1,0,0:0:0:0:
161,98,81117,1,0,0:0:0:0:
115,81,81234,1,0,0:0:0:0:
326,64,81819,5,0,0:0:0:0:
368,84,81935,1,0,0:0:0:0:
396,121,82052,1,0,0:0:0:0:
405,168,82169,1,0,0:0:0:0:
333,156,82287,5,0,0:0:0:0:
338,202,82403,1,0,0:0:0:0:
321,246,82520,1,0,0:0:0:0:
286,278,82637,1,0,0:0:0:0:
264,209,82754,5,0,0:0:0:0:
232,244,82870,1,0,0:0:0:0:
188,261,82987,1,0,0:0:0:0:
142,256,83104,1,0,0:0:0:0:
195,65,83690,6,0,L|196:116,1,35.625001358986,2|0,0:0|0:0,0:0:0:0:
157,219,83923,2,0,L|193:179,1,35.625001358986
283,108,84157,2,0,L|271:151,1,35.625001358986,2|0,0:0|0:0,0:0:0:0:
237,263,84391,2,0,L|279:254,1,35.625001358986
397,248,84625,2,0,L|366:275,1,35.625001358986,2|0,0:0|0:0,0:0:0:0:
275,352,84858,2,0,L|330:353,1,35.625001358986
436,348,85092,1,2,0:0:0:0:
203,332,85560,6,0,L|204:281,1,35.625001358986,2|0,0:0|0:0,0:0:0:0:
165,178,85794,2,0,L|201:218,1,35.625001358986
291,289,86027,2,0,L|279:246,1,35.625001358986,2|0,0:0|0:0,0:0:0:0:
245,134,86261,2,0,L|287:143,1,35.625001358986
405,148,86495,2,0,L|373:121,1,35.625001358986,2|0,0:0|0:0,0:0:0:0:
283,45,86729,2,0,L|339:45,1,35.625001358986
482,45,86962,1,2,0:0:0:0:
129,107,87430,6,0,L|94:107,1,35.625001358986,2|0,0:0|0:0,0:0:0:0:
270,189,87664,2,0,L|305:189,1,35.625001358986
134,284,87898,2,0,L|71:283,1,35.625001358986,2|0,0:0|0:0,0:0:0:0:
373,287,88131,2,0,L|409:287,1,35.625001358986
237,192,88365,2,0,L|202:192,1,35.625001358986,2|0,0:0|0:0,0:0:0:0:
378,110,88599,2,0,L|414:110,1,35.625001358986
201,68,88833,1,2,0:0:0:0:
256,113,89300,5,2,0:0:0:0:
301,126,89416,1,0,0:0:0:0:
336,157,89533,1,0,0:0:0:0:
348,202,89650,1,0,0:0:0:0:
345,249,89768,2,0,L|293:275,1,47.5,2|0,0:0|0:0,0:0:0:0:
160,292,90002,1,0,0:0:0:0:
131,254,90118,1,0,0:0:0:0:
125,206,90235,1,2,0:0:0:0:
147,163,90352,1,0,0:0:0:0:
186,136,90469,2,0,L|248:133,1,47.5
353,182,90703,6,0,P|393:178|429:209,1,71.2500027179719,2|0,0:0|0:0,0:0:0:0:
427,269,91171,6,0,L|342:339,1,95,2|2,0:0|0:0,0:0:0:0:
353,329,92339,5,0,0:0:0:0:
224,176,92573,1,2,0:0:0:0:
48,240,92807,2,0,L|118:240,1,47.5,0|2,0:0|0:0,0:0:0:0:
95,240,93508,1,2,0:0:0:0:
96,240,94443,6,0,B|160:240|160:240|196:204,1,95,2|2,0:0|0:0,0:0:0:0:
181,218,95379,1,2,0:0:0:0:
181,218,96080,5,0,0:0:0:0:
96,80,96314,1,2,0:0:0:0:
256,80,96548,2,0,L|301:133,1,47.5
286,116,97249,1,2,0:0:0:0:
286,116,98184,6,2,B|346:157|346:157|210:283,1,227.999993041992
232,262,98885,1,0,0:0:0:0:
304,368,99119,1,2,0:0:0:0:
304,368,99353,1,0,0:0:0:0:
186,297,99587,1,2,0:0:0:0:
186,297,99820,1,0,0:0:0:0:
146,166,100054,1,2,0:0:0:0:
176,38,100288,6,0,L|277:139,1,113.999996520996,0|2,0:0|0:0,0:0:0:0:
256,118,100756,1,0,0:0:0:0:
208,247,100989,1,2,0:0:0:0:
208,247,101223,1,0,0:0:0:0:
148,129,101457,1,2,0:0:0:0:
148,129,101691,1,0,0:0:0:0:
192,32,101924,2,2,B|22:26|34:61,1,170.999994781494,2|0,0:0|0:0,0:0:0:0:
33,60,102392,5,2,0:0:0:0:
121,199,102626,1,0,0:0:0:0:
334,204,102860,1,2,0:0:0:0:
164,332,103093,1,0,0:0:0:0:
226,127,103327,1,2,0:0:0:0:
304,326,103561,1,0,0:0:0:0:
391,194,103795,2,0,P|306:208|240:153,1,142.500005435944,2|0,0:0|0:0,0:0:0:0:
70,82,104262,5,2,0:0:0:0:
80,151,104378,1,0,0:0:0:0:
114,213,104495,1,0,0:0:0:0:
183,230,104612,1,0,0:0:0:0:
254,227,104729,1,2,0:0:0:0:
321,203,104846,1,0,0:0:0:0:
390,218,104963,1,0,0:0:0:0:
427,278,105080,1,0,0:0:0:0:
391,339,105197,1,2,0:0:0:0:
319,340,105314,1,0,0:0:0:0:
266,291,105431,1,0,0:0:0:0:
251,221,105548,1,0,0:0:0:0:
250,149,105665,6,0,P|257:128|270:164,1,95
123,191,106133,6,0,B|197:191|197:191|256:231,1,142.500005435944
403,192,106600,2,0,B|339:193|339:193|274:150,1,142.500005435944
173,259,107068,1,0,0:0:0:0:
376,312,107301,1,0,0:0:0:0:
376,312,107418,1,0,0:0:0:0:
376,312,107535,1,0,0:0:0:0:
199,175,107769,1,0,0:0:0:0:
436,96,108003,6,0,P|356:93|298:74,1,142.500005435944,4|0,0:0|0:0,0:0:0:0:
286,144,108353,1,0,0:0:0:0:
334,196,108470,2,0,P|247:204|211:150,1,142.500005435944,4|0,0:0|0:0,0:0:0:0:
177,106,108821,1,0,0:0:0:0:
130,52,108938,2,0,P|105:125|152:176,1,142.500005435944,4|0,0:0|0:0,0:0:0:0:
397,232,109406,1,0,0:0:0:0:
97,334,109640,1,0,0:0:0:0:
438,329,109874,6,0,B|365:280|295:311|295:311|343:243|307:162,1,285.000010871888
135,193,110575,1,0,0:0:0:0:
211,175,110692,1,0,0:0:0:0:
195,98,110809,2,0,B|131:131|65:96|65:96|33:197|135:194,1,285.000010871888
136,39,111510,1,0,0:0:0:0:
438,110,111744,6,0,B|381:164|289:88,1,142.500005435944
255,45,112094,1,0,0:0:0:0:
332,31,112211,1,0,0:0:0:0:
252,303,112445,1,0,0:0:0:0:
117,77,112679,1,0,0:0:0:0:
43,267,112913,1,8,0:0:0:0:
413,223,113147,1,8,0:0:0:0:
404,50,113380,6,0,B|479:77|467:139|383:164|227:84,1,285.000010871888
43,121,114081,2,0,P|85:77|165:68,1,142.500005435944
235,99,114432,1,0,0:0:0:0:
222,21,114549,1,0,0:0:0:0:
130,316,114783,1,0,0:0:0:0:
290,150,115016,1,0,0:0:0:0:
296,330,115250,1,0,0:0:0:0:
76,288,115484,6,0,P|157:293|215:315,1,142.500005435944,4|0,0:0|0:0,0:0:0:0:
226,240,115834,1,0,0:0:0:0:
177,178,115951,2,0,P|264:170|300:224,1,142.500005435944,4|0,0:0|0:0,0:0:0:0:
333,276,116302,1,0,0:0:0:0:
384,334,116419,2,0,P|409:261|362:210,1,142.500005435944,4|0,0:0|0:0,0:0:0:0:
24,148,116886,1,0,0:0:0:0:
301,124,117120,1,0,0:0:0:0:
202,58,117354,6,0,B|126:105|126:148|86:170|21:147,1,213.750008153916
24,148,117822,1,0,0:0:0:0:
298,346,118055,1,0,0:0:0:0:
363,303,118172,1,0,0:0:0:0:
317,244,118289,2,0,P|256:279|186:276,1,142.500005435944
292,13,118757,6,0,P|336:47|440:59,1,142.500005435944
256,176,119224,1,0,0:0:0:0:
466,177,119458,1,0,0:0:0:0:
256,144,119692,1,0,0:0:0:0:
403,347,119926,1,0,0:0:0:0:
256,128,120159,1,0,0:0:0:0:
80,349,120393,1,4,0:0:0:0:
257,108,120627,1,4,0:0:0:0:
463,199,121095,6,0,B|464:320|432:336|416:336,1,156.750004783631,2|0,0:0|0:0,0:0:0:0:
394,319,121562,2,0,P|341:278|290:281,1,104.500003189087,2|0,0:0|0:0,0:0:0:0:
164,317,122030,1,0,0:0:0:0:
271,112,122263,1,2,0:0:0:0:
64,264,122497,1,2,0:0:0:0:
318,201,122731,1,2,0:0:0:0:
178,18,122965,6,0,P|288:26|317:57,1,156.750004783631,2|0,0:0|0:0,0:0:0:0:
298,75,123432,2,0,P|333:124|381:119,1,104.500003189087,2|0,0:0|0:0,0:0:0:0:
187,114,123900,1,2,0:0:0:0:
348,196,124134,1,2,0:0:0:0:
156,251,124368,1,2,0:0:0:0:
414,357,124602,1,2,0:0:0:0:
58,59,124835,6,0,P|96:160|64:192,1,156.750004783631,2|0,0:0|0:0,0:0:0:0:
55,206,125303,2,0,B|22:268|78:294,1,104.500003189087,2|0,0:0|0:0,0:0:0:0:
304,352,125770,1,2,0:0:0:0:
192,144,126004,1,2,0:0:0:0:
376,326,126238,2,0,L|491:272,1,104.500003189087,2|2,0:0|0:0,0:0:0:0:
215,223,126705,5,0,0:0:0:0:
456,123,126939,1,0,0:0:0:0:
294,328,127173,1,0,0:0:0:0:
347,68,127407,1,0,0:0:0:0:
118,192,127640,1,4,0:0:0:0:
370,258,127874,1,4,0:0:0:0:
113,310,128108,1,4,0:0:0:0:
425,368,128342,1,4,0:0:0:0:
213,18,128576,6,0,P|173:101|115:167,1,156.750004783631,2|0,0:0|0:0,0:0:0:0:
160,160,129043,2,0,P|206:147|274:159,1,104.500003189087,2|2,0:0|0:0,0:0:0:0:
291,165,129394,1,2,0:0:0:0:
313,187,129511,1,2,0:0:0:0:
194,68,129744,1,2,0:0:0:0:
238,272,129978,1,2,0:0:0:0:
71,44,130212,1,2,0:0:0:0:
299,366,130446,6,0,P|330:295|387:227,1,156.750004783631,2|0,0:0|0:0,0:0:0:0:
352,224,130913,2,0,P|298:233|239:223,1,104.500003189087,2|2,0:0|0:0,0:0:0:0:
221,211,131264,1,2,0:0:0:0:
207,183,131381,1,2,0:0:0:0:
318,68,131615,1,2,0:0:0:0:
149,105,131849,1,2,0:0:0:0:
441,132,132083,1,2,0:0:0:0:
168,244,132316,6,0,P|244:258|284:328,1,156.750004783631,2|0,0:0|0:0,0:0:0:0:
284,350,132784,1,2,0:0:0:0:
384,256,133017,1,2,0:0:0:0:
382,203,133134,1,2,0:0:0:0:
339,173,133251,1,2,0:0:0:0:
97,243,133485,1,2,0:0:0:0:
259,357,133719,1,0,0:0:0:0:
328,194,133953,1,0,0:0:0:0:
151,119,134186,5,2,0:0:0:0:
194,376,134420,1,2,0:0:0:0:
370,142,134654,1,0,0:0:0:0:
82,234,134887,1,0,0:0:0:0:
446,223,135121,1,0,0:0:0:0:
57,329,135355,1,0,0:0:0:0:
447,75,135589,1,0,0:0:0:0:
51,260,135823,1,0,0:0:0:0:
32,288,136057,6,0,P|64:320|93:323,1,71.2500027179719
229,242,136524,2,0,P|181:242|152:214,1,71.2500027179719
195,109,136992,2,0,P|256:112|288:144,1,106.875004076958
305,177,137459,1,0,0:0:0:0:
330,207,137576,1,0,0:0:0:0:
369,209,137693,1,0,0:0:0:0:
460,47,138394,5,0,0:0:0:0:
112,58,139096,6,0,P|70:75|44:100,2,71.2500027179719,8|8|0,0:0|0:0|0:0,0:0:0:0:
275,53,139797,2,0,P|316:56|351:84,1,71.2500027179719
372,217,140265,2,0,P|336:256|304:272,1,71.2500027179719
281,265,140615,1,0,0:0:0:0:
243,256,140732,1,0,0:0:0:0:
218,226,140849,1,0,0:0:0:0:
205,65,141200,1,0,0:0:0:0:
166,60,141317,1,0,0:0:0:0:
134,83,141434,2,0,B|102:99|86:131|86:163|118:179|169:179,1,142.500005435944
186,177,142135,1,0,0:0:0:0:
380,37,142602,6,0,L|320:96,1,71.2500027179719
420,137,142836,2,0,L|368:192,1,71.2500027179719
462,222,143070,2,0,L|400:288,1,71.2500027179719
360,328,143304,1,0,0:0:0:0:
77,312,143538,6,8,L|149:242,1,95
280,111,144005,1,0,0:0:0:0:
20,226,144239,2,8,L|112:180,1,95
280,109,144706,1,0,0:0:0:0:
440,63,144940,2,0,P|481:80|482:138,1,95,4|0,0:0|0:0,0:0:0:0:
435,312,145408,6,8,L|363:242,1,95
232,111,145875,1,0,0:0:0:0:
492,226,146109,2,8,L|400:180,1,95
232,109,146576,1,0,0:0:0:0:
232,109,146811,1,4,0:0:0:0:
320,40,147161,5,0,0:0:0:0:
384,112,147278,1,0,0:0:0:0:
261,86,147629,5,0,0:0:0:0:
325,158,147746,1,0,0:0:0:0:
200,131,148096,5,0,0:0:0:0:
278,245,148213,2,0,L|296:288,3,47.5
263,190,148681,1,0,0:0:0:0:
275,144,148798,1,0,0:0:0:0:
312,114,148915,1,0,0:0:0:0:
483,27,149616,6,0,L|352:104,1,142.5
319,123,150083,1,0,0:0:0:0:
277,145,150200,1,0,0:0:0:0:
234,165,150317,1,0,0:0:0:0:
193,189,150434,1,0,0:0:0:0:
152,214,150551,1,0,0:0:0:0:
50,221,151019,6,0,B|127:244|63:382|275:333,1,285
275,332,152889,6,0,B|321:290|344:252|296:145|335:112|423:152,1,285
421,151,154525,5,0,0:0:0:0:
421,151,154642,1,0,0:0:0:0:
421,151,154759,2,0,B|409:248|343:280|250:220,1,237.5
249,219,156162,2,0,B|201:222|181:249|186:283|186:283|205:345|177:371|120:376|104:314,1,261.25
94,283,157564,2,0,L|83:237,3,47.5
70,186,158383,1,0,0:0:0:0:
58,136,158500,2,0,B|41:88|41:42|98:26|139:66|166:152|176:209|248:207|274:148|227:78,2,380
110,190,162474,5,0,0:0:0:0:
166,240,162708,1,0,0:0:0:0:
240,256,162941,1,0,0:0:0:0:
310,226,163175,2,0,L|346:194,1,47.5
290,141,163643,2,0,L|327:88,1,47.5
362,41,164110,1,0,0:0:0:0:
429,81,164344,6,0,L|466:57,2,38
417,151,165747,5,0,0:0:0:0:
417,151,165981,2,0,B|416:139|432:249|368:298|324:234|291:160|241:136|195:164|195:228,1,332.5
195,226,167851,2,0,B|130:250|51:214|94:98|196:39,1,285
278,30,169487,6,0,L|258:76,1,47.5
318,154,169955,2,0,L|379:123,2,47.5
231,193,170890,1,0,0:0:0:0:
158,192,171124,2,0,L|98:191,1,47.5
168,67,171591,6,0,L|191:79,1,19
310,218,172059,2,0,L|332:210,1,19
471,140,172526,6,0,L|441:140,1,28.5
240,176,173462,6,0,P|270:164|282:144,1,47.5
313,90,173929,1,0,0:0:0:0:
275,29,174163,1,0,0:0:0:0:
203,23,174397,1,0,0:0:0:0:
142,61,174631,1,0,0:0:0:0:
110,124,174864,2,0,B|124:156|123:172|97:189|72:204|72:204|33:235|38:267|66:306|114:308|156:265,1,285
201,222,176501,5,0,0:0:0:0:
255,176,176735,1,0,0:0:0:0:
307,223,176968,1,0,0:0:0:0:
355,164,177202,2,0,L|391:115,1,47.5
314,93,177670,2,0,L|336:38,1,47.5
258,27,178137,2,0,B|188:8|143:32|106:63|91:107|86:182|151:209|203:179,1,332.5
256,192,183982,12,8,186553,0:0:0:0:
170,122,186904,5,0,0:0:0:0:
313,162,187255,1,0,0:0:0:0:
265,108,187488,5,0,0:0:0:0:
175,214,187839,1,0,0:0:0:0:
313,234,188190,1,0,0:0:0:0:
276,172,188424,5,0,0:0:0:0:
237,350,188774,1,0,0:0:0:0:
408,288,189126,1,0,0:0:0:0:
364,343,189359,5,0,0:0:0:0:
472,158,189709,1,0,0:0:0:0:
258,165,190061,1,0,0:0:0:0:
310,117,190294,5,0,0:0:0:0:
103,249,190645,1,0,0:0:0:0:
316,371,190996,1,0,0:0:0:0:
248,349,191229,5,0,0:0:0:0:
470,195,191580,1,0,0:0:0:0:
222,94,191931,1,0,0:0:0:0:
287,66,192164,5,0,0:0:0:0:
80,266,192515,1,0,0:0:0:0:
358,347,192866,1,0,0:0:0:0:
284,368,193099,5,0,0:0:0:0:
357,55,193450,1,0,0:0:0:0:
68,198,193801,1,0,0:0:0:0:
231,167,194034,5,0,0:0:0:0:
456,159,194268,1,0,0:0:0:0:
256,192,194502,1,8,0:0:0:0:
460,248,194736,1,0,0:0:0:0:
256,192,194970,1,8,0:0:0:0:
396,352,195203,5,0,0:0:0:0:
255,193,195437,1,8,0:0:0:0:
112,352,195671,1,0,0:0:0:0:
255,193,195905,1,8,0:0:0:0:
32,284,196138,5,0,0:0:0:0:
255,193,196372,1,8,0:0:0:0:
32,108,196606,1,0,0:0:0:0:
255,193,196840,1,8,0:0:0:0:
48,28,197074,5,0,0:0:0:0:
254,227,197307,1,8,0:0:0:0:
468,36,197541,1,0,0:0:0:0:
255,258,197775,1,8,0:0:0:0:
215,43,198009,6,0,P|179:70|156:108,1,90.2499975900651,8|0,0:0|0:0,0:0:0:0:
296,340,198242,2,0,P|332:313|355:275,1,90.2499975900651,8|0,0:0|0:0,0:0:0:0:
403,107,198476,6,0,P|379:69|344:42,1,90.2499975900651,8|0,0:0|0:0,0:0:0:0:
81,245,198710,2,0,P|105:283|141:311,1,90.2499975900651,8|0,0:0|0:0,0:0:0:0:
453,242,198944,6,0,P|465:199|457:156,1,90.2499975900651,8|0,0:0|0:0,0:0:0:0:
58,141,199178,2,0,P|46:184|55:228,1,90.2499975900651,8|0,0:0|0:0,0:0:0:0:
273,203,199411,6,0,B|272:160|304:144|304:144|272:128|272:128|337:122|337:122|290:111|160:48,1,356.25001358986,8|0,0:0|0:0,0:0:0:0:
97,159,200814,1,0,0:0:0:0:
183,232,201047,1,0,0:0:0:0:
146,325,201281,1,4,0:0:0:0:
67,323,201515,1,4,0:0:0:0:
256,82,203152,6,0,L|256:317,1,227.999993041992
455,237,203853,2,0,L|335:237,1,113.999996520996
57,147,204321,2,0,L|171:147,1,113.999996520996
488,192,204788,1,2,0:0:0:0:
316,308,205256,6,0,B|243:367|183:268,1,161.500003080368
154,116,205723,2,0,B|229:57|283:158,1,161.500003080368
366,304,206191,1,0,0:0:0:0:
121,184,206424,1,0,0:0:0:0:
88,249,206541,1,0,0:0:0:0:
128,309,206658,1,0,0:0:0:0:
319,355,206892,5,0,0:0:0:0:
459,159,207126,2,0,P|399:108|321:137,1,161.500003080368,4|0,0:0|0:0,0:0:0:0:
266,180,207476,1,0,0:0:0:0:
208,230,207593,2,0,P|123:263|74:191,1,161.500003080368,4|0,0:0|0:0,0:0:0:0:
83,139,207944,1,0,0:0:0:0:
92,58,208061,2,0,P|153:89|151:180,1,161.500003080368,4|0,0:0|0:0,0:0:0:0:
331,257,208529,1,0,0:0:0:0:
206,30,208763,1,0,0:0:0:0:
302,135,208996,6,0,B|381:146|396:110|378:65|378:65|424:33|482:52|482:52|488:96|440:127,1,323.000006160736
335,196,209698,1,0,0:0:0:0:
256,214,209815,1,0,0:0:0:0:
222,282,209932,2,0,B|199:329|262:352|299:296|308:234|254:166|186:166|118:310|161:334,1,323.000006160736
420,163,210633,5,0,0:0:0:0:
230,45,210867,2,0,B|284:28|316:58|308:152,1,161.500003080368
287,227,211217,1,0,0:0:0:0:
238,289,211334,1,0,0:0:0:0:
195,123,211568,1,0,0:0:0:0:
369,335,211802,1,0,0:0:0:0:
341,64,212036,1,8,0:0:0:0:
137,187,212269,6,0,B|96:248|33:244|22:197|26:124|86:85|175:89|201:114|216:183,1,341.999989562989
268,301,212971,1,0,0:0:0:0:
455,129,213204,2,0,B|390:127|372:108|372:108|343:74|294:79,1,170.999994781494
220,88,213555,1,0,0:0:0:0:
148,116,213672,1,0,0:0:0:0:
384,207,213906,1,0,0:0:0:0:
87,240,214139,1,0,0:0:0:0:
421,105,214373,1,0,0:0:0:0:
150,332,214607,6,0,P|180:264|162:167,1,170.999994781494,4|0,0:0|0:0,0:0:0:0:
238,151,214957,1,0,0:0:0:0:
183,95,215074,2,0,P|266:78|323:141,1,170.999994781494,4|0,0:0|0:0,0:0:0:0:
346,208,215425,1,0,0:0:0:0:
375,278,215542,2,0,B|423:259|439:188|400:151|400:151|426:122,1,170.999994781494,4|0,0:0|0:0,0:0:0:0:
276,266,216009,1,0,0:0:0:0:
476,326,216243,1,0,0:0:0:0:
291,344,216477,6,0,B|220:355|176:327|177:222|208:188|290:184|290:184|253:135,1,341.999989562989
167,24,217178,1,0,0:0:0:0:
190,97,217295,1,0,0:0:0:0:
153,164,217412,2,0,B|96:186|109:288|50:315,1,170.999994781494
298,318,217880,6,0,B|434:290|434:290|391:274,1,170.999994781494
195,241,218348,1,0,0:0:0:0:
472,225,218581,1,0,0:0:0:0:
149,259,218815,1,0,0:0:0:0:
393,100,219049,1,0,0:0:0:0:
113,278,219283,1,0,0:0:0:0:
488,135,219517,1,8,0:0:0:0:
63,303,219750,1,8,0:0:0:0:
267,287,220218,6,0,B|222:226|189:214|163:126|149:204|122:265|65:271|27:196|32:132|112:128,1,360.99999036026,2|2,0:0|0:0,0:0:0:0:
245,100,220919,2,0,B|349:261|390:122|447:116|485:191|480:255|401:260,1,360.99999036026,2|2,0:0|0:0,0:0:0:0:
241,315,221621,6,0,B|257:299|200:380|127:364|104:316|104:268|152:220|184:204|274:201|322:145|309:52|227:27|162:78|156:124|162:108,1,475,2|2,0:0|0:0,0:0:0:0:
258,322,222322,1,2,0:0:0:0:
332,303,222439,1,2,0:0:0:0:
355,229,222556,1,2,0:0:0:0:
48,312,222789,5,2,0:0:0:0:
329,88,223023,1,2,0:0:0:0:
124,103,223257,1,2,0:0:0:0:
317,353,223491,1,2,0:0:0:0:
171,96,223725,2,0,B|165:51|93:0|40:31|0:131|163:244,1,341.999989562989,2|0,0:0|0:0,0:0:0:0:
298,316,224426,2,0,B|184:364|184:364|221:321,1,170.999994781494,2|0,0:0|0:0,0:0:0:0:
392,144,224894,5,2,0:0:0:0:
183,88,225128,1,2,0:0:0:0:
443,327,225362,1,2,0:0:0:0:
340,97,225595,2,0,B|339:44|418:1|505:56|511:132|425:245,1,341.999989562989,2|0,0:0|0:0,0:0:0:0:
293,352,226296,5,0,0:0:0:0:
291,175,226530,1,0,0:0:0:0:
241,118,226647,1,2,0:0:0:0:
165,135,226764,1,0,0:0:0:0:
58,337,226998,1,4,0:0:0:0:
381,225,227231,1,4,0:0:0:0:
62,128,227465,1,0,0:0:0:0:
216,32,227699,6,0,P|160:96|240:176,1,213.750008153916,2|0,0:0|0:0,0:0:0:0:
238,103,228166,2,0,L|384:104,1,142.500005435944,2|2,0:0|0:0,0:0:0:0:
452,105,228517,1,2,0:0:0:0:
419,41,228634,1,0,0:0:0:0:
354,192,228868,1,2,0:0:0:0:
106,83,229102,1,2,0:0:0:0:
366,38,229335,1,2,0:0:0:0:
272,368,229569,2,0,P|224:272|128:336,1,213.750008153916,2|0,0:0|0:0,0:0:0:0:
192,352,230037,2,0,L|320:288,1,142.500005435944,2|2,0:0|0:0,0:0:0:0:
448,215,230504,5,2,0:0:0:0:
180,97,230738,1,2,0:0:0:0:
452,60,230972,1,2,0:0:0:0:
149,291,231206,1,2,0:0:0:0:
488,164,231439,6,0,P|368:176|408:264,1,213.750008153916,2|0,0:0|0:0,0:0:0:0:
420,293,231907,1,2,0:0:0:0:
159,335,232141,1,2,0:0:0:0:
99,296,232258,1,2,0:0:0:0:
97,224,232375,1,2,0:0:0:0:
327,126,232608,1,2,0:0:0:0:
184,220,232842,1,0,0:0:0:0:
450,294,233076,1,0,0:0:0:0:
223,75,233310,5,0,0:0:0:0:
340,334,233543,1,0,0:0:0:0:
350,72,233777,1,0,0:0:0:0:
145,336,234010,1,0,0:0:0:0:
443,164,234245,1,4,0:0:0:0:
59,18,234479,1,4,0:0:0:0:
414,362,234712,1,4,0:0:0:0:
30,249,234946,1,0,0:0:0:0:
20,231,235180,6,0,P|71:157|84:67,1,170.999994781494,2|0,0:0|0:0,0:0:0:0:
121,9,235531,1,0,0:0:0:0:
182,54,235647,2,0,P|253:106|347:105,1,170.999994781494,2|0,0:0|0:0,0:0:0:0:
492,153,236115,6,0,P|441:227|428:317,1,170.999994781494,2|0,0:0|0:0,0:0:0:0:
404,379,236466,1,0,0:0:0:0:
333,349,236582,2,0,P|262:297|168:298,1,170.999994781494,2|0,0:0|0:0,0:0:0:0:
28,327,237050,5,0,0:0:0:0:
400,24,237284,1,2,0:0:0:0:
116,264,237518,5,2,0:0:0:0:
464,64,237752,1,0,0:0:0:0:
48,64,237985,5,0,0:0:0:0:
396,264,238219,1,2,0:0:0:0:
146,201,238453,5,2,0:0:0:0:
362,265,238687,1,0,0:0:0:0:
394,263,238920,6,2,B|430:179|430:179|403:101|344:56|208:88,1,341.999989562989,2|0,0:0|0:0,0:0:0:0:
34,64,239622,2,0,B|46:118|46:118|15:148|15:148|28:180,1,104.500003189087
24,219,239856,2,2,B|16:287|16:287|56:406|244:325,1,323.000006160736,2|0,0:0|0:0,0:0:0:0:
410,249,240557,1,0,0:0:0:0:
360,195,240674,1,0,0:0:0:0:
309,143,240791,2,0,B|277:72|112:48|239:7|310:1|394:16,1,323.000006160736,2|2,0:0|0:0,0:0:0:0:
462,29,241375,1,0,0:0:0:0:
503,88,241492,1,0,0:0:0:0:
474,154,241609,2,0,L|393:154,1,80.750001540184
204,47,242193,5,2,0:0:0:0:
274,65,242310,1,0,0:0:0:0:
325,115,242427,1,0,0:0:0:0:
332,187,242544,1,0,0:0:0:0:
318,258,242661,2,0,L|231:269,1,80.750001540184
167,356,242895,2,0,L|101:309,1,80.750001540184
69,243,243128,1,2,0:0:0:0:
88,172,243245,1,0,0:0:0:0:
156,147,243362,1,0,0:0:0:0:
221,178,243479,1,0,0:0:0:0:
280,219,243596,2,0,L|362:252,1,80.750001540184
451,188,243830,2,0,L|362:157,1,80.750001540184
302,148,244064,1,2,0:0:0:0:
233,171,244180,1,0,0:0:0:0:
169,206,244297,1,0,0:0:0:0:
96,211,244414,1,0,0:0:0:0:
37,170,244531,6,0,B|3:77|61:17|108:10|196:71|104:114,1,285.000010871888,2|0,0:0|0:0,0:0:0:0:
466,285,244999,2,0,B|396:225|286:226|283:352|339:375|384:336,1,285.000010871888,2|0,0:0|0:0,0:0:0:0:
278,39,245466,2,0,B|156:21|52:20|33:81|120:124,1,285.000010871888,2|0,0:0|0:0,0:0:0:0:
256,312,245934,1,2,0:0:0:0:
0,144,246168,1,0,0:0:0:0:
354,176,246401,6,0,B|313:115|222:195|258:280|396:308,1,285.000010871888
355,177,246752,1,0,0:0:0:0:
136,78,247103,2,0,P|205:72|287:35,1,142.500005435944
156,160,247337,2,0,P|80:170|4:209,1,142.500005435944
115,324,247804,6,0,B|356:365|422:180|422:180|211:195|211:195|271:256,1,665.000006341934
110,87,248505,2,0,B|297:15|297:15|207:186|351:236|454:197|418:69|418:69|325:115,1,665.000006341934
40,252,249207,2,0,B|145:248|193:120|193:120|219:222|326:257|326:257|258:304|208:364|208:364|166:274,1,665.000006341934
61,109,249908,5,0,0:0:0:0:
61,109,250025,1,0,0:0:0:0:
