osu file format v14

[General]
AudioFilename: audio.mp3
AudioLeadIn: 0
PreviewTime: 98901
Countdown: 0
SampleSet: Soft
StackLeniency: 0.7
Mode: 0
LetterboxInBreaks: 0
WidescreenStoryboard: 1

[Editor]
Bookmarks: 16360,31325,58909,106133,121095,136057,151512,166010,187054,194303,198278,200148,205256,220197,235180
DistanceSpacing: 0.8
BeatDivisor: 1
GridSize: 16
TimelineZoom: 1

[Metadata]
Title:Pumped Up Kicks (Bridge and Law Remix)
TitleUnicode:Pumped Up Kicks (Bridge and Law Remix)
Artist:Foster The People
ArtistUnicode:Foster The People
Creator:Lazix
Version:Easy
Source:
Tags:pop edm english electronic
BeatmapID:1728386
BeatmapSetID:824807

[Difficulty]
HPDrainRate:3
CircleSize:3
OverallDifficulty:2
ApproachRate:4
SliderMultiplier:1
SliderTickRate:1

[Events]
//Background and Video events
0,0,"FTPbg.jpg",0,0
//Break Periods
2,46016,57589
2,135788,138477
2,150750,164661
2,173193,175882
2,179272,182428
2,199845,203468
//Storyboard Layer 0 (Background)
//Storyboard Layer 1 (Fail)
//Storyboard Layer 2 (Pass)
//Storyboard Layer 3 (Foreground)
//Storyboard Layer 4 (Overlay)
//Storyboard Sound Samples

[TimingPoints]
16361,467.562828755114,4,2,0,80,1,0
19863,-100,4,2,0,80,0,0
31323,-83.3333333333333,4,2,0,80,0,0
61247,-100,4,2,0,80,0,0
75741,-100,4,2,0,50,0,0
83690,-133.333333333333,4,2,0,50,0,0
91171,-100,4,2,0,50,0,0
98184,-90.9090909090909,4,2,0,70,0,0
102392,-66.6666666666667,4,2,0,80,0,0
106133,-83.3333333333333,4,2,0,100,0,1
121095,-90.9090909090909,4,2,0,100,0,1
136057,-100,4,2,0,80,0,0
165515,-133.333333333333,4,2,0,50,0,0
186553,-83.3333333333333,4,2,0,50,0,0
194031,-71.4285714285714,4,2,0,80,0,0
198242,-66.6666666666667,4,2,0,100,0,0
205256,-83.3333333333333,4,2,0,100,0,1
235180,-90.9090909090909,4,2,0,100,0,0

[Colours]
Combo1 : 255,155,0
Combo2 : 37,14,248
Combo3 : 128,128,192
Combo4 : 192,192,192

[HitObjects]
256,192,14023,12,2,15893,0:0:0:0:
191,78,17763,5,0,0:0:0:0:
239,144,18231,2,0,L|342:144,1,100,2|2,0:0|0:0,0:0:0:0:
386,79,19166,1,2,0:0:0:0:
430,145,19633,2,0,P|423:207|370:278,1,100
342,191,20569,2,0,P|278:175|230:191,1,100
167,199,21504,1,0,0:0:0:0:
217,261,21971,1,0,0:0:0:0:
296,267,22439,2,0,B|320:319|320:319|270:373,2,100,0|0|2,0:0|0:0|0:0,0:0:0:0:
345,203,23842,6,0,P|379:172|383:122,1,100
329,60,24777,2,0,P|281:28|233:44,1,100
187,94,25712,1,2,0:0:0:0:
133,153,26179,1,2,0:0:0:0:
58,124,26647,1,2,0:0:0:0:
97,53,27114,2,0,P|161:37|193:69,1,100
190,134,28050,2,0,P|238:182|270:166,1,100
325,131,28985,1,0,0:0:0:0:
397,165,29452,2,0,B|454:244|442:333|351:378|278:268,1,300,0|2,0:0|0:0,0:0:0:0:
245,191,31323,5,2,0:0:0:0:
155,185,31790,2,0,P|258:109|330:190,1,239.999992675781,2|2,0:0|0:0,0:0:0:0:
342,264,33193,1,2,0:0:0:0:
414,204,33660,2,0,B|445:127|377:112|377:112|370:34|291:54|291:54|236:1|183:43|183:43,1,359.999989013672,2|2,0:0|0:0,0:0:0:0:
101,91,35531,1,2,0:0:0:0:
45,168,35998,6,0,P|61:232|109:264,2,119.999996337891,2|2|2,0:0|0:0|0:0,0:0:0:0:
73,78,37401,1,0,0:0:0:0:
166,54,37868,2,0,B|230:86|230:86|230:134,2,119.999996337891,0|8|2,0:0|0:0|0:0,0:0:0:0:
83,102,39271,5,2,0:0:0:0:
89,197,39739,1,2,0:0:0:0:
181,223,40206,2,0,P|230:220|293:191,1,119.999996337891,0|2,0:0|0:0,0:0:0:0:
356,117,41141,1,0,0:0:0:0:
444,152,41609,6,0,B|446:237|379:237|379:237|341:319|268:272|268:272,1,239.999992675781,2|2,0:0|0:0,0:0:0:0:
202,231,43012,1,2,0:0:0:0:
252,149,43479,2,0,B|248:166|267:71|341:108|341:108|387:38|456:88,1,239.999992675781,2|0,0:0|0:0,0:0:0:0:
440,320,45583,2,8,L|384:348,1,59.9999981689454
414,83,58909,6,0,B|331:154|319:291|319:291|251:124|202:160|145:187,1,479.999985351563,0|8,0:0|0:0,0:0:0:0:
73,220,61247,2,0,P|78:275|116:282,1,100
190,253,62182,1,0,0:0:0:0:
261,288,62649,2,0,P|327:279|354:254,1,100
395,192,63584,2,0,B|323:155|323:155|366:96|366:96|321:70,1,200,0|2,0:0|0:0,0:0:0:0:
256,33,64987,6,0,P|192:49|176:81,1,100
146,149,65922,1,0,0:0:0:0:
187,217,66390,2,0,B|174:273|174:273|123:284,1,100,0|0,0:0|0:0,0:0:0:0:
59,250,67325,2,0,B|27:186|27:186|43:154,1,100
100,108,68260,1,0,0:0:0:0:
179,100,68728,6,0,L|291:100,1,100
359,99,69663,2,0,L|359:211,1,100
360,279,70598,1,0,0:0:0:0:
287,245,71065,1,0,0:0:0:0:
217,285,71533,2,0,P|257:332|295:325,1,100,0|2,0:0|0:0,0:0:0:0:
367,310,72468,6,0,P|431:246|399:150,1,200
343,95,73871,2,0,B|302:31|222:98|172:204|191:44|117:62|57:97,1,300,0|0,0:3|0:3,0:3:0:0:
96,240,76209,6,0,B|160:320|160:320|224:240|224:240|288:320|288:320,1,300,0|0,0:0|0:0,0:0:0:0:
347,266,78079,2,0,B|278:183|278:183|370:138|370:138|304:59|304:59,1,300,0|0,0:0|0:0,0:0:0:0:
239,37,79949,2,0,B|190:121|190:121|111:37|111:37|47:117|47:117,1,300,0|0,0:0|0:0,0:0:0:0:
62,185,81819,2,0,B|126:265|126:265|187:203|187:203|259:287|259:287,1,300,0|0,0:0|0:0,0:0:0:0:
319,289,83690,5,2,0:0:0:0:
378,283,84157,2,0,L|378:196,1,75.0000028610231,2|2,0:0|0:0,0:0:0:0:
318,204,85092,1,2,0:0:0:0:
318,143,85560,5,2,0:0:0:0:
323,83,86027,2,0,L|239:82,1,75.0000028610231,2|2,0:0|0:0,0:0:0:0:
244,22,86962,1,2,0:0:0:0:
184,25,87430,5,2,0:0:0:0:
124,29,87898,2,0,L|40:29,1,75.0000028610231,2|2,0:0|0:0,0:0:0:0:
47,89,88833,1,2,0:0:0:0:
48,148,89300,5,2,0:0:0:0:
48,208,89768,2,0,L|48:299,1,75.0000028610231,2|2,0:0|0:0,0:0:0:0:
108,282,90703,1,2,0:0:0:0:
165,337,91171,6,0,L|283:323,1,100,2|0,0:0|0:0,0:0:0:0:
323,271,92106,1,0,0:0:0:0:
323,191,92573,2,0,B|323:79|323:79|227:79,1,200,2|0,0:0|0:0,0:0:0:0:
154,76,93976,5,0,0:0:0:0:
74,79,94443,2,0,B|74:191|74:191|170:191,1,200,2|0,0:0|0:0,0:0:0:0:
242,190,95846,1,0,0:0:0:0:
322,189,96314,6,0,B|433:188|433:188|433:284,1,200,2|0,0:0|0:0,0:0:0:0:
353,278,97716,1,0,0:0:0:0:
265,273,98184,6,0,B|265:145|265:145|185:97,1,220.000006713867,2|0,0:0|0:0,0:0:0:0:
266,61,99587,1,0,0:0:0:0:
344,97,100054,6,0,B|265:144|265:144|265:272,1,220.000006713867,2|0,0:0|0:0,0:0:0:0:
310,347,101457,1,0,0:0:0:0:
222,349,101924,1,2,0:0:0:0:
256,192,102392,12,2,105665,0:0:0:0:
288,160,107535,6,0,B|272:208|208:208|176:208,1,119.999996337891,0|2,0:0|0:0,0:0:0:0:
96,192,108470,1,2,0:0:0:0:
48,112,108938,1,2,0:0:0:0:
112,48,109406,2,0,P|208:64|208:80,1,119.999996337891
224,144,110341,2,0,P|256:208|304:208,1,119.999996337891
358,135,111276,2,0,P|438:135|454:183,1,119.999996337891
426,254,112211,1,0,0:0:0:0:
336,288,112678,2,0,B|208:288|208:288|208:176,1,239.999992675781,0|0,0:0|0:0,0:0:0:0:
211,79,114081,6,0,B|355:81|355:81|328:185,1,239.999992675781,0|0,0:0|0:0,0:0:0:0:
426,192,115484,2,0,B|426:272|426:272|378:288,2,119.999996337891,2|2|2,0:0|0:0|0:0,0:0:0:0:
374,110,116887,2,0,L|235:82,1,119.999996337891
160,91,117822,2,0,L|64:163,1,119.999996337891
25,251,118757,2,0,L|115:342,1,119.999996337891
205,335,119692,1,0,0:0:0:0:
300,335,120159,2,0,L|428:335,1,119.999996337891,0|4,0:0|0:0,0:0:0:0:
471,263,121095,6,0,P|503:215|471:151,1,110.000003356934,2|2,0:0|0:0,0:0:0:0:
402,169,122030,2,0,P|322:169|306:137,1,110.000003356934,2|2,0:0|0:0,0:0:0:0:
253,84,122965,2,0,P|189:84|157:116,1,110.000003356934,2|2,0:0|0:0,0:0:0:0:
131,197,123900,6,0,B|131:293|211:309|291:245,1,220.000006713867,2|2,0:0|0:0,0:0:0:0:
336,175,125303,1,0,0:0:0:0:
312,90,125770,2,0,P|232:90|216:122,1,110.000003356934,2|2,0:0|0:0,0:0:0:0:
170,180,126705,1,0,0:0:0:0:
152,266,127173,1,0,0:0:0:0:
186,347,127640,6,0,B|249:313|249:313|335:322|335:322|334:239|334:239|334:239,1,220.000006713867,0|2,0:0|0:0,0:0:0:0:
318,172,129043,1,2,0:0:0:0:
263,103,129511,1,2,0:0:0:0:
183,66,129978,2,0,P|119:66|87:114,1,110.000003356934,2|2,0:0|0:0,0:0:0:0:
62,181,130913,6,0,B|105:242|156:197|156:197|222:238|253:180|253:180|317:218|351:150,1,330.000010070801,2|2,0:0|0:0,0:0:0:0:
367,82,132784,1,0,0:0:0:0:
326,4,133251,2,0,B|391:-15|472:-6|488:122|446:188|392:231,1,330.000010070801,2|0,0:0|0:0,0:0:0:0:
319,247,135121,2,0,B|262:219|262:219,2,55.0000016784668,0|4|4,0:0|0:0|0:0,0:0:0:0:
148,256,139797,5,0,0:0:0:0:
91,199,140265,2,0,P|91:135|123:103,1,100
176,64,141200,2,0,P|240:64|256:96,1,100
262,169,142135,1,0,0:0:0:0:
298,240,142602,2,0,P|362:272|410:176,1,200,0|8,0:0|0:0,0:0:0:0:
352,112,144005,5,8,0:0:0:0:
280,76,144473,2,0,P|216:76|168:108,1,100,8|4,0:0|0:0,0:0:0:0:
120,137,145408,1,8,0:0:0:0:
99,214,145875,2,0,P|115:262|163:262,1,100,8|8,0:0|0:0,0:0:0:0:
226,221,146811,1,4,0:0:0:0:
283,165,147278,6,0,B|368:95|368:95|386:145|433:139|433:139|416:244,1,300
358,298,149148,1,0,0:0:0:0:
279,312,149616,1,0,0:0:0:0:
199,301,150083,2,0,P|135:269|119:237,1,100
141,83,165981,6,0,P|314:94|444:213,2,300.000011444092
121,213,170656,2,0,P|161:203|215:223,1,75.0000028610231
240,247,171591,2,0,B|355:305|455:236,1,225.000008583069
191,240,177202,6,0,B|182:185|182:185|190:152|190:152|164:135|164:135|224:123|343:99,1,300.000011444092
256,192,183748,12,8,186554,0:0:0:0:
256,192,188424,5,8,0:0:0:0:
304,112,188891,2,8,L|448:128,1,119.999996337891
447,32,189826,1,8,0:0:0:0:
350,34,190294,5,8,0:0:0:0:
254,37,190761,2,8,L|190:149,1,119.999996337891
98,138,191697,1,8,0:0:0:0:
48,219,192164,5,8,0:0:0:0:
128,272,192632,2,8,L|256:288,1,119.999996337891
321,226,193567,1,8,0:0:0:0:
392,140,194034,5,8,0:0:0:0:
301,77,194502,2,8,L|157:61,1,139.999995727539
96,128,195437,2,8,L|144:272,1,139.999995727539
208,320,196372,2,8,L|304:192,1,139.999995727539
368,256,197307,2,8,L|480:160,1,139.999995727539
384,128,198242,6,8,L|240:64,1,150.000005722046
130,37,199178,2,8,L|183:196,1,150.000005722046
192,256,204788,5,8,0:0:0:0:
288,256,205256,2,0,P|336:176|336:144,1,119.999996337891,0|0,0:0|0:0,0:0:0:0:
288,64,206191,1,0,0:0:0:0:
192,48,206659,2,0,P|144:96|176:128,1,119.999996337891
256,160,207594,1,0,0:0:0:0:
352,176,208061,1,0,0:0:0:0:
416,256,208529,2,0,P|368:320|304:320,1,119.999996337891
240,304,209464,1,0,0:0:0:0:
144,288,209932,1,0,0:0:0:0:
48,256,210399,2,0,P|48:192|80:144,1,119.999996337891
160,96,211334,2,0,P|256:64|304:96,2,119.999996337891,0|0|8,0:0|0:0|0:0,0:0:0:0:
144,192,212737,6,0,P|192:256|256:256,1,119.999996337891,0|0,0:0|0:0,0:0:0:0:
321,244,213672,1,0,0:0:0:0:
392,179,214140,2,0,P|392:115|296:99,1,119.999996337891
254,83,215075,1,0,0:0:0:0:
162,112,215542,1,0,0:0:0:0:
80,160,216010,6,0,P|80:240|112:240,1,119.999996337891
192,240,216945,1,0,0:0:0:0:
240,160,217413,1,0,0:0:0:0:
313,98,217880,2,0,B|361:95|413:80|413:80|404:158|438:215,1,239.999992675781
444,305,219283,2,0,P|380:369|300:337,1,119.999996337891,0|8,0:0|0:0,0:0:0:0:
267,333,220218,5,2,0:0:0:0:
178,288,220685,2,0,P|130:224|146:176,1,119.999996337891,2|2,0:0|0:0,0:0:0:0:
177,102,221621,2,0,P|241:70|294:98,1,119.999996337891,2|2,0:0|0:0,0:0:0:0:
353,150,222556,1,2,0:0:0:0:
320,240,223023,6,0,B|209:216|226:300|96:304,1,239.999992675781,2|2,0:0|0:0,0:0:0:0:
35,229,224426,1,0,0:0:0:0:
128,208,224894,2,0,B|198:170|44:45|244:33|244:33,1,239.999992675781,2|0,0:0|0:0,0:0:0:0:
336,32,226296,2,0,P|400:64|400:128,2,119.999996337891,0|0|4,0:0|0:0|0:0,0:0:0:0:
240,32,227699,5,2,0:0:0:0:
240,128,228166,2,0,L|240:256,1,119.999996337891,2|2,0:0|0:0,0:0:0:0:
240,352,229102,1,2,0:0:0:0:
336,320,229569,1,2,0:0:0:0:
400,256,230037,1,2,0:0:0:0:
416,160,230504,2,0,B|350:74|287:168|192:64,1,239.999992675781,2|2,0:0|0:0,0:0:0:0:
112,32,231907,1,0,0:0:0:0:
64,112,232375,2,0,B|104:210|189:136|263:237,1,239.999992675781,2|0,0:0|0:0,0:0:0:0:
345,275,233777,2,4,P|409:243|425:163,2,119.999996337891,0|4|4,0:0|0:0|0:0,0:0:0:0:
245,261,235180,6,0,B|245:208|245:208|233:189|233:189|254:190|254:190|242:176|242:176|242:26,1,220.000006713867,2|2,0:0|0:0,0:0:0:0:
144,64,236583,2,0,B|48:128|48:128|160:208,1,220.000006713867,2|2,0:0|0:0,0:0:0:0:
208,240,237985,1,2,0:0:0:0:
279,188,238453,2,0,B|376:113|376:113|446:217|446:217,1,220.000006713867,2|2,0:0|0:0,0:0:0:0:
372,260,239856,6,0,B|355:298|355:298|310:273|310:273|279:311|279:311|241:286|241:286|154:291|111:224,1,330.000010070801,2|2,0:0|0:0,0:0:0:0:
56,170,241726,1,2,0:0:0:0:
128,112,242193,2,0,L|240:112,1,110.000003356934,2|2,0:0|0:0,0:0:0:0:
224,192,243128,2,0,L|352:192,1,110.000003356934,2|2,0:0|0:0,0:0:0:0:
320,272,244064,2,0,B|451:271|451:271|438:157,1,220.000006713867,2|2,0:0|0:0,0:0:0:0:
383,116,245466,5,2,0:0:0:0:
297,94,245934,1,2,0:0:0:0:
209,93,246401,2,0,P|209:205|209:205,1,110.000003356934
288,241,247337,2,0,L|288:81,1,110.000003356934
367,92,248272,2,0,L|367:252,1,110.000003356934
375,289,249207,2,0,B|312:341|225:329|214:353|214:353|187:313,1,220.000006713867
