osu file format v14

[General]
AudioFilename: audio.mp3
AudioLeadIn: 1511
PreviewTime: 80128
Countdown: 0
SampleSet: Soft
StackLeniency: 0.7
Mode: 0
LetterboxInBreaks: 0
WidescreenStoryboard: 1

[Editor]
Bookmarks: 52201,55354,58832,60571,62310,63180,64049,66114,73071,83506,86984,90462,93941,104375,109593,113071
DistanceSpacing: 0.4
BeatDivisor: 4
GridSize: 8
TimelineZoom: 1.3

[Metadata]
Title:A.I
TitleUnicode:A.I
Artist:Forte Escape
ArtistUnicode:Forte Escape
Creator:Shijie
Version:a
Source:
Tags:
BeatmapID:4537573
BeatmapSetID:2153509

[Difficulty]
HPDrainRate:0
CircleSize:4
OverallDifficulty:8
ApproachRate:9
SliderMultiplier:2
SliderTickRate:1

[Events]
//Background and Video events
0,0,"Technika.jpg",0,0
//Break Periods
//Storyboard Layer 0 (Background)
//Storyboard Layer 1 (Fail)
//Storyboard Layer 2 (Pass)
//Storyboard Layer 3 (Foreground)
//Storyboard Layer 4 (Overlay)
//Storyboard Sound Samples

[TimingPoints]
28,434.782608695652,4,2,0,70,1,0
55354,-100,4,2,0,70,0,0
56223,-100,4,2,0,70,0,0
58832,-100,4,2,0,70,0,0
59701,-100,4,2,0,70,0,0
62310,-100,4,2,0,100,0,0
66114,-133.333333333333,4,2,0,70,0,0
80027,-100,4,2,0,70,0,0
86984,-100,4,1,0,70,0,0
94158,-71.4285714285714,4,1,0,70,0,0

[HitObjects]
256,195,52201,5,4,0:1:0:0:
23,147,52419,6,0,P|33:90|88:72,1,100,0|0,1:0|0:0,0:0:0:0:
96,79,52745,1,0,1:3:0:0:
69,221,52962,1,0,0:3:0:0:
69,221,53071,2,0,L|54:357,1,100,0|2,1:0|0:2,0:0:0:0:
74,346,53397,1,0,1:2:0:0:
162,287,53614,1,0,0:0:0:0:
155,260,53723,1,0,1:0:0:0:
298,318,53941,5,0,1:2:0:0:
324,341,54049,2,0,P|383:342|416:289,1,100,2|0,3:3|0:0,0:0:0:0:
409,314,54375,1,0,1:2:0:0:
512,228,54593,1,2,0:2:0:0:
487,205,54701,2,0,P|428:204|395:257,1,100,0|0,1:2|0:0,0:0:0:0:
317,227,55027,1,2,3:2:0:0:
317,227,55136,2,0,L|304:152,1,50,2|0,3:2|0:0,0:0:0:0:
257,70,55354,5,2,1:2:0:0:
318,20,55462,2,0,P|331:46|336:93,1,50,2|0,1:0|0:0,0:0:0:0:
309,179,55680,2,0,P|231:152|222:106,1,100,2|0,1:0|0:0,0:0:0:0:
174,76,56006,2,0,L|109:94,1,50,2|0,1:0|0:0,0:0:0:0:
125,89,56223,6,0,P|108:161|116:208,1,100,2|0,1:2|0:0,0:0:0:0:
132,213,56549,1,0,1:2:0:0:
53,279,56767,1,0,0:2:0:0:
87,285,56875,1,0,1:2:0:0:
115,365,57093,1,0,1:2:0:0:
148,372,57201,2,0,L|267:348,1,100,2|0,3:3|0:2,0:2:0:0:
281,354,57527,2,0,P|324:307|319:255,1,100,2|0,3:2|0:0,0:0:0:0:
280,189,57854,5,0,1:2:0:0:
287,155,57962,1,2,0:0:0:0:
281,12,58180,2,0,P|327:68|378:65,1,100,0|0,1:2|0:0,0:0:0:0:
382,57,58506,1,0,1:2:0:0:
376,91,58614,1,2,0:0:0:0:
466,251,58832,5,2,1:1:0:0:
479,171,58941,1,2,1:1:0:0:
413,353,59158,1,2,1:1:0:0:
413,353,59375,1,0,3:2:0:0:
413,353,59484,2,0,L|343:331,1,50,2|0,1:1|0:0,0:0:0:0:
284,352,59701,5,4,3:3:0:0:
180,287,59919,1,2,3:2:0:0:
185,251,60027,1,6,0:3:0:0:
64,323,60245,1,2,3:2:0:0:
51,290,60354,1,10,3:3:0:0:
122,136,60571,5,2,1:1:0:0:
103,221,60680,1,2,1:1:0:0:
26,38,60897,1,6,1:1:0:0:
26,38,61114,1,0,3:2:0:0:
26,38,61223,2,0,P|50:72|82:79,1,50,2|0,1:1|0:0,0:0:0:0:
184,197,61549,5,4,3:3:0:0:
191,231,61658,1,2,0:0:0:0:
240,340,61875,1,8,0:3:0:0:
272,326,61984,1,4,0:3:0:0:
307,327,62093,2,0,L|281:278,1,50,2|0,3:2|0:0,0:0:0:0:
271,198,62310,6,0,P|279:128|315:94,1,100,4|0,1:2|0:0,0:0:0:0:
366,66,62636,1,2,1:1:0:0:
366,66,62854,2,0,L|354:13,2,50,0|0|0,1:1|0:0|0:0,0:0:0:0:
445,53,63180,6,0,P|481:108|461:181,1,100,4|0,1:1|0:0,0:0:0:0:
451,217,63506,1,2,1:1:0:0:
451,217,63723,2,0,L|467:283,2,50,0|0|0,1:2|0:0|0:0,0:0:0:0:
375,256,64049,5,2,1:2:0:0:
375,256,64158,2,0,L|363:328,1,50,4|0,0:3|0:0,0:0:0:0:
391,346,64375,1,2,1:1:0:0:
296,356,64593,1,8,3:3:0:0:
266,338,64701,1,4,3:3:0:0:
254,304,64810,1,2,1:2:0:0:
264,226,64919,5,0,3:0:0:0:
250,216,65027,1,2,0:0:0:0:
230,215,65136,1,0,3:0:0:0:
193,235,65245,2,0,L|168:220,3,25
158,144,65462,2,0,L|133:129,3,25
122,57,65680,5,0,1:2:0:0:
216,10,65897,2,0,L|207:41,3,25
207,42,66114,6,0,L|247:278,1,225.000008583069,6|0,1:2|0:0,0:0:0:0:
244,263,66984,5,0,0:2:0:0:
265,147,67310,1,0,0:2:0:0:
158,182,67636,1,0,0:2:0:0:
77,274,67854,6,0,P|53:207|52:41,1,225.000008583069
191,20,68723,5,0,0:2:0:0:
191,20,69049,2,0,L|246:9,2,37.5000014305115
151,88,69375,2,0,L|140:140,1,37.5000014305115
144,224,69593,6,0,P|219:179|363:179,1,225.000008583069
353,175,70462,5,0,0:2:0:0:
233,218,70788,1,0,0:2:0:0:
265,99,71114,1,0,0:2:0:0:
330,7,71332,6,0,P|372:104|381:245,1,225.000008583069
396,304,72201,5,0,0:2:0:0:
257,339,72527,1,0,0:2:0:0:
246,314,72636,1,0,0:2:0:0:
254,289,72745,1,0,0:2:0:0:
260,263,72854,1,0,0:2:0:0:
255,237,72962,1,0,0:2:0:0:
248,211,73071,1,0,0:2:0:0:
170,263,73288,6,0,P|112:290|62:278,1,112.500004291535,0|0,3:0|0:0,0:0:0:0:
66,280,73723,2,0,L|106:196,1,75.0000028610231,0|0,3:0|0:0,0:0:0:0:
36,35,74158,1,0,3:2:0:0:
31,60,74267,2,0,P|54:117|89:122,1,75.0000028610231,2|0,0:0|0:0,0:0:0:0:
83,135,74593,2,0,L|184:119,1,75.0000028610231,0|0,3:0|0:0,0:0:0:0:
231,180,75027,2,0,L|396:155,1,150.000005722046,0|0,3:0|0:0,0:0:0:0:
452,356,75680,5,0,1:2:0:0:
354,260,75897,1,0,3:2:0:0:
330,247,76006,1,0,0:2:0:0:
304,249,76114,2,0,L|321:203,1,37.5000014305115,0|0,0:2|0:2,0:2:0:0:
268,144,76332,1,0,3:2:0:0:
306,17,76549,1,0,1:0:0:0:
306,17,76767,6,0,P|343:81|405:93,1,112.500004291535,0|0,3:0|0:0,0:0:0:0:
376,93,77201,2,0,L|390:9,1,75.0000028610231,0|0,3:0|0:0,0:0:0:0:
487,168,77636,1,0,3:0:0:0:
479,140,77745,1,0,3:0:0:0:
256,192,77854,12,0,79593,0:2:0:0:
412,119,80027,6,0,P|427:183|399:223,1,100,6|0,1:2|1:0,0:0:0:0:
412,210,80354,1,2,0:0:0:0:
489,350,80571,2,0,P|440:301|392:301,1,100,10|0,1:2|1:0,0:0:0:0:
489,350,80897,5,8,1:2:0:0:
393,218,81114,1,2,3:3:0:0:
366,296,81223,2,0,P|319:337|262:325,1,100,8|0,1:2|1:0,0:0:0:0:
223,279,81549,5,8,0:2:0:0:
139,290,81658,1,8,0:2:0:0:
104,363,81767,1,0,1:2:0:0:
104,363,81984,2,0,P|49:348|3:350,2,100,4|0|0,1:1|0:2|0:2,0:2:0:0:
251,194,82636,5,6,0:2:0:0:
140,18,82962,1,2,0:3:0:0:
173,60,83071,1,2,0:3:0:0:
123,71,83180,1,2,0:3:0:0:
143,54,83288,2,0,L|167:134,1,50,2|0,3:2|0:2,0:2:0:0:
205,182,83506,6,0,P|276:159|297:104,1,100,6|0,1:2|1:0,0:0:0:0:
288,140,83832,2,0,P|272:110|214:103,1,50,2|0,1:2|0:0,0:0:0:0:
190,177,84049,2,0,P|112:175|88:137,1,100,10|0,1:2|1:0,0:0:0:0:
13,19,84375,5,14,1:2:0:0:
13,19,84593,1,8,0:2:0:0:
13,19,84701,2,0,L|76:5,2,50,12|0|0,0:3|0:0|1:0,0:0:0:0:
4,99,85027,5,10,0:2:0:0:
60,168,85136,1,10,0:2:0:0:
26,246,85245,1,4,1:1:0:0:
206,156,85462,1,0,1:2:0:0:
165,369,85680,2,0,L|144:254,1,100,8|0,1:2|0:0,0:0:0:0:
242,143,86114,6,0,P|303:174|325:224,1,100,0|0,1:2|0:0,0:0:0:0:
318,199,86441,2,0,L|326:130,1,50,2|0,1:2|0:0,0:0:0:0:
403,180,86658,5,10,0:2:0:0:
450,116,86767,1,10,0:2:0:0:
416,40,86875,1,8,0:2:0:0:
427,22,86984,5,6,1:2:0:0:
339,123,87201,1,8,0:2:0:0:
330,97,87310,1,2,3:2:0:0:
446,168,87527,2,0,P|461:220|434:278,1,100,10|0,1:2|1:0,0:0:0:0:
481,341,87854,5,8,0:2:0:0:
314,245,88071,1,0,0:2:0:0:
326,228,88180,2,0,L|390:215,1,50,8|0,0:2|0:0,0:0:0:0:
374,307,88397,5,0,0:2:0:0:
294,324,88506,1,8,0:2:0:0:
223,281,88614,1,8,0:2:0:0:
157,331,88723,5,0,0:2:0:0:
157,331,88941,2,0,L|78:309,1,50,0|0,0:0|2:0,0:0:0:0:
6,265,89158,2,0,P|71:239|98:183,1,100,0|0,0:0|2:0,0:0:0:0:
76,182,89484,1,0,0:0:0:0:
161,177,89593,5,6,1:1:0:0:
34,59,89919,1,10,0:2:0:0:
71,30,90027,1,0,0:2:0:0:
27,10,90136,1,0,0:2:0:0:
47,44,90245,2,0,L|71:124,1,50,10|0,0:2|0:2,0:2:0:0:
150,80,90462,5,0,0:2:0:0:
251,194,90680,1,0,0:2:0:0:
260,165,90788,1,8,0:2:0:0:
150,80,91006,2,0,P|219:59|235:9,1,100,8|0,0:2|0:0,0:0:0:0:
298,91,91332,5,8,0:2:0:0:
410,21,91549,1,0,0:2:0:0:
461,76,91658,1,8,0:2:0:0:
483,44,91767,1,0,0:0:0:0:
410,21,91875,5,0,0:2:0:0:
384,97,91984,1,8,0:2:0:0:
442,157,92093,1,8,0:2:0:0:
418,234,92201,5,0,0:2:0:0:
298,91,92419,1,8,0:2:0:0:
257,264,92636,1,8,0:2:0:0:
373,370,92854,6,0,L|366:321,1,50
419,262,93071,1,0,0:0:0:0:
419,262,93180,2,0,P|383:313|319:318,1,100
250,252,93506,5,0,0:0:0:0:
229,231,93614,1,0,0:0:0:0:
188,227,93723,1,0,0:0:0:0:
159,202,93832,1,0,0:0:0:0:
98,207,93941,1,4,0:2:0:0:
242,119,94158,6,0,P|297:68|286:-14,1,139.999995727539,2|0,0:0|0:0,0:0:0:0:
231,118,94484,2,0,P|203:81|221:25,1,69.9999978637696,2|0,0:0|0:0,0:0:0:0:
136,15,94701,1,0,0:0:0:0:
162,170,94810,2,2,P|95:224|1:198,1,139.999995727539
15,150,95136,1,0,0:2:0:0:
0,195,95245,1,0,0:2:0:0:
96,338,95462,2,0,L|112:241,1,69.9999978637696
190,324,95680,6,2,P|296:302|323:231,1,139.999995727539,2|0,0:0|0:0,0:0:0:0:
387,317,96006,1,2,0:1:0:0:
296,200,96223,1,0,0:0:0:0:
307,182,96332,2,0,L|325:98,1,69.9999978637696,2|0,0:1|0:0,0:0:0:0:
390,171,96549,2,0,L|371:259,1,69.9999978637696,10|0,0:0|0:0,0:0:0:0:
469,149,96767,5,0,0:2:0:0:
490,125,96875,2,0,P|500:89|459:41,1,69.9999978637696,8|0,0:0|0:0,0:0:0:0:
407,92,97093,1,8,0:0:0:0:
326,54,97201,2,0,P|307:27|308:-32,1,69.9999978637696,8|0,0:0|0:0,0:0:0:0:
216,86,97419,5,6,1:2:0:0:
48,29,97636,1,8,0:0:0:0:
58,55,97745,2,0,L|135:92,2,69.9999978637696
28,131,98071,1,8,0:0:0:0:
40,157,98180,1,0,0:0:0:0:
36,262,98288,5,12,0:1:0:0:
56,238,98397,2,0,L|135:216,1,69.9999978637696
203,318,98614,2,0,P|229:342|298:333,1,69.9999978637696,8|0,0:0|0:0,0:0:0:0:
262,263,98832,1,8,0:0:0:0:
312,198,98941,2,0,P|346:170|423:157,1,69.9999978637696,8|0,0:0|0:0,0:0:0:0:
488,251,99158,5,4,0:2:0:0:
488,251,99267,2,0,L|515:73,1,139.999995727539
475,38,99593,5,0,0:0:0:0:
453,20,99701,1,0,0:2:0:0:
415,16,99810,1,0,0:2:0:0:
373,34,99919,1,0,0:2:0:0:
313,87,100027,1,0,0:2:0:0:
274,123,100136,1,0,0:2:0:0:
214,142,100245,1,0,0:2:0:0:
152,131,100354,1,0,0:2:0:0:
78,95,100462,1,10,0:2:0:0:
108,15,100571,1,10,0:2:0:0:
107,59,100680,1,10,0:2:0:0:
84,22,100788,1,10,0:2:0:0:
30,84,100897,1,0,0:0:0:0:
73,286,101114,6,0,L|130:234,1,69.9999978637696,2|0,0:0|0:0,0:0:0:0:
141,331,101332,1,0,0:0:0:0:
73,286,101441,2,0,P|42:217|118:174,1,139.999995727539,2|0,0:0|0:0,0:0:0:0:
207,278,101767,2,0,P|231:259|239:190,1,69.9999978637696,2|0,0:0|0:0,0:0:0:0:
320,302,101984,5,0,0:0:0:0:
337,279,102092,1,10,0:1:0:0:
365,283,102201,1,0,0:2:0:0:
500,185,102419,1,10,0:1:0:0:
474,206,102527,1,0,0:0:0:0:
438,199,102636,6,0,P|406:114|428:43,1,139.999995727539,2|0,0:0|0:0,0:0:0:0:
463,9,102962,2,0,P|486:35|482:92,1,69.9999978637696,2|0,0:0|0:0,0:0:0:0:
430,154,103180,1,0,0:0:0:0:
430,154,103288,2,0,L|342:131,1,69.9999978637696,2|0,0:0|0:0,0:0:0:0:
294,51,103506,2,0,L|375:67,1,69.9999978637696,10|0,0:1|0:0,0:0:0:0:
284,158,103723,5,0,0:0:0:0:
262,177,103832,2,0,P|241:189|168:176,1,69.9999978637696,8|0,0:0|0:0,0:0:0:0:
146,124,104049,1,8,0:0:0:0:
77,77,104158,2,0,P|41:82|5:142,1,69.9999978637696,8|0,0:0|0:0,0:0:0:0:
16,264,104375,6,0,L|109:246,1,69.9999978637696
164,285,104593,1,0,0:2:0:0:
160,301,104701,1,0,0:2:0:0:
250,190,104810,2,0,L|157:172,1,69.9999978637696
102,211,105028,1,0,0:2:0:0:
106,227,105136,1,0,0:2:0:0:
177,284,105245,5,0,0:2:0:0:
198,296,105354,1,0,0:2:0:0:
233,330,105462,1,0,0:2:0:0:
287,331,105571,1,0,0:2:0:0:
349,298,105680,1,0,0:2:0:0:
402,246,105788,1,0,0:2:0:0:
444,227,105897,1,0,0:2:0:0:
501,164,106006,1,0,0:2:0:0:
451,75,106114,5,4,0:2:0:0:
406,91,106223,1,0,0:2:0:0:
353,43,106332,1,0,0:2:0:0:
420,5,106441,1,0,0:2:0:0:
409,111,106549,5,4,0:2:0:0:
321,114,106658,1,0,0:2:0:0:
390,139,106767,1,0,0:2:0:0:
337,90,106875,1,0,0:2:0:0:
299,185,106984,5,4,0:2:0:0:
283,139,107093,1,0,0:2:0:0:
238,148,107201,1,0,0:2:0:0:
242,108,107310,1,0,0:2:0:0:
156,101,107419,1,0,0:2:0:0:
171,66,107527,1,0,0:2:0:0:
138,55,107636,1,0,0:2:0:0:
133,31,107745,1,0,0:2:0:0:
60,68,107854,5,4,0:2:0:0:
45,106,107962,1,0,0:2:0:0:
58,141,108071,1,0,0:2:0:0:
92,167,108180,2,0,L|118:265,1,69.9999978637696
19,285,108397,6,0,L|159:331,1,139.999995727539,4|0,0:2|0:2,0:2:0:0:
241,315,108723,5,0,0:2:0:0:
268,310,108832,1,0,0:2:0:0:
297,306,108941,1,0,0:2:0:0:
323,303,109049,1,0,0:2:0:0:
397,349,109158,5,2,3:2:0:0:
457,279,109267,1,2,3:2:0:0:
382,233,109375,1,2,3:2:0:0:
323,303,109484,1,2,3:2:0:0:
403,369,109593,5,6,0:2:0:0:
256,192,112201,12,0,113071,0:0:0:0:
