osu file format v14

[General]
AudioFilename: audio.mp3
AudioLeadIn: 0
PreviewTime: 233758
Countdown: 0
SampleSet: Soft
StackLeniency: 0.3
Mode: 0
LetterboxInBreaks: 0
EpilepsyWarning: 1
WidescreenStoryboard: 1

[Editor]
DistanceSpacing: 0.7
BeatDivisor: 3
GridSize: 4
TimelineZoom: 2.599999

[Metadata]
Title:In Death, Rebirth
TitleUnicode:In Death, Rebirth
Artist:Formless
ArtistUnicode:Formless
Creator:HML
Version:Omnipotent
Source:
Tags:technical death metal deathstream marathon stamina UndeadBananaz
BeatmapID:925812
BeatmapSetID:429048

[Difficulty]
HPDrainRate:5.8
CircleSize:4.4
OverallDifficulty:10
ApproachRate:10
SliderMultiplier:2.5
SliderTickRate:1

[Events]
//Background and Video events
0,0,"BG.jpg",0,0
//Break Periods
2,324677,339679
//Storyboard Layer 0 (Background)
//Storyboard Layer 1 (Fail)
//Storyboard Layer 2 (Pass)
//Storyboard Layer 3 (Foreground)
//Storyboard Layer 4 (Overlay)
//Storyboard Sound Samples

[TimingPoints]
2564,260.869565217391,4,1,1,65,1,0
2564,-100,4,1,1,65,0,1
53694,-153.846153846153,4,2,1,65,0,0
55781,-153.846153846153,4,1,1,65,0,0
57868,-153.846153846153,4,2,1,65,0,0
58194,-153.846153846153,4,2,1,5,0,0
58259,-153.846153846153,4,2,1,65,0,0
58585,-153.846153846153,4,2,1,5,0,0
58650,-200,4,2,1,65,0,0
59107,-153.846153846153,4,2,1,5,0,0
59172,-200,4,2,1,65,0,0
59629,-153.846153846153,4,2,1,5,0,0
59694,-153.846153846153,4,1,1,65,0,0
62042,-153.846153846153,4,2,1,65,0,0
70390,-153.846153846153,4,1,1,65,0,0
74563,-100,4,1,1,65,0,1
77694,-181.818181818181,4,1,1,65,0,1
78737,-100,4,1,1,65,0,1
82650,-133.333333333333,4,1,1,65,0,1
82911,-100,4,1,1,65,0,1
86237,-100,4,2,1,5,0,1
86303,-100,4,1,1,65,0,1
86498,-100,4,2,1,5,0,1
86563,-100,4,1,1,65,0,1
86759,-100,4,2,1,5,0,1
86824,-100,4,1,1,65,0,1
87020,-100,4,2,1,5,0,1
87085,-100,4,1,1,65,0,1
90216,-133.333333333333,4,1,1,65,0,1
90477,-133.333333333333,4,1,1,65,0,1
90737,-100,4,1,1,65,0,1
90998,-133.333333333333,4,1,1,65,0,1
91259,-133.333333333333,4,1,1,65,0,0
93346,-100,4,1,1,65,0,1
103259,-200,4,1,1,65,0,1
105346,-100,4,1,1,65,0,1
107433,-200,4,1,1,65,0,1
107955,-133.333333333333,4,1,1,65,0,0
116303,-133.333333333333,4,1,1,65,0,0
116824,-200,4,1,1,65,0,0
117868,-133.333333333333,4,1,1,65,0,0
118390,-200,4,1,1,65,0,0
119172,-133.333333333333,4,1,1,65,0,0
119955,-200,4,1,1,65,0,0
120998,-133.333333333333,4,1,1,65,0,0
125433,-100,4,1,1,65,0,0
130390,-200,4,1,1,65,0,0
130911,-100,4,1,1,65,0,0
138737,-133.333333333333,4,1,1,65,0,0
139259,-100,4,1,1,65,0,0
141346,-100,4,1,1,65,0,1
149955,-80,4,1,1,65,0,1
152824,-100,4,1,1,65,0,1
153020,-100,4,2,1,5,0,1
153085,-100,4,1,1,65,0,1
153281,-100,4,2,1,5,0,1
153346,-100,4,1,1,65,0,1
153542,-100,4,2,1,5,0,1
153607,-100,4,1,1,65,0,1
153803,-80,4,2,1,5,0,1
153868,-80,4,1,1,65,0,1
158042,-100,4,1,1,65,0,0
158172,-133.333333333333,4,1,1,65,0,0
160129,-100,4,1,1,65,0,1
173955,-133.333333333333,4,1,1,65,0,1
174216,-100,4,1,1,65,0,1
174737,-133.333333333333,4,1,1,65,0,0
183607,-133.333333333333,4,1,1,65,0,0
183803,-133.333333333333,4,1,1,65,0,0
184390,-200,4,1,1,65,0,0
185433,-133.333333333333,4,1,1,65,0,0
185955,-200,4,1,1,65,0,0
187781,-133.333333333333,4,1,1,65,0,0
190911,-100,4,1,1,65,0,0
197172,-133.333333333333,4,1,1,65,0,0
197694,-100,4,1,1,65,0,0
205520,-133.333333333333,4,1,1,65,0,0
206042,-100,4,1,1,65,0,0
208129,260.869565217391,6,1,1,65,1,0
208129,-100,4,1,1,65,0,1
214389,260.869565217391,4,1,1,65,1,0
214389,-100,4,1,1,65,0,1
233171,260.869565217391,3,1,1,65,1,0
233171,-100,3,1,1,65,0,1
267018,-100,4,2,1,5,0,1
267084,-100,4,1,1,65,0,1
267279,-100,4,2,1,5,0,1
267344,-100,4,1,1,65,0,1
267540,-100,4,2,1,5,0,1
267605,-100,4,1,1,65,0,1
269953,-200,4,1,1,65,0,1
270475,-133.333333333333,4,1,1,65,0,1
276084,521.739130434783,4,1,1,65,1,0
276084,-100,4,1,1,65,0,1
276996,260.869565217391,4,1,1,65,1,0
276996,-100,4,1,1,65,0,1
280582,-100,4,2,1,5,0,1
280648,-100,4,1,1,65,0,1
281169,-133.333333333333,4,1,1,65,0,1
281626,-100,4,1,1,65,0,1
282474,-133.333333333333,4,1,1,65,0,1
286387,-100,4,1,1,65,0,1
287952,-133.333333333333,4,1,1,65,0,1
289517,-200,4,1,1,65,0,1
294213,-133.333333333333,4,1,1,65,0,1
294409,-100,4,1,1,65,0,1
297343,-200,4,1,1,65,0,1
298909,-133.333333333333,4,1,1,65,0,1
302822,-100,4,1,1,65,0,1
303865,-100,4,1,1,65,0,1
306737,260.869565217391,4,2,1,65,1,0
306737,-133.333333333333,4,2,1,65,0,0
308823,-100,4,1,1,65,0,1
314041,-133.333333333333,4,1,1,65,0,1
315606,-100,4,1,1,65,0,1
322389,-133.333333333333,4,1,1,65,0,1
323954,-100,4,1,1,65,0,1
324476,-100,4,1,1,65,0,0
340128,-133.333333333333,4,2,1,55,0,0
346389,-133.333333333333,4,1,1,35,0,0
347497,-133.333333333333,4,2,1,55,0,0
349258,-100,4,2,1,55,0,0
349519,-133.333333333333,4,2,1,55,0,0
351345,-100,4,2,1,55,0,0
351606,-133.333333333333,4,2,1,55,0,0
353432,-80,4,2,1,55,0,0
356823,-200,4,2,1,55,0,0

[Colours]
Combo1 : 108,19,19
Combo2 : 74,74,74
Combo3 : 122,84,84
Combo4 : 176,176,176

[HitObjects]
364,240,2565,6,0,P|356:176|308:128,1,125,8|0,0:0|0:0,0:0:0:0:
136,316,2825,1,0,0:0:0:0:
360,256,2956,1,2,0:0:0:0:
168,112,3086,6,0,P|116:148|96:212,1,125
348,244,3347,2,0,P|392:204|392:124,1,125
308,128,3608,69,8,0:0:0:0:
436,304,3738,1,0,0:0:0:0:
344,48,3869,2,0,B|272:24|220:80,1,125
248,276,4129,2,0,L|352:352,1,125,2|0,0:0|0:0,0:0:0:0:
320,152,4390,1,0,0:0:0:0:
80,180,4521,5,0,0:0:0:0:
72,200,4586,1,0,0:0:0:0:
64,220,4651,2,0,B|36:280|36:280|24:344,1,125,8|0,0:0|0:0,0:0:0:0:
316,280,4912,2,0,P|288:224|224:188,1,125
192,352,5173,1,2,0:0:0:0:
448,240,5303,1,0,0:0:0:0:
196,128,5434,38,0,P|156:176|168:248,1,125
312,272,5695,37,4,0:0:0:0:
339,285,5760,1,0,0:0:0:0:
366,299,5825,1,0,0:0:0:0:
394,313,5890,1,0,0:0:0:0:
432,300,5956,5,8,0:0:0:0:
457,257,6021,1,0,0:0:0:0:
456,208,6086,1,0,0:0:0:0:
430,166,6151,1,0,0:0:0:0:
380,140,6216,5,4,0:0:0:0:
369,109,6282,1,0,0:0:0:0:
359,79,6347,1,0,0:0:0:0:
349,49,6412,1,0,0:0:0:0:
300,24,6477,37,8,0:0:0:0:
248,40,6543,1,0,0:0:0:0:
228,92,6608,1,0,0:0:0:0:
252,140,6673,1,0,0:0:0:0:
308,156,6738,38,0,P|368:176|396:232,1,125,2|0,0:0|0:0,0:0:0:0:
208,328,6999,2,0,P|152:296|140:236,1,125
120,44,7260,5,0,0:0:0:0:
139,240,7390,1,0,0:0:0:0:
228,92,7521,1,8,0:0:0:0:
56,312,7651,1,0,0:0:0:0:
152,60,7782,5,8,0:0:0:0:
412,144,7912,1,0,0:0:0:0:
132,272,8043,1,0,0:0:0:0:
312,64,8173,37,0,0:0:0:0:
268,284,8303,1,8,0:0:0:0:
96,112,8434,1,0,0:0:0:0:
360,224,8564,2,0,B|304:256|304:256|240:264,1,125
193,97,8825,37,4,0:0:0:0:
205,121,8890,1,0,0:0:0:0:
217,145,8956,1,0,0:0:0:0:
237,177,9021,1,0,0:0:0:0:
233,217,9086,1,2,0:0:0:0:
197,241,9151,1,0,0:0:0:0:
153,233,9216,1,0,0:0:0:0:
125,189,9282,1,0,0:0:0:0:
136,140,9347,69,4,0:0:0:0:
177,107,9412,1,0,0:0:0:0:
224,112,9477,1,0,0:0:0:0:
272,144,9543,1,0,0:0:0:0:
280,200,9608,1,2,0:0:0:0:
316,240,9673,1,0,0:0:0:0:
368,248,9738,1,0,0:0:0:0:
412,220,9803,1,0,0:0:0:0:
444,180,9869,6,0,P|456:160|452:116,3,62.5,4|0|0|0,0:0|0:0|0:0|0:0,0:0:0:0:
324,172,10129,1,2,0:0:0:0:
276,196,10195,1,0,0:0:0:0:
260,248,10260,1,0,0:0:0:0:
284,292,10325,1,0,0:0:0:0:
324,324,10390,2,0,P|348:328|384:352,3,62.5,4|0|0|0,0:0|0:0|0:0|0:0,0:0:0:0:
208,300,10651,1,2,0:0:0:0:
168,296,10716,1,0,0:0:0:0:
128,304,10782,2,0,P|104:304|68:316,1,62.5
40,336,10912,37,8,0:0:0:0:
56,160,11043,2,0,P|82:105|139:83,1,125
432,154,11303,2,0,P|433:215|392:260,1,125
208,232,11564,1,0,0:0:0:0:
176,48,11695,2,0,B|238:44|238:44|298:60,1,125
296,324,11956,37,8,0:0:0:0:
432,154,12086,1,0,0:0:0:0:
100,188,12216,2,0,P|40:208|16:268,1,125
148,340,12477,2,0,P|208:312|224:256,1,125
376,68,12738,2,0,P|316:88|292:148,1,125
424,220,12999,70,0,P|484:192|500:136,1,125,8|0,0:0|0:0,0:0:0:0:
284,232,13260,1,0,0:0:0:0:
452,340,13390,1,0,0:0:0:0:
424,104,13521,2,0,B|384:40|292:80,1,125
156,260,13782,2,0,P|212:296|276:284,1,125
108,88,14043,5,4,0:0:0:0:
94,110,14108,1,0,0:0:0:0:
87,135,14173,1,0,0:0:0:0:
87,161,14238,1,0,0:0:0:0:
92,184,14303,2,0,P|112:204|124:248,3,62.5,8|0|0|0,0:0|0:0|0:0|0:0,0:0:0:0:
216,120,14564,37,4,0:0:0:0:
248,88,14629,1,0,0:0:0:0:
292,80,14695,1,0,0:0:0:0:
336,96,14760,1,0,0:0:0:0:
368,128,14825,2,0,P|388:144|424:148,3,62.5,8|0|0|0,0:0|0:0|0:0|0:0,0:0:0:0:
296,176,15086,37,10,0:0:0:0:
344,324,15216,1,0,0:0:0:0:
136,200,15347,2,0,L|68:92,1,125
264,88,15608,37,0,0:0:0:0:
196,296,15738,2,0,P|128:296|72:256,1,125
340,148,15999,2,0,P|384:192|384:256,1,125,0|8,0:0|0:0,0:0:0:0:
136,180,16260,37,0,0:0:0:0:
384,272,16390,1,0,0:0:0:0:
224,336,16521,2,0,P|156:348|100:312,1,125
60,144,16782,69,0,0:0:0:0:
252,164,16912,1,0,0:0:0:0:
144,264,17043,1,0,0:0:0:0:
40,56,17173,1,0,0:0:0:0:
184,48,17303,5,0,0:0:0:0:
204,56,17369,1,0,0:0:0:0:
224,64,17434,1,2,0:0:0:0:
244,72,17499,1,0,0:0:0:0:
268,104,17564,1,0,0:0:0:0:
304,132,17629,1,0,0:0:0:0:
348,128,17695,1,4,0:0:0:0:
384,100,17760,1,0,0:0:0:0:
384,56,17825,37,0,0:0:0:0:
352,24,17890,1,0,0:0:0:0:
304,20,17956,1,2,0:0:0:0:
264,48,18021,1,0,0:0:0:0:
268,96,18086,1,0,0:0:0:0:
288,136,18151,1,0,0:0:0:0:
280,188,18216,1,4,0:0:0:0:
232,208,18282,1,0,0:0:0:0:
187,188,18347,37,0,0:0:0:0:
163,138,18412,1,0,0:0:0:0:
181,90,18477,1,2,0:0:0:0:
224,64,18543,1,0,0:0:0:0:
273,78,18608,2,0,P|295:90|335:94,3,62.5,0|0|4|0,0:0|0:0|0:0|0:0,0:0:0:0:
132,36,18869,2,0,P|104:32|60:40,3,62.5,0|0|2|0,0:0|0:0|0:0|0:0,0:0:0:0:
40,108,19129,2,0,L|56:176,1,62.5
76,276,19260,5,4,0:0:0:0:
89,281,19325,1,0,0:0:0:0:
103,285,19390,1,0,0:0:0:0:
117,287,19456,1,0,0:0:0:0:
131,287,19521,1,0,0:0:0:0:
146,287,19586,1,0,0:0:0:0:
160,284,19651,1,0,0:0:0:0:
174,280,19716,1,0,0:0:0:0:
184,272,19782,5,4,0:0:0:0:
194,262,19847,1,0,0:0:0:0:
206,254,19912,1,0,0:0:0:0:
219,248,19977,1,0,0:0:0:0:
233,244,20043,1,0,0:0:0:0:
248,243,20108,1,0,0:0:0:0:
262,244,20173,1,0,0:0:0:0:
276,246,20238,1,0,0:0:0:0:
309,262,20303,37,4,0:0:0:0:
352,288,20369,1,0,0:0:0:0:
400,290,20434,2,0,P|433:277|459:252,1,62.5
412,180,20564,37,0,0:0:0:0:
396,152,20629,1,0,0:0:0:0:
380,124,20695,2,0,L|344:68,3,62.5,4|0|0|0,0:0|0:0|0:0|0:0,0:0:0:0:
288,144,20956,1,0,0:0:0:0:
292,180,21021,1,0,0:0:0:0:
296,216,21086,2,0,L|304:288,3,62.5,4|0|0|0,0:0|0:0|0:0|0:0,0:0:0:0:
156,216,21347,5,4,0:0:0:0:
132,204,21412,1,0,0:0:0:0:
115,184,21477,1,0,0:0:0:0:
106,160,21543,1,0,0:0:0:0:
106,134,21608,1,0,0:0:0:0:
116,109,21673,1,0,0:0:0:0:
133,90,21738,1,0,0:0:0:0:
157,79,21803,1,0,0:0:0:0:
184,76,21869,6,0,P|220:80|256:72,1,62.5,4|0,0:0|0:0,0:0:0:0:
384,56,21999,2,0,P|348:52|316:64,3,62.5
460,88,22260,2,0,L|472:156,1,62.5
396,192,22390,37,4,0:0:0:0:
408,212,22456,1,0,0:0:0:0:
420,232,22521,1,0,0:0:0:0:
432,252,22586,1,0,0:0:0:0:
444,272,22651,2,0,P|456:292|488:316,3,62.5
332,308,22912,37,4,0:0:0:0:
300,312,22977,1,0,0:0:0:0:
268,304,23043,1,0,0:0:0:0:
248,280,23108,1,0,0:0:0:0:
244,248,23173,2,0,P|252:224|248:180,3,62.5
144,152,23434,69,4,0:0:0:0:
136,120,23499,1,0,0:0:0:0:
148,88,23564,1,0,0:0:0:0:
176,72,23629,1,0,0:0:0:0:
208,72,23695,1,0,0:0:0:0:
236,88,23760,1,0,0:0:0:0:
260,112,23825,1,0,0:0:0:0:
292,120,23890,1,0,0:0:0:0:
324,104,23956,6,0,P|352:92|384:96,1,62.5,4|0,0:0|0:0,0:0:0:0:
456,152,24086,2,0,L|468:220,1,62.5
408,344,24216,2,0,L|392:280,1,62.5
324,104,24347,2,0,L|340:176,1,62.5
288,216,24477,37,6,0:0:0:0:
256,208,24543,1,0,0:0:0:0:
224,200,24608,1,0,0:0:0:0:
192,192,24673,1,0,0:0:0:0:
160,184,24738,1,0,0:0:0:0:
128,176,24803,1,0,0:0:0:0:
96,168,24869,38,0,P|72:160|40:128,3,62.5,12|0|0|0,0:0|0:0|0:0|0:0,0:0:0:0:
124,84,25129,1,0,0:0:0:0:
172,80,25195,1,0,0:0:0:0:
216,104,25260,2,0,P|244:107|271:128,3,62.5,12|0|0|0,0:0|0:0|0:0|0:0,0:0:0:0:
260,272,25521,69,6,0:0:0:0:
308,280,25586,1,0,0:0:0:0:
352,256,25651,1,0,0:0:0:0:
376,212,25716,1,0,0:0:0:0:
380,164,25782,1,0,0:0:0:0:
364,120,25847,1,0,0:0:0:0:
336,84,25912,2,0,P|320:68|272:60,1,62.5
216,104,26043,6,0,L|192:164,3,62.5,4|0|0|0,0:0|0:0|0:0|0:0,0:0:0:0:
252,328,26303,2,0,L|228:252,3,62.5
296,324,26564,1,4,0:0:0:0:
325,296,26629,1,0,0:0:0:0:
341,258,26695,1,0,0:0:0:0:
337,216,26760,1,0,0:0:0:0:
326,170,26825,5,0,0:0:0:0:
317,125,26890,1,0,0:0:0:0:
336,84,26956,1,0,0:0:0:0:
374,60,27021,1,0,0:0:0:0:
420,63,27086,1,4,0:0:0:0:
455,91,27151,1,0,0:0:0:0:
468,136,27216,2,0,P|472:160|496:200,5,62.5
328,184,27608,5,4,0:0:0:0:
322,161,27673,1,0,0:0:0:0:
313,142,27738,1,0,0:0:0:0:
299,126,27803,1,0,0:0:0:0:
281,114,27869,1,0,0:0:0:0:
258,111,27934,1,0,0:0:0:0:
237,112,27999,1,0,0:0:0:0:
217,119,28064,1,0,0:0:0:0:
200,133,28129,5,4,0:0:0:0:
187,151,28195,1,0,0:0:0:0:
180,171,28260,1,0,0:0:0:0:
180,193,28325,1,0,0:0:0:0:
186,213,28390,1,0,0:0:0:0:
197,232,28456,1,0,0:0:0:0:
215,246,28521,1,0,0:0:0:0:
229,254,28586,1,0,0:0:0:0:
276,272,28651,5,4,0:0:0:0:
324,264,28716,1,0,0:0:0:0:
368,244,28782,2,0,P|396:224|420:192,1,62.5
356,144,28912,5,0,0:0:0:0:
348,120,28977,1,0,0:0:0:0:
340,96,29043,2,0,L|320:36,3,62.5,4|0|0|0,0:0|0:0|0:0|0:0,0:0:0:0:
208,92,29303,1,0,0:0:0:0:
160,104,29369,1,0,0:0:0:0:
112,92,29434,2,0,P|84:88|48:72,3,62.5,4|0|0|0,0:0|0:0|0:0|0:0,0:0:0:0:
180,193,29695,6,0,L|241:201,3,62.5,6|0|0|0,0:0|0:0|0:0|0:0,0:0:0:0:
324,264,29956,2,0,L|296:320,3,62.5
192,308,30216,38,0,P|124:308|76:272,1,125,4|0,0:0|0:0,0:0:0:0:
68,236,30412,1,0,0:0:0:0:
68,200,30477,2,0,P|76:172|68:128,3,62.5
144,84,30738,5,4,0:0:0:0:
165,68,30803,1,0,0:0:0:0:
188,57,30869,1,0,0:0:0:0:
214,50,30934,1,0,0:0:0:0:
240,49,30999,1,0,0:0:0:0:
266,53,31064,1,0,0:0:0:0:
291,61,31129,1,0,0:0:0:0:
313,75,31195,1,0,0:0:0:0:
328,88,31260,6,0,P|332:112|320:148,3,62.5,4|0|0|0,0:0|0:0|0:0|0:0,0:0:0:0:
424,240,31521,2,0,P|420:264|432:300,3,62.5
332,248,31782,37,6,0:0:0:0:
300,256,31847,1,0,0:0:0:0:
268,244,31912,1,0,0:0:0:0:
248,216,31977,1,0,0:0:0:0:
252,184,32043,1,0,0:0:0:0:
272,156,32108,1,0,0:0:0:0:
304,148,32173,1,0,0:0:0:0:
340,152,32238,1,0,0:0:0:0:
368,176,32303,6,0,P|380:204|376:248,1,62.5,4|0,0:0|0:0,0:0:0:0:
304,332,32434,2,0,L|243:342,1,62.5
412,312,32564,2,0,L|484:300,1,62.5
368,176,32695,2,0,L|308:192,1,62.5
196,248,32825,69,12,0:0:0:0:
152,244,32890,1,0,0:0:0:0:
112,252,32956,2,0,P|81:267|60:300,3,62.5
116,160,33216,5,12,0:0:0:0:
128,120,33282,1,0,0:0:0:0:
120,80,33347,2,0,P|104:52|76:36,3,62.5
236,52,33608,37,12,0:0:0:0:
272,40,33673,1,0,0:0:0:0:
312,48,33738,2,0,P|340:60|356:92,1,62.5
372,212,33869,37,6,0:0:0:0:
369,251,33934,1,0,0:0:0:0:
342,284,33999,1,0,0:0:0:0:
309,306,34064,1,0,0:0:0:0:
271,308,34129,1,0,0:0:0:0:
238,292,34195,1,0,0:0:0:0:
217,255,34260,1,0,0:0:0:0:
199,220,34325,1,0,0:0:0:0:
180,184,34390,1,4,0:0:0:0:
141,172,34456,1,0,0:0:0:0:
106,191,34521,69,0,0:0:0:0:
87,228,34586,1,0,0:0:0:0:
97,269,34651,1,0,0:0:0:0:
128,301,34716,1,0,0:0:0:0:
172,301,34782,1,0,0:0:0:0:
210,280,34847,1,0,0:0:0:0:
236,244,34912,6,0,P|246:217|228:160,2,83.3333333333333,4|0|0,0:0|0:0|0:0,0:0:0:0:
193,59,35173,2,0,P|155:55|104:72,2,83.3333333333333
48,140,35434,5,4,0:0:0:0:
49,177,35499,1,0,0:0:0:0:
50,214,35564,1,0,0:0:0:0:
51,252,35629,1,0,0:0:0:0:
68,288,35695,1,0,0:0:0:0:
99,308,35760,1,0,0:0:0:0:
135,316,35825,1,0,0:0:0:0:
172,310,35890,1,0,0:0:0:0:
208,288,35956,6,0,P|236:280|276:288,3,62.5,4|0|0|0,0:0|0:0|0:0|0:0,0:0:0:0:
348,332,36216,2,0,P|376:328|412:308,3,62.5
204,212,36477,5,4,0:0:0:0:
176,186,36543,1,0,0:0:0:0:
162,152,36608,1,0,0:0:0:0:
162,115,36673,1,0,0:0:0:0:
178,81,36738,1,0,0:0:0:0:
206,56,36803,1,0,0:0:0:0:
241,45,36869,1,0,0:0:0:0:
280,44,36934,1,0,0:0:0:0:
324,68,36999,6,0,B|336:136|336:136|364:192,1,125,8|0,0:0|0:0,0:0:0:0:
467,42,37260,1,0,0:0:0:0:
235,166,37390,1,0,0:0:0:0:
292,300,37521,38,0,P|356:268|380:212,1,125,2|0,0:0|0:0,0:0:0:0:
172,104,37782,2,0,P|116:132|88:192,1,125
212,340,38043,37,8,0:0:0:0:
264,104,38173,1,0,0:0:0:0:
64,244,38303,2,0,B|128:264|128:264|192:268,1,125
428,224,38564,2,0,P|420:160|384:112,1,125,2|0,0:0|0:0,0:0:0:0:
76,156,38825,1,0,0:0:0:0:
372,312,38956,1,0,0:0:0:0:
224,80,39086,70,0,B|176:124|176:124|156:184,1,125,8|0,0:0|0:0,0:0:0:0:
192,328,39347,1,0,0:0:0:0:
402,160,39477,1,0,0:0:0:0:
228,40,39608,1,2,0:0:0:0:
102,216,39738,1,0,0:0:0:0:
287,338,39869,2,0,B|316:280|316:280|332:212,1,125
264,80,40129,5,4,0:0:0:0:
226,60,40195,1,0,0:0:0:0:
185,55,40260,1,0,0:0:0:0:
144,63,40325,1,0,0:0:0:0:
109,85,40390,5,8,0:0:0:0:
107,129,40456,1,0,0:0:0:0:
104,172,40521,1,0,0:0:0:0:
102,216,40586,1,0,0:0:0:0:
100,260,40651,6,0,P|108:292|104:328,3,62.5,4|0|0|0,0:0|0:0|0:0|0:0,0:0:0:0:
20,296,40912,2,0,P|8:256|16:220,3,62.5,8|0|0|0,0:0|0:0|0:0|0:0,0:0:0:0:
52,108,41173,6,0,B|112:84|112:84|176:80,1,125,8|0,0:0|0:0,0:0:0:0:
264,300,41434,1,0,0:0:0:0:
104,320,41564,2,0,B|65:276|65:276|39:216,1,125,2|0,0:0|0:0,0:0:0:0:
140,56,41825,1,0,0:0:0:0:
292,276,41956,1,0,0:0:0:0:
112,154,42086,38,0,L|52:42,1,125,0|8,0:0|0:0,0:0:0:0:
56,272,42347,1,0,0:0:0:0:
220,160,42477,1,0,0:0:0:0:
400,96,42608,38,0,P|448:144|448:216,1,125,2|0,0:0|0:0,0:0:0:0:
180,304,42869,2,0,P|124:272|108:216,1,125
232,68,43129,1,0,0:0:0:0:
360,244,43260,69,4,0:0:0:0:
332,280,43325,1,0,0:0:0:0:
291,293,43390,1,0,0:0:0:0:
248,288,43456,1,0,0:0:0:0:
216,260,43521,1,0,0:0:0:0:
204,220,43586,1,0,0:0:0:0:
212,176,43651,1,0,0:0:0:0:
240,144,43716,1,0,0:0:0:0:
280,132,43782,5,4,0:0:0:0:
301,144,43847,1,0,0:0:0:0:
323,156,43912,1,0,0:0:0:0:
345,169,43977,1,0,0:0:0:0:
366,181,44043,1,0,0:0:0:0:
388,194,44108,1,0,0:0:0:0:
410,206,44173,1,0,0:0:0:0:
431,218,44238,1,0,0:0:0:0:
454,260,44303,38,0,B|390:276|390:276|330:280,1,125,4|0,0:0|0:0,0:0:0:0:
124,224,44564,70,0,P|104:216|64:224,3,62.5,0|0|2|0,0:0|0:0|0:0|0:0,0:0:0:0:
160,252,44825,1,0,0:0:0:0:
208,252,44890,1,0,0:0:0:0:
252,232,44956,1,2,0:0:0:0:
276,192,45021,1,0,0:0:0:0:
284,152,45086,6,0,P|280:128|288:88,3,62.5,8|0|2|0,0:0|0:0|0:0|0:0,0:0:0:0:
352,116,45347,1,8,0:0:0:0:
416,332,45477,1,0,0:0:0:0:
376,88,45608,1,0,0:0:0:0:
324,312,45738,1,2,0:0:0:0:
392,56,45869,38,0,P|448:96|456:152,1,125
176,224,46129,1,0,0:0:0:0:
440,160,46260,1,0,0:0:0:0:
296,344,46390,38,0,B|232:348|232:348|168:336,1,125,8|0,0:0|0:0,0:0:0:0:
316,112,46651,1,0,0:0:0:0:
280,340,46782,1,0,0:0:0:0:
60,208,46912,1,2,0:0:0:0:
220,88,47043,2,0,B|280:60|280:60|344:56,1,125
308,280,47303,69,0,0:0:0:0:
272,296,47369,1,0,0:0:0:0:
232,292,47434,6,0,P|168:272|136:216,1,125,8|0,0:0|0:0,0:0:0:0:
396,124,47695,2,0,P|440:172|436:232,1,125
212,184,47956,1,2,0:0:0:0:
424,240,48086,1,0,0:0:0:0:
152,132,48216,1,0,0:0:0:0:
440,280,48347,1,0,0:0:0:0:
360,76,48477,37,4,0:0:0:0:
375,102,48543,1,0,0:0:0:0:
391,128,48608,1,0,0:0:0:0:
407,155,48673,1,0,0:0:0:0:
416,200,48738,37,0,0:0:0:0:
384,240,48803,1,0,0:0:0:0:
336,252,48869,1,0,0:0:0:0:
288,236,48934,1,0,0:0:0:0:
232,240,48999,69,4,0:0:0:0:
196,249,49064,1,0,0:0:0:0:
161,258,49129,1,0,0:0:0:0:
124,268,49195,1,0,0:0:0:0:
84,240,49260,5,0,0:0:0:0:
60,192,49325,1,0,0:0:0:0:
80,144,49390,1,0,0:0:0:0:
124,124,49456,1,0,0:0:0:0:
172,116,49521,38,0,B|240:124|240:124|304:112,1,125,8|0,0:0|0:0,0:0:0:0:
480,44,49782,1,0,0:0:0:0:
352,224,49912,38,0,L|368:364,1,125,2|0,0:0|0:0,0:0:0:0:
120,312,50173,1,0,0:0:0:0:
204,88,50303,1,0,0:0:0:0:
248,304,50434,1,0,0:0:0:0:
324,108,50564,70,0,B|388:88|388:88|456:84,1,125,8|0,0:0|0:0,0:0:0:0:
248,304,50825,2,0,P|216:248|232:188,1,125,0|2,0:0|0:0,0:0:0:0:
420,124,51086,1,0,0:0:0:0:
272,316,51216,1,0,0:0:0:0:
296,36,51347,2,0,B|332:88|332:88|356:152,1,125
392,340,51608,1,0,0:0:0:0:
184,248,51738,1,0,0:0:0:0:
360,116,51869,5,4,0:0:0:0:
352,151,51934,1,0,0:0:0:0:
345,187,51999,1,0,0:0:0:0:
340,224,52064,1,0,0:0:0:0:
312,272,52129,37,4,0:0:0:0:
256,284,52195,1,0,0:0:0:0:
204,268,52260,1,0,0:0:0:0:
172,224,52325,1,0,0:0:0:0:
180,168,52390,37,0,0:0:0:0:
224,132,52456,1,0,0:0:0:0:
280,136,52521,1,0,0:0:0:0:
316,176,52586,1,0,0:0:0:0:
344,216,52651,70,0,P|364:228|404:228,3,62.5,4|0|0|0,0:0|0:0|0:0|0:0,0:0:0:0:
360,116,52912,2,0,L|339:57,3,62.5
256,152,53173,2,0,P|232:156|192:144,3,62.5,4|0|0|0,0:0|0:0|0:0|0:0,0:0:0:0:
144,92,53434,5,0,0:0:0:0:
112,121,53499,1,0,0:0:0:0:
104,164,53564,1,0,0:0:0:0:
124,202,53629,1,0,0:0:0:0:
160,228,53695,38,0,P|244:248|316:220,1,162.499992561341,4|0,0:0|0:0,0:0:0:0:
372,156,54086,37,0,0:0:0:0:
440,268,54216,1,8,0:0:0:0:
344,72,54347,1,0,0:0:0:0:
312,256,54477,1,0,0:0:0:0:
424,32,54608,1,0,0:0:0:0:
424,32,54673,1,0,0:0:0:0:
424,32,54738,2,0,L|444:200,1,162.499992561341,2|0,0:0|0:0,0:0:0:0:
152,328,55260,69,0,0:0:0:0:
444,208,55521,1,0,0:0:0:0:
284,92,55651,1,0,0:0:0:0:
284,92,55716,1,0,0:0:0:0:
284,92,55782,5,4,0:0:0:0:
40,172,56043,1,4,0:0:0:0:
152,328,56173,1,0,0:0:0:0:
152,328,56238,1,0,0:0:0:0:
152,328,56303,1,4,0:0:0:0:
400,324,56564,37,0,0:0:0:0:
408,292,56629,1,0,0:0:0:0:
416,260,56695,1,0,0:0:0:0:
424,228,56760,1,0,0:0:0:0:
432,196,56825,2,0,L|472:32,1,162.499992561341,4|0,0:0|0:0,0:0:0:0:
216,116,57347,37,4,0:0:0:0:
452,40,57608,1,4,0:0:0:0:
124,128,57869,70,0,B|128:212|100:256|100:256|132:336,1,203.124990701676,4|0,0:0|0:0,0:0:0:0:
184,260,58260,2,0,L|388:292,1,203.124990701676,4|0,0:0|0:0,0:0:0:0:
452,256,58651,2,0,P|464:192|356:220,1,218.75,4|0,0:0|0:0,0:0:0:0:
384,291,59173,2,0,P|303:338|287:246,1,218.75,4|0,0:0|0:0,0:0:0:0:
292,176,59695,2,0,P|268:136|172:120,1,121.874994421006
160,168,59956,5,8,0:0:0:0:
336,100,60086,1,0,0:0:0:0:
76,124,60216,1,8,0:0:0:0:
400,160,60347,1,0,0:0:0:0:
84,44,60477,1,8,0:0:0:0:
376,236,60608,1,0,0:0:0:0:
156,84,60738,1,8,0:0:0:0:
320,172,60869,1,0,0:0:0:0:
228,224,60999,5,8,0:0:0:0:
234,255,61064,1,0,0:0:0:0:
250,283,61129,1,8,0:0:0:0:
275,304,61195,1,0,0:0:0:0:
304,316,61260,1,8,0:0:0:0:
337,318,61325,1,0,0:0:0:0:
368,310,61390,1,0,0:0:0:0:
395,292,61456,1,0,0:0:0:0:
416,268,61521,5,8,0:0:0:0:
425,237,61586,1,0,0:0:0:0:
425,204,61651,1,8,0:0:0:0:
413,174,61716,1,0,0:0:0:0:
393,149,61782,1,8,0:0:0:0:
366,131,61847,1,0,0:0:0:0:
334,124,61912,1,0,0:0:0:0:
302,127,61977,1,0,0:0:0:0:
272,132,62043,70,0,P|204:152|160:232,1,162.499992561341,8|0,0:0|0:0,0:0:0:0:
464,336,62564,1,0,0:0:0:0:
160,252,62825,1,0,0:0:0:0:
468,204,63086,5,8,0:0:0:0:
128,96,63347,1,0,0:0:0:0:
456,48,63608,37,0,0:0:0:0:
344,96,63738,1,0,0:0:0:0:
228,308,63999,38,0,L|236:356,2,40.6249981403352,0|0|8,0:0|0:0|0:0,0:0:0:0:
200,136,64390,1,0,0:0:0:0:
220,292,64651,69,0,0:0:0:0:
152,80,64782,1,0,0:0:0:0:
220,320,64912,1,0,0:0:0:0:
224,24,65043,1,0,0:0:0:0:
312,308,65173,6,0,L|320:368,2,54.1666641871136,8|0|0,0:0|0:0|0:0,0:0:0:0:
344,96,65434,2,0,L|332:40,2,54.1666641871136,8|0|0,0:0|0:0|0:0,0:0:0:0:
256,220,65695,37,4,1:0:0:0:
208,220,65781,1,0,0:0:0:0:
168,192,65868,1,0,0:0:0:0:
220,108,65956,37,4,1:0:0:0:
268,104,66042,1,0,0:0:0:0:
312,124,66129,1,0,0:0:0:0:
384,244,66216,70,0,L|408:312,2,54.1666641871136,8|0|0,0:0|0:0|0:0,0:0:0:0:
416,100,66477,2,0,L|392:36,2,54.1666641871136,8|0|0,0:0|0:0|0:0,0:0:0:0:
448,208,66737,5,4,1:0:0:0:
456,236,66824,1,0,0:0:0:0:
464,264,66911,1,0,0:0:0:0:
380,348,66998,37,4,1:0:0:0:
363,323,67085,1,0,0:0:0:0:
347,299,67172,1,0,0:0:0:0:
249,153,67256,38,0,L|212:88,2,54.1666641871136,8|0|0,0:0|0:0|0:0,0:0:0:0:
396,220,67521,2,0,L|432:276,2,54.1666641871136,8|0|0,0:0|0:0|0:0,0:0:0:0:
320,128,67782,69,4,1:0:0:0:
280,100,67868,1,0,0:0:0:0:
232,92,67955,1,0,0:0:0:0:
152,156,68042,5,4,1:0:0:0:
148,204,68129,1,0,0:0:0:0:
144,252,68216,1,0,0:0:0:0:
112,340,68298,38,0,L|40:352,2,54.1666641871136,8|0|0,0:0|0:0|0:0,0:0:0:0:
310,337,68564,2,0,L|376:324,2,54.1666641871136,8|0|0,0:0|0:0|0:0,0:0:0:0:
224,184,68825,2,0,L|200:108,2,54.1666641871136,8|0|0,0:0|0:0|0:0,0:0:0:0:
356,200,69086,5,4,1:0:0:0:
359,209,69151,1,0,0:0:0:0:
360,219,69216,1,0,0:0:0:0:
361,229,69282,1,0,0:0:0:0:
359,239,69347,1,8,0:0:0:0:
356,249,69412,1,0,0:0:0:0:
352,258,69477,1,0,0:0:0:0:
346,267,69543,1,0,0:0:0:0:
339,274,69608,1,0,0:0:0:0:
331,280,69673,1,0,0:0:0:0:
322,285,69738,5,8,0:0:0:0:
313,288,69803,1,0,0:0:0:0:
303,290,69869,1,0,0:0:0:0:
293,291,69934,1,0,0:0:0:0:
283,290,69999,1,0,0:0:0:0:
273,287,70064,1,0,0:0:0:0:
264,283,70129,1,8,0:0:0:0:
255,277,70195,1,0,0:0:0:0:
248,270,70260,1,0,0:0:0:0:
241,262,70325,1,0,0:0:0:0:
237,256,70390,54,0,P|227:215|247:169,1,81.2499962806703,8|0,0:0|0:0,0:0:0:0:
386,45,70651,1,0,0:0:0:0:
225,103,70782,1,8,0:0:0:0:
388,136,71043,69,0,0:0:0:0:
396,144,71108,1,0,0:0:0:0:
404,152,71173,1,0,0:0:0:0:
456,280,71303,1,0,0:0:0:0:
248,276,71434,38,0,L|164:296,1,81.2499962806703,8|0,0:0|0:0,0:0:0:0:
68,200,71695,1,0,0:0:0:0:
168,84,71825,1,0,0:0:0:0:
232,216,71956,1,0,0:0:0:0:
48,124,72086,69,0,0:0:0:0:
245,58,72216,1,0,0:0:0:0:
228,256,72347,2,0,L|144:280,1,81.2499962806703,0|8,0:0|0:0,0:0:0:0:
380,144,72738,5,0,0:0:0:0:
352,328,72999,1,0,0:0:0:0:
48,176,73260,37,8,0:0:0:0:
156,56,73521,1,0,0:0:0:0:
172,268,73782,1,0,0:0:0:0:
304,68,74043,37,8,0:0:0:0:
380,144,74173,1,4,0:0:0:0:
392,160,74238,1,4,0:0:0:0:
404,176,74303,1,4,0:0:0:0:
172,268,74564,70,0,B|112:260|112:260|48:228,1,125,8|0,0:0|0:0,0:0:0:0:
76,44,74825,1,0,0:0:0:0:
192,256,74956,1,2,0:0:0:0:
124,104,75086,6,0,P|157:52|215:33,1,125
404,176,75347,2,0,P|369:226|311:248,1,125
277,61,75608,5,4,0:0:0:0:
324,46,75673,1,0,0:0:0:0:
373,54,75738,1,0,0:0:0:0:
413,84,75803,1,0,0:0:0:0:
442,126,75869,5,8,0:0:0:0:
440,175,75934,1,0,0:0:0:0:
438,225,75999,1,0,0:0:0:0:
436,275,76064,1,0,0:0:0:0:
411,320,76129,5,4,0:0:0:0:
373,324,76195,1,0,0:0:0:0:
336,329,76260,1,0,0:0:0:0:
299,334,76325,1,0,0:0:0:0:
268,299,76390,5,8,0:0:0:0:
230,304,76456,1,0,0:0:0:0:
193,309,76521,1,0,0:0:0:0:
156,315,76586,1,0,0:0:0:0:
116,292,76651,38,0,P|104:228|124:152,1,125,8|0,0:0|0:0,0:0:0:0:
324,46,76912,2,0,B|352:102|352:102|360:174,1,125
136,312,77173,1,2,0:0:0:0:
172,88,77303,1,0,0:0:0:0:
388,304,77434,38,0,P|332:332|264:320,1,125
148,160,77695,2,0,P|156:136|184:104,2,45.8333347320557,4|0|0,0:0|0:0|0:0,0:0:0:0:
244,68,77956,2,0,P|264:52|300:44,2,45.8333347320557,8|0|0,0:0|0:0|0:0,0:0:0:0:
364,64,78216,2,0,L|388:124,2,45.8333347320557,4|0|0,0:0|0:0|0:0,0:0:0:0:
356,196,78477,6,0,L|392:212,3,34.3750010490418
308,284,78738,2,0,B|248:312|248:312|184:324,1,125,8|0,0:0|0:0,0:0:0:0:
53,164,78999,2,0,P|117:168|157:216,1,125
356,328,79260,38,0,L|260:232,1,125,2|0,0:0|0:0,0:0:0:0:
32,100,79521,1,0,0:0:0:0:
276,80,79651,1,0,0:0:0:0:
104,256,79782,38,0,P|77:256|39:271,3,62.5,4|0|0|0,0:0|0:0|0:0|0:0,0:0:0:0:
142,269,80043,1,8,0:0:0:0:
175,284,80108,1,0,0:0:0:0:
212,285,80173,1,0,0:0:0:0:
250,275,80238,1,0,0:0:0:0:
287,262,80303,70,0,P|319:262|355:274,3,62.5,4|0|0|0,0:0|0:0|0:0|0:0,0:0:0:0:
292,140,80564,2,0,L|276:80,3,62.5,8|0|0|0,0:0|0:0|0:0|0:0,0:0:0:0:
304,160,80825,5,8,0:0:0:0:
460,344,80956,1,0,0:0:0:0:
448,192,81086,2,0,B|436:128|436:128|416:72,1,125,2|0,0:0|0:0,0:0:0:0:
192,164,81347,2,0,P|200:224|256:260,1,125
456,232,81608,1,0,0:0:0:0:
292,140,81738,1,0,0:0:0:0:
100,136,81869,38,0,B|80:168|92:192|92:192|72:216|72:216|92:252|80:320|80:320|108:332|132:300|132:300,1,250,8|0,2:0|0:0,0:0:0:0:
104,44,82260,2,0,P|40:64|19:142,1,125
264,232,82521,1,0,0:0:0:0:
312,240,82586,1,0,0:0:0:0:
360,232,82651,2,2,P|384:224|320:196,1,187.500007152558,0|0,0:0|0:0,0:0:0:0:
316,336,83043,37,0,0:0:0:0:
176,216,83173,2,0,B|140:164|140:164|124:100,1,125,2|0,0:0|0:0,0:0:0:0:
396,192,83434,2,0,P|428:248|420:308,1,125,8|0,0:0|0:0,0:0:0:0:
132,320,83695,69,2,0:0:0:0:
400,320,83825,1,0,0:0:0:0:
68,244,83956,5,4,0:0:0:0:
40,200,84021,1,0,0:0:0:0:
44,148,84086,1,0,0:0:0:0:
84,116,84151,1,0,0:0:0:0:
132,112,84216,1,8,0:0:0:0:
176,136,84282,1,0,0:0:0:0:
196,180,84347,1,0,0:0:0:0:
188,228,84412,1,0,0:0:0:0:
216,268,84477,37,4,0:0:0:0:
264,268,84543,1,0,0:0:0:0:
300,236,84608,1,0,0:0:0:0:
300,188,84673,1,0,0:0:0:0:
272,144,84738,1,8,0:0:0:0:
220,144,84803,1,0,0:0:0:0:
176,176,84869,1,0,0:0:0:0:
128,176,84934,1,0,0:0:0:0:
88,144,84999,2,0,P|68:124|68:80,4,62.5,8|0|0|0|2,0:0|0:0|0:0|0:0|0:0,0:0:0:0:
128,296,85390,37,0,0:0:0:0:
316,300,85521,2,0,B|384:308|384:308|448:304,1,125,8|0,0:0|0:0,0:0:0:0:
352,96,85782,2,0,P|288:96|244:144,1,125,2|0,0:0|0:0,0:0:0:0:
200,308,86043,70,0,P|72:332|24:284,1,187.5,8|0,2:0|0:0,0:0:0:0:
148,236,86303,2,0,P|259:258|295:325,1,187.5
200,308,86564,2,0,P|203:201|285:140,1,187.5,8|0,2:0|0:0,0:0:0:0:
352,96,86825,2,0,P|337:168|241:227,1,187.5
192,188,87086,6,0,P|132:168|64:180,1,125,8|0,0:0|0:0,0:0:0:0:
296,340,87347,2,0,B|364:352|364:352|428:348,1,125,2|0,0:0|0:0,0:0:0:0:
448,152,87608,1,8,0:0:0:0:
236,104,87738,1,0,0:0:0:0:
72,328,87869,2,0,P|133:334|190:311,1,62.5,2|0,0:0|0:0,0:0:0:0:
314,260,88129,37,4,0:0:0:0:
358,246,88195,1,0,0:0:0:0:
382,205,88260,1,0,0:0:0:0:
372,161,88325,1,0,0:0:0:0:
334,133,88390,1,8,0:0:0:0:
290,140,88456,1,0,0:0:0:0:
256,174,88521,1,0,0:0:0:0:
211,188,88586,1,0,0:0:0:0:
170,168,88651,37,4,0:0:0:0:
150,127,88716,1,0,0:0:0:0:
174,89,88782,1,0,0:0:0:0:
218,82,88847,1,0,0:0:0:0:
256,103,88912,1,8,0:0:0:0:
266,144,88977,1,0,0:0:0:0:
262,188,89043,1,0,0:0:0:0:
235,219,89108,1,0,0:0:0:0:
240,264,89173,70,0,B|288:308|288:308|352:332,1,125,8|0,0:0|0:0,0:0:0:0:
484,184,89434,2,0,P|464:120|412:96,1,125,2|0,0:0|0:0,0:0:0:0:
96,124,89695,2,0,P|80:188|116:256,1,125,8|0,0:0|0:0,0:0:0:0:
320,176,89956,2,0,P|332:108|308:52,1,125,2|0,0:0|0:0,0:0:0:0:
204,220,90216,2,0,L|260:300,1,93.7500035762788,8|0,0:0|0:0,0:0:0:0:
416,336,90477,1,8,0:0:0:0:
320,176,90608,2,0,P|292:136|252:116,1,93.7500035762788,8|0,0:0|0:0,0:0:0:0:
104,172,90869,5,0,0:0:0:0:
92,196,90934,1,0,0:0:0:0:
83,218,90999,2,0,L|43:310,1,93.7500035762788,2|0,0:0|0:0,0:0:0:0:
168,348,91260,37,0,0:0:0:0:
320,288,91390,1,0,0:0:0:0:
204,220,91521,2,0,B|160:236|160:236|120:272,1,93.7500035762788
288,220,91782,37,0,0:0:0:0:
199,99,91912,2,0,P|155:87|110:98,1,93.7500035762788
144,264,92173,69,0,0:0:0:0:
320,288,92303,2,0,L|412:304,1,93.7500035762788
344,104,92564,5,0,0:0:0:0:
152,184,92695,2,0,P|100:200|68:236,1,93.7500035762788
204,340,92956,37,0,0:0:0:0:
320,288,93086,2,0,P|354:251|358:199,1,93.7500035762788
260,84,93347,6,0,L|324:72,7,62.5,4|0|0|0|0|0|0|0,0:0|0:0|0:0|0:0|0:0|0:0|0:0|0:0,0:0:0:0:
348,152,93869,2,0,P|378:163|416:152,7,62.5,4|0|0|0|0|0|0|0,0:0|0:0|0:0|0:0|0:0|0:0|0:0|0:0,0:0:0:0:
295,211,94390,5,4,0:0:0:0:
262,204,94456,1,0,0:0:0:0:
231,219,94521,1,0,0:0:0:0:
214,248,94586,1,0,0:0:0:0:
218,282,94651,1,4,0:0:0:0:
241,306,94716,1,0,0:0:0:0:
275,313,94782,1,0,0:0:0:0:
305,298,94847,1,0,0:0:0:0:
332,284,94912,2,0,P|396:272|464:296,1,125,4|0,0:0|0:0,0:0:0:0:
72,160,95173,54,0,L|44:28,1,125,8|0,0:0|0:0,0:0:0:0:
228,68,95434,1,0,0:0:0:0:
400,120,95564,1,0,0:0:0:0:
392,312,95695,69,8,0:0:0:0:
384,300,95760,1,0,0:0:0:0:
376,288,95825,1,0,0:0:0:0:
216,60,95956,2,0,B|148:40|84:101,1,125
256,320,96216,2,0,P|323:311|372:266,1,125,8|0,0:0|0:0,0:0:0:0:
304,104,96477,5,0,0:0:0:0:
116,244,96608,1,0,0:0:0:0:
456,112,96738,1,8,0:0:0:0:
260,264,96869,1,0,0:0:0:0:
444,216,96999,1,0,0:0:0:0:
288,72,97129,5,0,0:0:0:0:
296,88,97195,1,0,0:0:0:0:
304,104,97260,1,8,0:0:0:0:
310,117,97325,1,0,0:0:0:0:
317,134,97390,1,0,0:0:0:0:
456,300,97521,37,8,0:0:0:0:
240,336,97651,1,0,0:0:0:0:
346,59,97782,38,0,P|290:32|220:39,1,125,8|0,0:0|0:0,0:0:0:0:
136,270,98043,2,0,B|200:274|200:274|268:262,1,125,8|0,0:0|0:0,0:0:0:0:
328,128,98303,1,0,0:0:0:0:
344,144,98369,1,0,0:0:0:0:
360,160,98434,1,0,0:0:0:0:
456,300,98564,69,8,0:0:0:0:
400,88,98695,1,0,0:0:0:0:
464,348,98825,1,8,0:0:0:0:
312,32,98956,1,0,0:0:0:0:
212,328,99086,6,0,B|152:312|152:312|96:268,1,125,10|0,0:0|0:0,0:0:0:0:
400,88,99347,2,0,P|440:140|440:204,1,125,10|0,0:0|0:0,0:0:0:0:
280,316,99608,1,8,0:0:0:0:
384,76,99738,1,0,0:0:0:0:
400,348,99869,37,0,0:0:0:0:
180,224,99999,1,0,0:0:0:0:
300,88,100129,1,8,0:0:0:0:
280,316,100260,1,0,0:0:0:0:
176,140,100390,38,0,L|104:32,1,125
344,176,100651,2,0,L|416:284,1,125,8|0,0:0|0:0,0:0:0:0:
212,328,100912,1,0,0:0:0:0:
300,88,101043,1,0,0:0:0:0:
476,284,101173,1,8,0:0:0:0:
180,192,101303,1,0,0:0:0:0:
448,140,101434,1,0,0:0:0:0:
360,344,101564,1,0,0:0:0:0:
132,284,101695,69,4,0:0:0:0:
84,256,101760,1,0,0:0:0:0:
68,200,101825,1,0,0:0:0:0:
92,148,101890,1,0,0:0:0:0:
140,116,101956,1,8,0:0:0:0:
200,128,102021,1,0,0:0:0:0:
248,160,102086,1,0,0:0:0:0:
272,216,102151,1,0,0:0:0:0:
316,252,102216,5,4,0:0:0:0:
372,244,102282,1,0,0:0:0:0:
404,196,102347,1,0,0:0:0:0:
388,136,102412,1,0,0:0:0:0:
336,104,102477,1,8,0:0:0:0:
280,120,102543,1,0,0:0:0:0:
220,128,102608,1,0,0:0:0:0:
164,112,102673,1,0,0:0:0:0:
124,72,102738,38,0,P|104:52|100:16,3,62.5,4|0|0|0,0:0|0:0|0:0|0:0,0:0:0:0:
92,148,102999,2,0,L|76:216,3,62.5,8|0|0|0,0:0|0:0|0:0|0:0,0:0:0:0:
32,344,103260,1,4,0:0:0:0:
140,280,103390,1,0,0:0:0:0:
140,280,103456,1,0,0:0:0:0:
140,280,103521,1,0,0:0:0:0:
260,328,103651,1,0,0:0:0:0:
420,340,103782,38,0,B|420:276|420:276|400:196,1,125,8|0,0:0|0:0,0:0:0:0:
400,188,104173,1,0,0:0:0:0:
232,72,104303,1,8,0:0:0:0:
448,96,104434,1,0,0:0:0:0:
296,264,104564,1,0,0:0:0:0:
332,80,104695,5,0,0:0:0:0:
460,264,104825,1,8,0:0:0:0:
224,148,104956,1,0,0:0:0:0:
368,328,105086,1,0,0:0:0:0:
196,352,105216,1,0,0:0:0:0:
84,256,105347,70,0,P|41:202|58:145,1,125,8|0,0:0|0:0,0:0:0:0:
284,148,105608,2,0,B|328:200|328:200|348:268,1,125
200,108,105869,5,8,0:0:0:0:
224,83,105934,1,0,0:0:0:0:
253,66,105999,1,0,0:0:0:0:
286,57,106064,1,0,0:0:0:0:
321,56,106129,1,0,0:0:0:0:
354,65,106195,1,0,0:0:0:0:
384,81,106260,1,0,0:0:0:0:
409,105,106325,1,0,0:0:0:0:
432,136,106390,38,0,L|460:224,1,83.3333333333333,2|0,0:0|0:0,0:0:0:0:
400,352,106563,2,0,L|368:264,1,83.3333333333333
260,252,106737,2,0,P|220:268|168:264,1,83.3333333333333
284,148,106912,2,0,L|384:140,1,83.3333333333333,2|0,0:0|0:0,0:0:0:0:
176,176,107085,2,0,L|88:180,1,83.3333333333333
286,57,107259,2,0,L|388:44,1,83.3333333333333
116,68,107434,2,2,P|48:92|48:48,1,125,2|0,0:0|0:0,0:0:0:0:
320,104,107956,6,0,P|288:92|248:96,2,62.5000023841859,4|0|0,0:0|0:0|0:0,0:0:0:0:
336,148,108216,1,0,0:0:0:0:
320,192,108303,1,0,0:0:0:0:
280,216,108390,1,0,0:0:0:0:
232,216,108477,1,0,0:0:0:0:
196,184,108563,1,0,0:0:0:0:
168,144,108673,1,0,0:0:0:0:
124,124,108738,70,0,P|88:120|52:132,2,62.5000023841859
232,216,108999,2,0,L|248:292,2,62.5000023841859
268,92,109260,2,0,P|304:80|340:88,2,62.5000023841859
232,216,109521,5,0,0:0:0:0:
252,256,109607,1,0,0:0:0:0:
292,264,109694,1,0,0:0:0:0:
336,264,109782,1,0,0:0:0:0:
376,248,109868,1,0,0:0:0:0:
408,220,109955,1,0,0:0:0:0:
424,184,110043,2,0,L|448:108,2,62.5000023841859
292,104,110303,37,0,0:0:0:0:
248,88,110390,1,0,0:0:0:0:
204,100,110477,1,0,0:0:0:0:
176,136,110564,1,0,0:0:0:0:
172,184,110650,1,0,0:0:0:0:
192,224,110737,1,0,0:0:0:0:
208,268,110824,2,0,L|220:344,2,62.5000023841859
292,204,111086,2,0,L|280:128,2,62.5000023841859
408,240,111347,2,0,L|420:312,2,62.5000023841859
392,160,111608,37,0,0:0:0:0:
400,120,111694,1,0,0:0:0:0:
440,104,111781,1,0,0:0:0:0:
476,128,111869,1,0,0:0:0:0:
464,172,111955,1,0,0:0:0:0:
460,220,112042,1,0,0:0:0:0:
468,264,112129,70,0,L|476:344,2,62.5000023841859,4|0|0,0:0|0:0|0:0,0:0:0:0:
335,262,112390,2,0,P|303:274|256:264,2,62.5000023841859
220,165,112651,2,0,L|148:136,2,62.5000023841859
259,155,112912,1,0,0:0:0:0:
284,122,112998,1,0,0:0:0:0:
323,107,113085,1,0,0:0:0:0:
364,112,113173,1,0,0:0:0:0:
397,137,113259,1,0,0:0:0:0:
414,175,113346,1,0,0:0:0:0:
410,216,113434,5,0,0:0:0:0:
386,250,113520,1,0,0:0:0:0:
345,267,113607,1,0,0:0:0:0:
309,252,113695,1,0,0:0:0:0:
272,245,113781,1,0,0:0:0:0:
234,244,113868,1,0,0:0:0:0:
196,250,113956,1,0,0:0:0:0:
165,269,114042,1,0,0:0:0:0:
136,299,114129,1,0,0:0:0:0:
106,325,114216,38,0,P|66:329|36:320,2,62.5000023841859,4|0|0,0:0|0:0|0:0,0:0:0:0:
287,310,114477,2,0,L|315:234,2,62.5000023841859
224,135,114738,2,0,L|176:92,2,62.5000023841859
224,183,114999,1,0,0:0:0:0:
192,215,115085,1,0,0:0:0:0:
144,215,115172,1,0,0:0:0:0:
108,191,115260,2,0,P|72:175|32:184,2,62.5000023841859
344,164,115521,2,0,L|293:212,2,62.5000023841859
440,92,115782,6,0,L|464:40,3,46.8750017881394
448,208,116043,2,0,L|420:252,3,46.8750017881394
336,132,116303,6,0,P|320:108|288:84,2,62.5000023841859,4|0|0,0:0|0:0|0:0,0:0:0:0:
308,272,116564,2,0,L|332:340,2,62.5000023841859
272,192,116825,2,0,P|208:156|188:204,1,125
184,232,117172,1,0,0:0:0:0:
172,264,117259,1,0,0:0:0:0:
144,280,117347,1,0,0:0:0:0:
116,268,117433,1,0,0:0:0:0:
104,240,117520,1,0,0:0:0:0:
108,208,117608,38,0,B|124:156|100:104,1,83.3333333333333
176,56,117869,2,0,P|200:56|252:40,2,62.5000023841859
200,152,118129,2,0,L|240:208,2,62.5000023841859
60,192,118390,2,0,P|74:259|142:298,1,125
160,292,118737,1,0,0:0:0:0:
200,256,118824,1,0,0:0:0:0:
256,248,118911,1,0,0:0:0:0:
304,280,118998,1,0,0:0:0:0:
332,328,119085,1,0,0:0:0:0:
384,332,119173,38,0,P|448:316|476:256,1,125.000004768372
444,200,119434,2,0,B|428:168|428:168|432:120,2,62.5000023841859
380,269,119695,2,0,L|384:340,2,62.5000023841859
232,208,119956,2,0,L|108:188,1,125
69,151,120303,5,0,0:0:0:0:
81,125,120390,1,0,0:0:0:0:
98,104,120477,1,4,0:0:0:0:
120,87,120563,1,0,0:0:0:0:
145,75,120650,1,0,0:0:0:0:
173,69,120738,1,0,0:0:0:0:
201,70,120824,1,0,0:0:0:0:
228,77,120911,1,0,0:0:0:0:
252,89,120999,6,0,P|288:68|336:60,2,62.5000023841859
385,130,121260,2,0,L|400:200,2,62.5000023841859
236,200,121521,2,0,P|272:220|312:216,2,62.5000023841859
206,174,121782,37,0,0:0:0:0:
170,151,121868,1,0,0:0:0:0:
129,161,121955,1,0,0:0:0:0:
106,196,122043,1,0,0:0:0:0:
103,236,122129,1,0,0:0:0:0:
131,280,122216,1,0,0:0:0:0:
183,300,122303,1,0,0:0:0:0:
235,296,122390,1,0,0:0:0:0:
283,268,122477,1,0,0:0:0:0:
303,216,122564,38,0,P|307:184|328:152,2,62.5000023841859,4|0|0,0:0|0:0|0:0,0:0:0:0:
396,204,122825,2,0,L|448:156,2,62.5000023841859
376,320,123086,2,0,L|452:312,2,62.5000023841859
336,296,123347,1,0,0:0:0:0:
304,260,123433,1,0,0:0:0:0:
296,208,123520,1,0,0:0:0:0:
304,164,123608,2,0,L|372:176,2,62.5000023841859
128,144,123869,2,0,L|60:132,2,62.5000023841859
168,152,124129,5,0,0:0:0:0:
204,160,124195,1,0,0:0:0:0:
220,196,124260,1,0,0:0:0:0:
208,232,124325,1,0,0:0:0:0:
176,248,124390,1,0,0:0:0:0:
136,252,124456,1,0,0:0:0:0:
104,228,124521,1,0,0:0:0:0:
88,188,124586,1,0,0:0:0:0:
92,156,124651,5,4,0:0:0:0:
119,125,124716,1,0,0:0:0:0:
160,111,124782,1,0,0:0:0:0:
205,114,124847,1,0,0:0:0:0:
243,138,124912,1,0,0:0:0:0:
256,183,124977,1,0,0:0:0:0:
280,224,125043,1,0,0:0:0:0:
332,221,125108,1,0,0:0:0:0:
360,183,125173,5,0,0:0:0:0:
346,135,125238,1,0,0:0:0:0:
311,104,125303,1,0,0:0:0:0:
263,111,125369,1,0,0:0:0:0:
228,132,125434,6,0,P|208:136|156:124,3,62.5
88,88,125695,2,0,L|32:52,3,62.5
76,180,125956,2,0,P|84:200|84:244,3,62.5
176,184,126216,2,0,L|238:173,3,62.5
305,151,126477,5,0,0:0:0:0:
345,154,126543,1,0,0:0:0:0:
369,188,126608,1,0,0:0:0:0:
359,230,126673,1,0,0:0:0:0:
326,260,126738,5,0,0:0:0:0:
283,269,126803,1,0,0:0:0:0:
240,256,126869,1,0,0:0:0:0:
212,222,126934,1,0,0:0:0:0:
183,190,126999,5,0,0:0:0:0:
158,151,127064,1,0,0:0:0:0:
112,139,127129,1,0,0:0:0:0:
71,160,127195,1,0,0:0:0:0:
62,203,127260,1,0,0:0:0:0:
84,240,127325,1,0,0:0:0:0:
128,252,127390,1,0,0:0:0:0:
168,234,127456,1,0,0:0:0:0:
195,199,127521,5,0,0:0:0:0:
225,164,127586,1,0,0:0:0:0:
266,142,127651,1,0,0:0:0:0:
311,134,127716,1,0,0:0:0:0:
356,142,127782,1,0,0:0:0:0:
397,164,127847,1,0,0:0:0:0:
432,195,127912,1,0,0:0:0:0:
449,237,127977,1,0,0:0:0:0:
451,275,128043,5,0,0:0:0:0:
431,303,128108,1,0,0:0:0:0:
405,325,128173,1,0,0:0:0:0:
373,338,128238,1,0,0:0:0:0:
339,342,128303,1,0,0:0:0:0:
305,336,128369,1,0,0:0:0:0:
275,321,128434,1,0,0:0:0:0:
249,298,128499,1,0,0:0:0:0:
225,271,128564,5,0,0:0:0:0:
204,225,128629,1,0,0:0:0:0:
203,175,128695,1,0,0:0:0:0:
222,129,128760,1,0,0:0:0:0:
264,108,128825,5,4,0:0:0:0:
280,132,128890,1,0,0:0:0:0:
287,160,128956,1,0,0:0:0:0:
283,190,129021,1,0,0:0:0:0:
271,217,129086,1,0,0:0:0:0:
250,238,129151,1,0,0:0:0:0:
222,250,129216,1,0,0:0:0:0:
193,253,129282,1,0,0:0:0:0:
164,244,129347,1,0,0:0:0:0:
138,216,129412,1,0,0:0:0:0:
120,182,129477,1,0,0:0:0:0:
112,146,129543,1,0,0:0:0:0:
109,113,129608,6,0,L|92:40,5,62.5
243,125,129999,2,0,L|264:184,5,62.5
368,192,130390,2,0,L|384:240,2,41.6666666666667,8|0|0,0:0|0:0|0:0,0:0:0:0:
432,96,130651,2,0,L|412:44,2,41.6666666666667,8|0|0,0:0|0:0|0:0,0:0:0:0:
288,72,130912,6,0,P|256:68|224:52,3,62.5,4|0|0|0,0:0|0:0|0:0|0:0,0:0:0:0:
328,148,131173,2,0,L|376:200,3,62.5
248,140,131434,1,0,0:0:0:0:
236,156,131499,1,0,0:0:0:0:
224,176,131564,1,0,0:0:0:0:
212,196,131629,1,0,0:0:0:0:
200,216,131695,1,0,0:0:0:0:
188,236,131760,1,0,0:0:0:0:
176,256,131825,1,0,0:0:0:0:
164,276,131890,1,0,0:0:0:0:
176,312,131956,5,0,0:0:0:0:
216,325,132021,1,0,0:0:0:0:
253,312,132086,1,0,0:0:0:0:
273,275,132151,1,0,0:0:0:0:
294,236,132216,1,0,0:0:0:0:
327,218,132282,1,0,0:0:0:0:
364,222,132347,1,0,0:0:0:0:
392,247,132412,1,0,0:0:0:0:
408,284,132477,6,0,P|404:320|388:344,7,62.5
460,208,132999,2,0,P|452:188|420:164,7,62.5,4|0|0|0|0|0|0|0,0:0|0:0|0:0|0:0|0:0|0:0|0:0|0:0,0:0:0:0:
340,228,133521,1,0,0:0:0:0:
293,238,133586,1,0,0:0:0:0:
251,220,133651,1,0,0:0:0:0:
233,178,133716,1,0,0:0:0:0:
254,135,133782,1,0,0:0:0:0:
300,121,133847,1,0,0:0:0:0:
340,149,133912,5,0,0:0:0:0:
379,171,133977,1,0,0:0:0:0:
424,164,134043,2,0,P|456:152|476:120,3,62.5
392,84,134303,2,0,L|356:28,3,62.5
472,130,134564,2,0,L|488:202,1,62.5
448,304,134695,2,0,L|432:240,1,62.5
344,136,134825,2,0,L|364:196,3,62.5
304,96,135086,1,0,0:0:0:0:
248,88,135151,1,0,0:0:0:0:
204,116,135216,1,0,0:0:0:0:
192,168,135282,1,0,0:0:0:0:
204,220,135347,6,0,P|220:244|224:296,1,62.5
136,340,135477,2,0,L|120:276,1,62.5
68,200,135608,2,0,L|56:136,3,62.5
136,60,135869,2,0,P|156:44|192:48,3,62.5
242,87,136129,5,0,0:0:0:0:
287,81,136195,1,0,0:0:0:0:
332,74,136260,1,0,0:0:0:0:
373,101,136325,1,0,0:0:0:0:
387,143,136390,1,0,0:0:0:0:
380,185,136456,1,0,0:0:0:0:
353,219,136521,1,0,0:0:0:0:
314,240,136586,1,0,0:0:0:0:
274,224,136651,5,0,0:0:0:0:
230,227,136716,1,0,0:0:0:0:
197,257,136782,1,0,0:0:0:0:
196,301,136847,1,0,0:0:0:0:
223,336,136912,1,0,0:0:0:0:
265,342,136977,1,0,0:0:0:0:
306,328,137043,1,0,0:0:0:0:
333,290,137108,1,0,0:0:0:0:
344,248,137173,6,0,L|350:183,3,62.5,4|0|0|0,0:0|0:0|0:0|0:0,0:0:0:0:
212,172,137434,2,0,P|188:172|144:200,3,62.5
268,80,137695,2,0,L|332:52,1,62.5
452,76,137825,2,0,L|388:104,1,62.5
428,240,137956,2,0,L|437:309,3,62.5
384,219,138216,1,0,0:0:0:0:
329,220,138282,1,0,0:0:0:0:
286,253,138347,1,0,0:0:0:0:
272,303,138412,1,0,0:0:0:0:
232,332,138477,2,0,P|200:344|164:336,3,62.5
136,248,138738,6,0,L|104:180,2,62.5000023841859
252,168,138999,2,0,L|284:96,2,62.5000023841859
380,208,139260,2,0,P|404:208|444:200,3,62.5,4|0|0|0,0:0|0:0|0:0|0:0,0:0:0:0:
400,104,139521,2,0,L|408:40,3,62.5
320,104,139782,5,0,0:0:0:0:
276,104,139847,1,0,0:0:0:0:
232,96,139912,1,0,0:0:0:0:
188,88,139977,1,0,0:0:0:0:
144,100,140043,1,0,0:0:0:0:
120,136,140108,1,0,0:0:0:0:
120,180,140173,1,0,0:0:0:0:
144,216,140238,1,0,0:0:0:0:
180,240,140303,5,0,0:0:0:0:
224,236,140369,1,0,0:0:0:0:
264,260,140434,1,0,0:0:0:0:
288,304,140499,1,0,0:0:0:0:
256,344,140564,1,0,0:0:0:0:
204,352,140629,1,0,0:0:0:0:
160,324,140695,1,0,0:0:0:0:
144,276,140760,1,0,0:0:0:0:
172,236,140825,5,0,0:0:0:0:
208,208,140890,1,0,0:0:0:0:
256,200,140956,1,0,0:0:0:0:
300,212,141021,1,0,0:0:0:0:
336,248,141086,1,0,0:0:0:0:
384,248,141151,1,0,0:0:0:0:
420,220,141216,1,0,0:0:0:0:
424,172,141282,1,0,0:0:0:0:
416,124,141347,6,0,L|380:0,1,125,8|0,0:0|0:0,0:0:0:0:
176,64,141608,1,8,0:0:0:0:
224,236,141738,1,0,0:0:0:0:
474,201,141869,6,0,B|465:137|465:137|443:72,1,125,8|0,0:0|0:0,0:0:0:0:
268,344,142129,2,0,P|331:319|365:266,1,125,8|0,0:0|0:0,0:0:0:0:
224,112,142390,5,4,0:0:0:0:
172,128,142456,1,0,0:0:0:0:
144,168,142521,1,8,0:0:0:0:
144,220,142586,1,0,0:0:0:0:
176,260,142651,1,4,0:0:0:0:
224,280,142716,1,0,0:0:0:0:
272,272,142782,1,8,0:0:0:0:
304,236,142847,1,0,0:0:0:0:
324,200,142912,5,4,0:0:0:0:
346,185,142977,1,0,0:0:0:0:
368,180,143043,1,8,0:0:0:0:
384,184,143108,1,0,0:0:0:0:
400,196,143173,1,4,0:0:0:0:
408,212,143238,1,0,0:0:0:0:
404,220,143303,1,8,0:0:0:0:
400,228,143369,1,0,0:0:0:0:
392,236,143434,5,4,0:0:0:0:
256,344,143564,1,0,0:0:0:0:
240,112,143695,1,8,0:0:0:0:
460,188,143825,1,0,0:0:0:0:
284,324,143956,1,8,0:0:0:0:
216,48,144086,1,0,0:0:0:0:
400,328,144216,1,8,0:0:0:0:
56,124,144347,1,0,0:0:0:0:
400,44,144477,5,8,0:0:0:0:
448,68,144563,1,0,0:0:0:0:
460,120,144650,1,0,0:0:0:0:
432,164,144738,1,8,0:0:0:0:
380,180,144824,1,0,0:0:0:0:
328,176,144911,1,0,0:0:0:0:
276,188,144999,1,8,0:0:0:0:
240,212,145085,2,0,P|232:256|252:304,1,83.3333333333333
376,296,145260,5,8,0:0:0:0:
396,300,145325,1,0,0:0:0:0:
412,312,145390,1,0,0:0:0:0:
420,332,145456,1,0,0:0:0:0:
416,348,145521,2,0,P|348:360|296:332,1,125,8|0,0:0|0:0,0:0:0:0:
216,48,145782,2,0,B|284:56|284:56|332:88,1,125,8|0,0:0|0:0,0:0:0:0:
248,288,146043,5,8,0:0:0:0:
64,256,146173,1,0,0:0:0:0:
276,180,146303,1,8,0:0:0:0:
48,56,146434,1,0,0:0:0:0:
380,180,146564,6,0,P|392:208|392:244,3,62.5,4|0|0|0,0:0|0:0|0:0|0:0,0:0:0:0:
276,180,146825,2,0,L|240:124,1,62.5,8|0,0:0|0:0,0:0:0:0:
144,144,146956,2,0,L|104:88,1,62.5
104,232,147086,2,0,L|140:288,3,62.5,4|0|0|0,0:0|0:0|0:0|0:0,0:0:0:0:
248,288,147347,2,0,L|304:324,1,62.5,8|0,0:0|0:0,0:0:0:0:
400,260,147477,2,0,L|456:300,1,62.5
416,80,147608,6,0,P|352:72|288:96,1,125,8|0,0:0|0:0,0:0:0:0:
332,312,147869,2,0,B|400:308|400:308|448:276,1,125,8|0,0:0|0:0,0:0:0:0:
145,123,148129,2,0,P|105:171|113:251,1,125,8|0,0:0|0:0,0:0:0:0:
332,232,148390,2,0,P|348:164|320:104,1,125,8|8,0:0|0:0,0:0:0:0:
96,48,148651,1,8,0:0:0:0:
436,224,148912,5,8,0:0:0:0:
56,248,149173,1,8,0:0:0:0:
296,80,149434,6,2,P|308:68|292:136,1,250,0|8,0:0|0:0,0:0:0:0:
56,168,149825,1,0,0:0:0:0:
292,224,149956,6,0,L|440:320,1,156.25,8|0,0:0|0:0,0:0:0:0:
148,212,150216,2,0,P|132:136|188:92,1,156.25,8|0,0:0|0:0,0:0:0:0:
408,88,150477,1,8,0:0:0:0:
368,320,150608,1,0,0:0:0:0:
40,320,150738,5,4,0:0:0:0:
76,332,150803,1,0,0:0:0:0:
112,328,150869,1,0,0:0:0:0:
144,312,150934,1,0,0:0:0:0:
164,280,150999,1,8,0:0:0:0:
176,244,151064,1,0,0:0:0:0:
172,208,151129,1,0,0:0:0:0:
156,172,151195,1,0,0:0:0:0:
127,149,151260,5,4,0:0:0:0:
112,120,151325,1,0,0:0:0:0:
112,87,151390,1,0,0:0:0:0:
128,59,151456,1,0,0:0:0:0:
155,41,151521,1,8,0:0:0:0:
192,48,151586,1,0,0:0:0:0:
233,54,151651,1,0,0:0:0:0:
276,49,151716,1,0,0:0:0:0:
320,36,151782,6,0,B|396:28|396:28|476:44,1,156.25,4|0,0:0|0:0,0:0:0:0:
388,324,152043,2,0,P|304:332|244:296,1,156.25,8|0,0:0|0:0,0:0:0:0:
136,108,152303,1,8,0:0:0:0:
352,120,152434,1,0,0:0:0:0:
208,308,152564,1,8,0:0:0:0:
280,64,152695,1,0,0:0:0:0:
424,220,152825,6,0,P|368:296|264:280,1,187.5,8|0,2:0|0:0,0:0:0:0:
231,124,153086,2,0,P|304:80|404:112,1,187.5
260,204,153347,2,0,P|172:172|168:88,1,187.5,8|0,2:0|0:0,0:0:0:0:
304,136,153608,2,0,P|368:192|336:280,1,187.5
260,312,153869,6,0,B|184:331|184:331|92:324,1,156.25,8|0,0:0|0:0,0:0:0:0:
385,125,154129,2,0,P|412:197|392:272,1,156.25,8|0,0:0|0:0,0:0:0:0:
148,264,154390,1,8,0:0:0:0:
156,64,154521,1,0,0:0:0:0:
372,72,154651,1,8,0:0:0:0:
92,188,154782,1,0,0:0:0:0:
248,68,154912,5,4,0:0:0:0:
280,56,154977,1,0,0:0:0:0:
312,64,155043,1,0,0:0:0:0:
336,88,155108,1,0,0:0:0:0:
344,120,155173,1,8,0:0:0:0:
336,152,155238,1,0,0:0:0:0:
312,176,155303,1,0,0:0:0:0:
280,180,155369,1,0,0:0:0:0:
248,168,155434,5,4,0:0:0:0:
200,176,155499,1,0,0:0:0:0:
176,216,155564,1,0,0:0:0:0:
188,264,155629,1,0,0:0:0:0:
232,288,155695,1,8,0:0:0:0:
280,276,155760,1,0,0:0:0:0:
320,252,155825,1,0,0:0:0:0:
368,256,155890,1,0,0:0:0:0:
404,288,155956,5,4,0:0:0:0:
328,144,156086,1,0,0:0:0:0:
120,216,156216,1,8,0:0:0:0:
276,104,156347,1,0,0:0:0:0:
465,297,156477,1,8,0:0:0:0:
244,236,156608,5,0,0:0:0:0:
409,210,156738,1,8,0:0:0:0:
293,61,156869,1,0,0:0:0:0:
120,216,156999,2,0,B|148:296|148:296|196:356,1,156.25,8|0,0:0|0:0,0:0:0:0:
296,332,157260,5,8,0:0:0:0:
230,111,157521,1,8,0:0:0:0:
164,304,157651,1,0,0:0:0:0:
164,304,157716,1,0,0:0:0:0:
164,304,157782,6,2,B|200:320|244:304|244:304|272:328|272:328|296:304|340:328|340:328|368:292|372:288|372:288|316:264|344:232,1,312.5,0|0,0:0|0:0,0:0:0:0:
456,144,158173,1,0,0:0:0:0:
440,252,158303,2,0,L|468:344,1,93.7500035762788
296,324,158564,5,0,0:0:0:0:
240,148,158695,2,0,P|280:124|328:132,1,93.7500035762788
200,248,158956,5,0,0:0:0:0:
120,112,159086,2,0,P|152:72|196:64,1,93.7500035762788
344,216,159347,5,0,0:0:0:0:
368,44,159477,1,0,0:0:0:0:
236,112,159608,1,0,0:0:0:0:
440,100,159738,1,0,0:0:0:0:
164,72,159869,1,0,0:0:0:0:
380,168,159999,2,0,L|376:216,1,46.8750017881394
348,320,160129,5,4,0:0:0:0:
312,332,160195,1,0,0:0:0:0:
272,336,160260,1,0,0:0:0:0:
236,324,160325,1,0,0:0:0:0:
204,300,160390,1,0,0:0:0:0:
180,268,160456,1,0,0:0:0:0:
172,232,160521,1,0,0:0:0:0:
184,196,160586,1,0,0:0:0:0:
208,168,160651,6,0,P|236:152|252:116,3,62.5,4|0|0|0,0:0|0:0|0:0|0:0,0:0:0:0:
318,170,160912,2,0,P|350:174|390:162,3,62.5
312,88,161173,5,4,0:0:0:0:
340,60,161238,1,0,0:0:0:0:
380,60,161303,1,0,0:0:0:0:
416,80,161369,1,0,0:0:0:0:
428,120,161434,1,4,0:0:0:0:
416,160,161499,1,0,0:0:0:0:
420,200,161564,1,0,0:0:0:0:
436,236,161629,1,0,0:0:0:0:
448,272,161695,5,4,0:0:0:0:
416,293,161760,1,0,0:0:0:0:
384,314,161825,1,0,0:0:0:0:
352,335,161890,1,0,0:0:0:0:
308,314,161956,5,4,0:0:0:0:
272,319,162021,1,0,0:0:0:0:
236,324,162086,1,0,0:0:0:0:
200,329,162151,1,0,0:0:0:0:
164,332,162216,6,0,B|104:300|104:300|68:248,1,125,8|0,0:0|0:0,0:0:0:0:
112,44,162477,1,0,0:0:0:0:
304,272,162608,1,0,0:0:0:0:
50,146,162738,6,0,P|71:80|116:40,1,125,8|0,0:0|0:0,0:0:0:0:
248,328,162999,2,0,B|184:316|184:316|120:272,1,125
248,128,163260,1,8,0:0:0:0:
424,300,163390,1,0,0:0:0:0:
420,36,163521,6,0,P|464:84|476:152,1,125
160,352,163782,2,0,P|108:312|92:252,1,125,8|0,0:0|0:0,0:0:0:0:
104,220,163977,1,0,0:0:0:0:
128,192,164043,1,0,0:0:0:0:
164,184,164108,1,0,0:0:0:0:
196,204,164173,1,0,0:0:0:0:
204,240,164238,1,0,0:0:0:0:
212,276,164303,6,0,B|272:304|272:304|336:308,1,125,8|0,0:0|0:0,0:0:0:0:
432,72,164564,2,0,P|372:56|304:76,1,125,8|0,0:0|0:0,0:0:0:0:
212,220,164825,1,8,0:0:0:0:
460,240,164956,1,0,0:0:0:0:
320,96,165086,5,8,0:0:0:0:
316,76,165151,1,0,0:0:0:0:
312,56,165216,1,0,0:0:0:0:
340,336,165347,1,8,0:0:0:0:
384,40,165477,1,0,0:0:0:0:
152,116,165608,6,0,B|96:140|96:140|52:188,1,125,8|0,0:0|0:0,0:0:0:0:
180,336,165869,2,0,P|248:316|272:264,1,125,10|0,0:0|0:0,0:0:0:0:
296,36,166129,5,2,0:0:0:0:
352,248,166260,1,0,0:0:0:0:
420,44,166390,1,8,0:0:0:0:
240,196,166521,2,0,P|180:212|112:188,1,125
416,124,166782,2,0,B|440:184|440:184|444:256,1,125,0|8,0:0|0:0,0:0:0:0:
192,316,167043,5,0,0:0:0:0:
432,260,167173,1,0,0:0:0:0:
144,272,167303,1,0,0:0:0:0:
480,304,167434,1,8,0:0:0:0:
104,220,167564,1,0,0:0:0:0:
416,124,167695,6,0,L|484:236,1,125
192,184,167956,2,0,P|164:128|188:60,1,125,8|0,0:0|0:0,0:0:0:0:
320,252,168216,1,0,0:0:0:0:
112,296,168347,5,0,0:0:0:0:
80,272,168412,1,0,0:0:0:0:
60,240,168477,1,4,0:0:0:0:
44,204,168543,1,0,0:0:0:0:
40,164,168608,1,0,0:0:0:0:
40,124,168673,1,0,0:0:0:0:
52,88,168738,1,8,0:0:0:0:
80,64,168803,1,0,0:0:0:0:
116,56,168869,5,0,0:0:0:0:
156,64,168934,1,0,0:0:0:0:
184,92,168999,1,4,0:0:0:0:
184,132,169064,1,0,0:0:0:0:
156,160,169129,1,0,0:0:0:0:
116,160,169195,1,0,0:0:0:0:
100,124,169260,1,8,0:0:0:0:
120,88,169325,1,0,0:0:0:0:
156,72,169390,5,0,0:0:0:0:
196,72,169456,1,0,0:0:0:0:
232,84,169521,1,4,0:0:0:0:
264,108,169586,1,0,0:0:0:0:
276,148,169651,1,0,0:0:0:0:
264,188,169716,1,0,0:0:0:0:
256,228,169782,1,8,0:0:0:0:
268,264,169847,1,0,0:0:0:0:
296,292,169912,1,0,0:0:0:0:
336,288,169977,1,0,0:0:0:0:
360,256,170043,1,8,0:0:0:0:
400,144,170173,5,0,0:0:0:0:
392,108,170238,1,0,0:0:0:0:
384,72,170303,1,8,0:0:0:0:
196,72,170434,5,0,0:0:0:0:
52,256,170564,2,0,P|92:312|160:320,1,125,8|0,0:0|0:0,0:0:0:0:
420,320,170825,2,0,P|392:256|332:232,1,125
104,316,171086,5,8,0:0:0:0:
336,344,171216,1,0,0:0:0:0:
160,120,171347,2,0,B|104:140|104:140|56:200,1,125
436,236,171608,2,0,P|464:176|444:108,1,125,8|0,0:0|0:0,0:0:0:0:
180,344,171869,2,0,P|256:348|304:316,1,125
208,56,172129,5,8,0:0:0:0:
88,236,172260,1,0,0:0:0:0:
292,352,172390,1,0,0:0:0:0:
404,149,172521,1,0,0:0:0:0:
377,127,172586,1,0,0:0:0:0:
344,120,172651,1,0,0:0:0:0:
311,128,172716,1,0,0:0:0:0:
285,151,172782,1,0,0:0:0:0:
272,182,172847,1,0,0:0:0:0:
275,216,172912,1,0,0:0:0:0:
293,245,172977,1,0,0:0:0:0:
322,263,173043,1,0,0:0:0:0:
356,266,173108,1,0,0:0:0:0:
391,263,173173,6,0,L|459:247,1,62.5,2|0,0:0|0:0,0:0:0:0:
292,352,173303,2,0,L|224:360,1,62.5
184,216,173434,2,0,L|168:148,3,62.5
80,112,173695,2,0,P|64:88|72:24,2,83.3333333333333,2|0|0,0:0|0:0|0:0,0:0:0:0:
304,64,173956,2,0,L|372:36,2,62.5000023841859
184,216,174216,6,0,P|116:244|176:144,2,250,0|0|4,0:0|0:0|0:0,0:0:0:0:
224,192,174824,1,0,0:0:0:0:
272,192,174911,1,0,0:0:0:0:
312,216,174999,1,0,0:0:0:0:
336,256,175085,1,0,0:0:0:0:
332,304,175172,1,0,0:0:0:0:
300,340,175260,1,0,0:0:0:0:
252,348,175346,1,0,0:0:0:0:
212,324,175433,1,0,0:0:0:0:
176,296,175521,6,0,P|136:280|100:284,2,62.5000023841859
272,192,175782,2,0,L|344:160,2,62.5000023841859
116,128,176043,2,0,L|48:148,2,62.5000023841859
164,136,176303,1,0,0:0:0:0:
196,172,176390,1,0,0:0:0:0:
216,212,176477,1,0,0:0:0:0:
260,232,176564,1,0,0:0:0:0:
304,216,176650,1,0,0:0:0:0:
332,176,176737,1,0,0:0:0:0:
340,128,176825,6,0,P|360:100|400:88,2,62.5000023841859
316,272,177086,2,0,L|328:348,2,62.5000023841859
165,219,177347,2,0,P|137:231|96:236,2,62.5000023841859
204,196,177608,1,0,0:0:0:0:
242,174,177694,1,0,0:0:0:0:
285,168,177781,1,0,0:0:0:0:
328,176,177869,1,0,0:0:0:0:
360,216,177955,1,0,0:0:0:0:
376,264,178042,1,0,0:0:0:0:
368,312,178129,6,0,P|328:328|288:328,2,62.5000023841859
319,237,178390,2,0,L|331:153,2,62.5000023841859
204,184,178651,2,0,P|172:168|152:128,2,62.5000023841859
236,208,178912,5,4,0:0:0:0:
284,220,178998,1,0,0:0:0:0:
332,208,179085,1,0,0:0:0:0:
364,172,179173,1,0,0:0:0:0:
376,124,179259,1,0,0:0:0:0:
368,76,179346,1,0,0:0:0:0:
332,40,179434,1,0,0:0:0:0:
284,32,179520,1,0,0:0:0:0:
236,44,179607,5,0,0:0:0:0:
196,72,179695,1,0,0:0:0:0:
161,103,179781,1,0,0:0:0:0:
166,158,179868,1,0,0:0:0:0:
172,212,179956,1,0,0:0:0:0:
181,266,180042,1,0,0:0:0:0:
190,320,180129,1,0,0:0:0:0:
227,352,180216,6,0,L|296:356,2,62.5000023841859
424,304,180477,2,0,P|452:268|452:228,2,62.5000023841859
316,200,180738,2,0,L|248:164,2,62.5000023841859
364,204,180999,5,4,0:0:0:0:
400,168,181085,1,0,0:0:0:0:
400,116,181172,1,0,0:0:0:0:
360,84,181260,1,0,0:0:0:0:
312,88,181346,1,0,0:0:0:0:
272,112,181433,1,0,0:0:0:0:
232,136,181521,1,0,0:0:0:0:
188,132,181607,1,0,0:0:0:0:
148,108,181694,1,0,0:0:0:0:
120,72,181782,6,0,P|100:56|52:48,2,62.5000023841859
188,228,182043,2,0,L|180:312,2,62.5000023841859
412,212,182303,2,0,P|432:256|432:292,2,62.5000023841859
304,188,182564,2,0,L|252:168,3,46.8750017881394
448,140,182824,2,0,L|460:84,3,46.8750017881394
400,264,183085,6,0,P|424:256|460:272,2,62.5000023841859,4|0|0,0:0|0:0|0:0,0:0:0:0:
296,260,183347,2,0,P|268:268|220:260,2,62.5000023841859
248,192,183608,2,0,P|197:181|172:252,1,125.000004768372
148,312,183869,6,0,L|80:344,2,62.5000023841859
168,216,184129,2,0,L|244:184,2,62.5000023841859
96,204,184390,2,0,L|76:112,1,83.3333333333333
136,56,184651,5,0,0:0:0:0:
164,72,184737,1,0,0:0:0:0:
192,88,184824,1,0,0:0:0:0:
276,80,184912,5,0,0:0:0:0:
320,72,184998,1,0,0:0:0:0:
360,92,185085,1,0,0:0:0:0:
420,176,185173,6,0,L|416:272,1,83.3333333333333
284,304,185434,6,0,L|212:324,2,62.5000023841859
116,248,185695,2,0,L|36:272,2,62.5000023841859
236,220,185956,2,0,B|280:216|280:216|328:192,1,83.3333333333333
276,80,186216,5,0,0:0:0:0:
224,80,186303,1,0,0:0:0:0:
184,112,186390,1,0,0:0:0:0:
164,216,186477,5,0,0:0:0:0:
172,248,186563,1,0,0:0:0:0:
180,280,186650,1,0,0:0:0:0:
284,296,186738,6,0,P|332:308|372:284,1,83.3333333333333
320,176,186999,1,0,0:0:0:0:
276,148,187085,1,0,0:0:0:0:
276,96,187172,1,0,0:0:0:0:
312,60,187260,2,0,P|356:40|400:64,1,83.3333333333333,4|0,0:0|0:0,0:0:0:0:
424,192,187521,5,0,0:0:0:0:
416,236,187607,1,0,0:0:0:0:
408,280,187694,1,0,0:0:0:0:
384,320,187782,2,0,P|352:328|304:316,2,62.5000023841859
192,240,188043,2,0,P|176:232|120:236,2,62.5000023841859
324,176,188303,2,0,L|368:108,2,62.5000023841859
224,152,188564,5,0,0:0:0:0:
176,136,188650,1,0,0:0:0:0:
148,92,188737,1,0,0:0:0:0:
144,40,188825,2,0,P|104:24|64:24,2,62.5000023841859
264,92,189086,2,0,P|296:104|336:96,2,62.5000023841859
152,116,189347,5,4,0:0:0:0:
120,148,189433,1,0,0:0:0:0:
116,192,189520,1,0,0:0:0:0:
136,232,189608,1,0,0:0:0:0:
176,252,189694,1,0,0:0:0:0:
220,244,189781,1,0,0:0:0:0:
251,216,189869,6,0,P|271:192|324:176,2,62.5000023841859
332,288,190129,2,0,L|384:344,2,62.5000023841859
216,320,190390,2,0,P|184:324|136:304,2,62.5000023841859
360,216,190651,2,0,L|432:184,2,62.5000023841859
320,224,190912,5,0,0:0:0:0:
272,200,190977,1,0,0:0:0:0:
256,148,191043,1,0,0:0:0:0:
280,100,191108,1,0,0:0:0:0:
328,76,191173,1,0,0:0:0:0:
380,92,191238,1,0,0:0:0:0:
404,144,191303,1,0,0:0:0:0:
396,200,191369,1,0,0:0:0:0:
379,240,191434,5,4,0:0:0:0:
357,268,191499,1,0,0:0:0:0:
322,277,191564,1,0,0:0:0:0:
288,280,191629,1,0,0:0:0:0:
248,272,191695,1,0,0:0:0:0:
220,244,191760,1,0,0:0:0:0:
196,208,191825,1,0,0:0:0:0:
184,168,191890,1,0,0:0:0:0:
179,126,191956,5,0,0:0:0:0:
163,94,192021,1,0,0:0:0:0:
131,78,192086,1,0,0:0:0:0:
95,78,192151,1,0,0:0:0:0:
63,98,192216,1,0,0:0:0:0:
47,130,192282,1,0,0:0:0:0:
51,166,192347,1,0,0:0:0:0:
67,198,192412,1,0,0:0:0:0:
95,222,192477,5,0,0:0:0:0:
131,230,192543,1,0,0:0:0:0:
167,226,192608,1,0,0:0:0:0:
199,206,192673,1,0,0:0:0:0:
223,178,192738,1,0,0:0:0:0:
255,162,192803,1,0,0:0:0:0:
291,162,192869,1,0,0:0:0:0:
327,170,192934,1,0,0:0:0:0:
359,186,192999,6,0,P|375:190|407:222,3,62.5
344,300,193260,2,0,L|336:368,3,62.5
248,288,193521,5,0,0:0:0:0:
212,300,193586,1,0,0:0:0:0:
176,292,193651,1,0,0:0:0:0:
152,264,193716,1,0,0:0:0:0:
144,228,193782,1,0,0:0:0:0:
152,192,193847,1,0,0:0:0:0:
172,160,193912,1,0,0:0:0:0:
208,148,193977,1,0,0:0:0:0:
244,156,194043,5,0,0:0:0:0:
272,180,194108,1,0,0:0:0:0:
292,212,194173,1,0,0:0:0:0:
328,224,194238,1,0,0:0:0:0:
364,212,194303,1,0,0:0:0:0:
384,180,194369,1,0,0:0:0:0:
384,144,194434,1,0,0:0:0:0:
364,112,194499,1,0,0:0:0:0:
328,96,194564,5,0,0:0:0:0:
288,92,194629,1,0,0:0:0:0:
252,100,194695,1,0,0:0:0:0:
224,124,194760,1,0,0:0:0:0:
192,144,194825,1,0,0:0:0:0:
152,148,194890,1,0,0:0:0:0:
112,140,194956,1,0,0:0:0:0:
84,112,195021,1,0,0:0:0:0:
68,80,195086,6,0,L|28:28,3,62.5
184,68,195347,2,0,P|200:92|200:132,3,62.5
292,36,195608,5,4,0:0:0:0:
336,52,195673,1,0,0:0:0:0:
368,88,195738,1,0,0:0:0:0:
384,132,195803,1,0,0:0:0:0:
376,180,195869,1,0,0:0:0:0:
352,220,195934,1,0,0:0:0:0:
316,252,195999,1,0,0:0:0:0:
272,268,196064,1,0,0:0:0:0:
224,264,196129,1,0,0:0:0:0:
184,244,196195,1,0,0:0:0:0:
152,208,196260,1,0,0:0:0:0:
152,160,196325,1,0,0:0:0:0:
173,119,196390,5,0,0:0:0:0:
193,110,196456,1,0,0:0:0:0:
214,106,196521,1,0,0:0:0:0:
236,107,196586,1,0,0:0:0:0:
257,113,196651,1,0,0:0:0:0:
276,124,196716,1,0,0:0:0:0:
293,138,196782,1,0,0:0:0:0:
306,155,196847,1,0,0:0:0:0:
314,175,196912,1,0,0:0:0:0:
319,197,196977,1,0,0:0:0:0:
318,219,197043,1,0,0:0:0:0:
312,240,197108,1,0,0:0:0:0:
306,254,197173,6,0,P|304:284|328:320,5,62.5000023841859
393,209,197695,6,0,L|445:249,3,62.5,4|0|0|0,0:0|0:0|0:0|0:0,0:0:0:0:
328,104,197956,2,0,L|308:36,3,62.5
216,85,198216,5,0,0:0:0:0:
166,81,198282,1,0,0:0:0:0:
124,103,198347,1,0,0:0:0:0:
102,145,198412,1,0,0:0:0:0:
106,192,198477,5,0,0:0:0:0:
127,234,198543,1,0,0:0:0:0:
170,259,198608,1,0,0:0:0:0:
216,259,198673,1,0,0:0:0:0:
259,241,198738,5,0,0:0:0:0:
280,199,198803,1,0,0:0:0:0:
323,181,198869,1,0,0:0:0:0:
369,195,198934,1,0,0:0:0:0:
401,231,198999,1,0,0:0:0:0:
398,277,199064,1,0,0:0:0:0:
359,305,199129,1,0,0:0:0:0:
309,298,199195,1,0,0:0:0:0:
284,263,199260,5,0,0:0:0:0:
252,227,199325,1,0,0:0:0:0:
213,206,199390,1,0,0:0:0:0:
166,213,199456,1,0,0:0:0:0:
127,234,199521,1,0,0:0:0:0:
109,277,199586,1,0,0:0:0:0:
120,320,199651,1,0,0:0:0:0:
162,341,199716,1,0,0:0:0:0:
209,330,199782,5,4,0:0:0:0:
234,291,199847,1,0,0:0:0:0:
213,248,199912,1,0,0:0:0:0:
170,227,199977,1,0,0:0:0:0:
142,188,200043,1,0,0:0:0:0:
156,142,200108,1,0,0:0:0:0:
191,113,200173,1,0,0:0:0:0:
238,113,200238,1,0,0:0:0:0:
280,135,200303,5,0,0:0:0:0:
305,174,200369,1,0,0:0:0:0:
305,220,200434,1,0,0:0:0:0:
332,256,200499,1,0,0:0:0:0:
376,272,200564,1,0,0:0:0:0:
415,247,200629,1,0,0:0:0:0:
429,204,200695,1,0,0:0:0:0:
419,161,200760,1,0,0:0:0:0:
398,130,200825,6,0,P|378:102|378:62,3,62.5
472,156,201086,2,0,L|476:220,3,62.5
348,208,201347,5,0,0:0:0:0:
312,228,201412,1,0,0:0:0:0:
272,236,201477,1,0,0:0:0:0:
232,228,201543,1,0,0:0:0:0:
204,200,201608,1,0,0:0:0:0:
188,164,201673,1,0,0:0:0:0:
188,124,201738,1,0,0:0:0:0:
172,88,201803,1,0,0:0:0:0:
132,72,201869,5,0,0:0:0:0:
92,88,201934,1,0,0:0:0:0:
68,120,201999,1,0,0:0:0:0:
60,160,202064,1,0,0:0:0:0:
64,200,202129,1,0,0:0:0:0:
88,232,202195,1,0,0:0:0:0:
128,247,202260,1,0,0:0:0:0:
168,236,202325,1,0,0:0:0:0:
196,208,202390,5,0,0:0:0:0:
232,184,202456,1,0,0:0:0:0:
272,184,202521,1,0,0:0:0:0:
312,200,202586,1,0,0:0:0:0:
344,228,202651,1,0,0:0:0:0:
348,268,202716,1,0,0:0:0:0:
336,304,202782,1,0,0:0:0:0:
304,324,202847,1,0,0:0:0:0:
264,336,202912,6,0,P|244:344|200:340,3,62.5
408,264,203173,2,0,L|452:216,3,62.5
371,139,203434,5,0,0:0:0:0:
341,113,203499,1,0,0:0:0:0:
305,99,203564,1,0,0:0:0:0:
262,99,203629,1,0,0:0:0:0:
223,113,203695,1,0,0:0:0:0:
193,145,203760,1,0,0:0:0:0:
170,185,203825,1,0,0:0:0:0:
163,231,203890,1,0,0:0:0:0:
180,274,203956,5,4,0:0:0:0:
216,297,204021,1,0,0:0:0:0:
259,297,204086,1,0,0:0:0:0:
292,270,204151,1,0,0:0:0:0:
305,231,204216,1,0,0:0:0:0:
295,192,204282,1,0,0:0:0:0:
262,162,204347,1,0,0:0:0:0:
219,159,204412,1,0,0:0:0:0:
175,167,204477,5,0,0:0:0:0:
137,169,204543,1,0,0:0:0:0:
104,151,204608,1,0,0:0:0:0:
87,118,204673,1,0,0:0:0:0:
92,80,204738,1,0,0:0:0:0:
116,52,204803,5,0,0:0:0:0:
151,36,204869,1,0,0:0:0:0:
184,28,204934,1,0,0:0:0:0:
218,31,204999,1,0,0:0:0:0:
248,47,205064,1,0,0:0:0:0:
272,71,205129,1,0,0:0:0:0:
286,103,205195,1,0,0:0:0:0:
289,132,205260,2,0,P|288:170|279:208,3,62.5
180,274,205521,6,0,P|154:257|132:216,5,62.5000023841859
253,205,206043,6,0,L|298:247,3,62.5,4|0|0|0,0:0|0:0|0:0|0:0,0:0:0:0:
271,56,206303,2,0,L|255:120,3,62.5
152,72,206564,5,0,0:0:0:0:
124,68,206629,1,0,0:0:0:0:
100,84,206695,1,0,0:0:0:0:
92,112,206760,1,0,0:0:0:0:
100,140,206825,1,0,0:0:0:0:
120,156,206890,1,0,0:0:0:0:
144,156,206956,1,0,0:0:0:0:
168,168,207021,1,0,0:0:0:0:
176,192,207086,1,0,0:0:0:0:
168,216,207151,1,0,0:0:0:0:
144,228,207216,1,0,0:0:0:0:
120,224,207282,1,0,0:0:0:0:
100,208,207347,1,0,0:0:0:0:
92,184,207412,1,0,0:0:0:0:
96,160,207477,1,0,0:0:0:0:
108,140,207543,1,0,0:0:0:0:
124,128,207608,1,0,0:0:0:0:
144,124,207673,1,0,0:0:0:0:
164,128,207738,1,0,0:0:0:0:
184,136,207803,1,0,0:0:0:0:
200,148,207869,2,0,P|228:164|264:168,3,62.5
276,152,208129,5,2,0:0:0:0:
448,40,208260,1,0,0:0:0:0:
116,52,208390,1,0,0:0:0:0:
376,280,208521,5,0,0:0:0:0:
360,44,208651,1,0,0:0:0:0:
152,180,208782,1,0,0:0:0:0:
464,196,208912,5,0,0:0:0:0:
208,48,209043,1,0,0:0:0:0:
260,312,209173,1,2,0:0:0:0:
424,120,209303,5,0,0:0:0:0:
84,120,209434,1,0,0:0:0:0:
452,308,209564,1,0,0:0:0:0:
304,80,209695,6,0,B|244:60|244:60|176:56,1,125,8|0,0:0|0:0,0:0:0:0:
344,324,209956,2,0,P|392:268|392:216,1,125
32,272,210216,6,0,B|72:332|72:332|120:360,1,125,2|0,0:0|0:0,0:0:0:0:
160,56,210477,2,0,P|92:64|56:108,1,125
448,192,210738,6,0,P|424:132|368:88,1,125
136,280,210999,2,0,P|172:336|232:356,1,125
272,56,211260,5,2,0:0:0:0:
64,80,211390,1,0,0:0:0:0:
344,200,211521,1,0,0:0:0:0:
180,20,211651,5,0,0:0:0:0:
240,276,211782,1,0,0:0:0:0:
440,56,211912,1,0,0:0:0:0:
168,92,212043,5,0,0:0:0:0:
444,288,212173,1,0,0:0:0:0:
336,44,212303,1,2,0:0:0:0:
168,208,212434,5,0,0:0:0:0:
472,240,212564,1,0,0:0:0:0:
272,36,212695,1,0,0:0:0:0:
64,80,212825,6,0,L|44:208,1,125,2|8,0:0|0:0,0:0:0:0:
324,356,213086,2,0,L|304:228,1,125
32,320,213347,2,0,B|92:352|92:352|160:360,1,125,2|8,0:0|0:0,0:0:0:0:
372,104,213608,2,0,P|304:68|256:72,1,125,8|8,0:0|0:0,0:0:0:0:
60,192,213869,5,2,0:0:0:0:
84,224,213934,1,0,0:0:0:0:
120,240,213999,2,0,L|244:272,1,125,2|2,0:0|0:0,0:0:0:0:
444,324,214260,1,2,0:0:0:0:
428,64,214390,5,10,0:0:0:0:
168,160,214520,1,0,0:0:0:0:
360,340,214650,1,0,0:0:0:0:
344,36,214781,5,0,0:0:0:0:
76,152,214911,1,8,0:0:0:0:
464,344,215042,1,0,0:0:0:0:
111,330,215172,6,0,B|68:278|68:278|47:210,1,125
428,136,215433,2,0,B|452:196|452:196|464:260,1,125,8|0,0:0|0:0,0:0:0:0:
320,52,215694,1,0,0:0:0:0:
408,308,215824,1,0,0:0:0:0:
92,248,215955,1,8,0:0:0:0:
436,56,216085,1,0,0:0:0:0:
76,152,216216,6,0,B|96:92|96:92|140:40,1,125
222,321,216476,2,0,P|166:349|106:325,1,125,8|0,0:0|0:0,0:0:0:0:
320,52,216737,6,0,B|368:96|368:96|384:164,1,125
72,76,216998,2,0,P|128:40|204:44,1,125,8|0,0:0|0:0,0:0:0:0:
395,193,217259,5,0,0:0:0:0:
395,193,217324,1,0,0:0:0:0:
395,193,217390,1,0,0:0:0:0:
77,335,217520,5,8,0:0:0:0:
77,335,217585,1,0,0:0:0:0:
77,335,217650,1,0,0:0:0:0:
76,160,217781,6,0,L|28:24,1,125
288,172,218042,2,0,L|340:300,1,125,8|0,0:0|0:0,0:0:0:0:
364,36,218303,5,0,0:0:0:0:
456,340,218433,1,0,0:0:0:0:
96,176,218563,1,8,0:0:0:0:
452,140,218694,5,0,0:0:0:0:
192,320,218824,1,0,0:0:0:0:
192,44,218955,1,0,0:0:0:0:
384,280,219085,6,0,B|360:344|280:352,1,125,8|0,0:0|0:0,0:0:0:0:
176,68,219346,2,0,P|240:45|299:70,1,125
472,228,219607,6,0,P|468:296|432:340,1,125,8|0,0:0|0:0,0:0:0:0:
24,180,219868,2,0,P|40:112|88:80,1,125
252,88,220129,5,8,0:0:0:0:
440,296,220259,1,0,0:0:0:0:
128,64,220390,1,0,0:0:0:0:
452,196,220520,1,0,0:0:0:0:
80,300,220650,6,0,P|32:248|28:180,1,125,8|0,0:0|0:0,0:0:0:0:
336,288,220911,2,0,B|284:324|284:324|216:332,1,125
324,40,221172,6,0,P|384:64|420:132,1,125,8|0,0:0|0:0,0:0:0:0:
44,112,221433,2,0,B|88:68|88:68|152:52,1,125
408,272,221694,6,0,P|380:328|312:340,1,125,8|0,0:0|0:0,0:0:0:0:
268,72,221955,2,0,B|336:76|336:76|384:112,1,125
464,340,222216,5,8,0:0:0:0:
140,216,222346,1,0,0:0:0:0:
448,192,222476,1,0,0:0:0:0:
72,288,222607,5,0,0:0:0:0:
384,88,222737,1,8,0:0:0:0:
316,312,222868,1,0,0:0:0:0:
144,44,222998,5,0,0:0:0:0:
236,296,223129,1,0,0:0:0:0:
48,92,223259,1,8,0:0:0:0:
384,252,223390,5,0,0:0:0:0:
72,288,223520,1,0,0:0:0:0:
308,112,223650,1,0,0:0:0:0:
156,336,223781,6,0,P|104:300|80:232,1,125,8|0,0:0|0:0,0:0:0:0:
380,56,224042,2,0,P|420:104|428:172,1,125
80,180,224303,2,0,P|68:104|80:52,1,125,8|0,0:0|0:0,0:0:0:0:
452,232,224563,2,0,P|448:304|416:348,1,125
136,64,224824,2,0,B|200:48|200:48|276:52,1,125,8|0,0:0|0:0,0:0:0:0:
344,336,225085,2,0,B|276:352|276:352|216:348,1,125
80,180,225346,5,8,0:0:0:0:
76,160,225411,1,0,0:0:0:0:
72,144,225476,1,0,0:0:0:0:
276,56,225607,1,0,0:0:0:0:
432,312,225737,1,0,0:0:0:0:
88,296,225868,5,8,0:0:0:0:
176,60,225998,1,0,0:0:0:0:
424,184,226129,1,0,0:0:0:0:
104,148,226259,5,0,0:0:0:0:
392,44,226390,1,8,0:0:0:0:
344,336,226520,1,0,0:0:0:0:
276,56,226650,6,0,B|336:92|336:92|360:152,1,125
148,352,226911,2,0,P|116:292|116:220,1,125,8|0,0:0|0:0,0:0:0:0:
431,263,227172,2,0,P|399:319|339:335,1,125
67,104,227433,2,0,P|115:64|191:64,1,125,8|0,0:0|0:0,0:0:0:0:
416,148,227694,5,0,0:0:0:0:
248,312,227824,1,0,0:0:0:0:
32,216,227955,1,8,0:0:0:0:
456,64,228085,5,0,0:0:0:0:
348,276,228216,1,0,0:0:0:0:
64,296,228346,1,0,0:0:0:0:
208,56,228476,6,0,L|336:80,1,125,8|0,0:0|0:0,0:0:0:0:
424,320,228737,2,0,P|360:336|300:320,1,125
96,102,228998,2,0,P|156:62|234:59,1,125,8|0,0:0|0:0,0:0:0:0:
424,197,229259,2,0,B|436:265|436:265|420:333,1,125
152,320,229520,5,8,0:0:0:0:
88,48,229650,1,0,0:0:0:0:
388,144,229781,1,0,0:0:0:0:
36,208,229911,5,0,0:0:0:0:
328,72,230042,1,8,0:0:0:0:
424,320,230172,1,0,0:0:0:0:
80,272,230303,5,0,0:0:0:0:
240,44,230433,1,0,0:0:0:0:
456,248,230563,1,8,0:0:0:0:
48,112,230694,5,0,0:0:0:0:
444,176,230824,1,0,0:0:0:0:
236,336,230955,1,0,0:0:0:0:
132,48,231085,5,8,0:0:0:0:
452,304,231216,1,0,0:0:0:0:
68,344,231346,1,0,0:0:0:0:
392,48,231476,5,0,0:0:0:0:
336,328,231607,1,8,0:0:0:0:
56,196,231737,1,0,0:0:0:0:
280,72,231868,5,0,0:0:0:0:
271,81,231933,1,0,0:0:0:0:
265,92,231998,1,0,0:0:0:0:
262,106,232063,1,0,0:0:0:0:
264,119,232129,1,0,0:0:0:0:
266,132,232194,1,0,0:0:0:0:
268,144,232259,1,0,0:0:0:0:
271,157,232324,1,0,0:0:0:0:
272,170,232389,1,0,0:0:0:0:
273,184,232455,1,0,0:0:0:0:
272,197,232520,5,0,0:0:0:0:
268,210,232585,1,0,0:0:0:0:
263,222,232650,1,0,0:0:0:0:
256,232,232716,1,0,0:0:0:0:
246,242,232781,1,0,0:0:0:0:
236,249,232846,1,0,0:0:0:0:
224,257,232911,1,0,0:0:0:0:
212,261,232976,1,0,0:0:0:0:
200,266,233042,1,0,0:0:0:0:
187,269,233107,1,0,0:0:0:0:
116,296,233172,6,0,L|60:328,1,62.5,2|0,0:0|0:0,0:0:0:0:
260,340,233302,2,0,L|316:304,1,62.5
148,160,233432,2,0,L|92:192,1,62.5
328,228,233563,2,0,L|384:196,1,62.5
440,124,233693,5,0,0:0:0:0:
464,152,233758,1,0,0:0:0:0:
476,188,233824,1,0,0:0:0:0:
468,224,233889,1,0,0:0:0:0:
444,252,233954,6,0,P|424:264|376:272,3,62.5,2|0|0|0,0:0|0:0|0:0|0:0,0:0:0:0:
280,296,234215,2,0,P|248:300|208:288,3,62.5
136,228,234476,2,0,P|112:200|108:156,3,62.5
152,64,234737,5,2,0:0:0:0:
192,48,234802,1,0,0:0:0:0:
236,56,234867,1,0,0:0:0:0:
268,84,234932,1,0,0:0:0:0:
272,128,234998,1,0,0:0:0:0:
248,164,235063,1,0,0:0:0:0:
204,176,235128,1,0,0:0:0:0:
160,160,235193,1,0,0:0:0:0:
128,120,235258,1,0,0:0:0:0:
80,108,235324,1,0,0:0:0:0:
40,132,235389,1,0,0:0:0:0:
28,180,235454,1,0,0:0:0:0:
24,235,235519,5,2,0:0:0:0:
50,245,235585,1,0,0:0:0:0:
74,256,235650,1,0,0:0:0:0:
96,263,235715,1,0,0:0:0:0:
118,270,235780,1,0,0:0:0:0:
140,277,235845,1,0,0:0:0:0:
162,285,235911,1,0,0:0:0:0:
185,292,235976,1,0,0:0:0:0:
207,299,236041,2,0,L|269:321,3,62.5
276,232,236302,5,2,0:0:0:0:
267,191,236367,1,0,0:0:0:0:
278,151,236432,1,0,0:0:0:0:
305,120,236498,1,0,0:0:0:0:
344,105,236563,1,0,0:0:0:0:
385,110,236628,1,0,0:0:0:0:
420,133,236693,1,0,0:0:0:0:
440,169,236758,1,0,0:0:0:0:
452,208,236824,5,0,0:0:0:0:
450,241,236889,1,0,0:0:0:0:
433,271,236954,1,0,0:0:0:0:
406,292,237019,1,0,0:0:0:0:
368,300,237085,6,0,P|331:290|302:266,1,62.5,2|0,0:0|0:0,0:0:0:0:
220,84,237215,2,0,L|252:144,1,62.5
412,236,237345,2,0,L|376:176,1,62.5
432,36,237476,2,0,P|448:60|456:96,1,62.5
448,256,237606,6,0,L|464:324,3,62.5
316,224,237867,2,0,L|300:164,3,62.5,2|0|0|0,0:0|0:0|0:0|0:0,0:0:0:0:
236,276,238128,5,0,0:0:0:0:
192,276,238193,1,0,0:0:0:0:
152,256,238258,1,0,0:0:0:0:
132,216,238324,1,0,0:0:0:0:
128,172,238389,1,0,0:0:0:0:
132,128,238454,1,0,0:0:0:0:
160,96,238519,1,0,0:0:0:0:
200,88,238585,1,0,0:0:0:0:
240,104,238650,6,0,P|268:112|304:112,3,62.5,4|0|4|0,0:0|0:0|0:0|0:0,0:0:0:0:
204,184,238911,1,4,0:0:0:0:
220,200,238976,1,0,0:0:0:0:
236,216,239041,1,4,0:0:0:0:
252,232,239106,1,0,0:0:0:0:
308,284,239172,2,0,L|352:328,3,62.5,4|0|0|0,0:0|0:0|0:0|0:0,0:0:0:0:
424,260,239432,5,2,0:0:0:0:
440,224,239498,1,0,0:0:0:0:
442,185,239563,1,0,0:0:0:0:
436,147,239628,1,0,0:0:0:0:
420,111,239693,1,0,0:0:0:0:
395,82,239758,1,0,0:0:0:0:
358,67,239824,1,0,0:0:0:0:
319,73,239889,1,0,0:0:0:0:
288,97,239954,1,0,0:0:0:0:
273,133,240019,1,0,0:0:0:0:
267,172,240085,1,0,0:0:0:0:
272,211,240150,1,0,0:0:0:0:
300,238,240215,5,2,0:0:0:0:
339,234,240280,1,0,0:0:0:0:
367,207,240345,1,0,0:0:0:0:
375,168,240411,1,0,0:0:0:0:
354,135,240476,1,0,0:0:0:0:
321,115,240541,1,0,0:0:0:0:
283,113,240606,1,0,0:0:0:0:
244,115,240672,1,0,0:0:0:0:
206,126,240737,1,0,0:0:0:0:
175,150,240802,1,0,0:0:0:0:
159,186,240867,1,0,0:0:0:0:
153,224,240932,1,0,0:0:0:0:
160,263,240998,5,2,0:0:0:0:
183,294,241063,1,0,0:0:0:0:
217,314,241128,1,0,0:0:0:0:
256,314,241193,1,0,0:0:0:0:
292,298,241258,1,0,0:0:0:0:
331,301,241324,1,0,0:0:0:0:
370,304,241389,1,0,0:0:0:0:
409,308,241454,1,0,0:0:0:0:
447,295,241519,1,0,0:0:0:0:
469,261,241585,1,0,0:0:0:0:
479,223,241650,1,0,0:0:0:0:
471,184,241715,1,0,0:0:0:0:
452,150,241780,5,2,0:0:0:0:
420,128,241845,1,0,0:0:0:0:
383,117,241911,1,0,0:0:0:0:
345,125,241976,1,0,0:0:0:0:
321,156,242041,1,0,0:0:0:0:
312,193,242106,1,0,0:0:0:0:
327,229,242172,1,0,0:0:0:0:
361,248,242237,1,0,0:0:0:0:
398,235,242302,1,0,0:0:0:0:
416,200,242367,1,0,0:0:0:0:
407,162,242432,1,0,0:0:0:0:
384,130,242498,1,0,0:0:0:0:
345,125,242563,5,2,0:0:0:0:
305,120,242628,1,0,0:0:0:0:
266,116,242693,1,0,0:0:0:0:
227,112,242758,1,0,0:0:0:0:
188,107,242824,1,0,0:0:0:0:
149,104,242889,1,0,0:0:0:0:
110,100,242954,1,0,0:0:0:0:
72,96,243019,1,0,0:0:0:0:
33,98,243085,6,0,L|13:162,3,62.5
192,144,243345,2,0,L|210:84,1,62.5,2|0,0:0|0:0,0:0:0:0:
248,272,243476,2,0,L|229:331,1,62.5
380,144,243606,2,0,L|398:84,1,62.5,2|0,0:0|0:0,0:0:0:0:
460,288,243737,2,0,L|441:347,1,62.5
368,220,243867,5,2,0:0:0:0:
328,196,243932,1,0,0:0:0:0:
280,180,243998,1,0,0:0:0:0:
232,176,244063,1,0,0:0:0:0:
184,184,244128,2,0,P|148:192|116:188,7,62.5,2|0|0|0|0|0|0|0,0:0|0:0|0:0|0:0|0:0|0:0|0:0|0:0,0:0:0:0:
68,108,244650,2,0,L|36:52,3,62.5
142,220,244911,5,4,0:0:0:0:
158,244,244976,1,0,0:0:0:0:
174,268,245041,1,0,0:0:0:0:
190,292,245106,1,0,0:0:0:0:
241,293,245172,5,4,0:0:0:0:
269,301,245237,1,0,0:0:0:0:
297,305,245302,1,0,0:0:0:0:
325,309,245367,1,0,0:0:0:0:
372,284,245432,5,4,0:0:0:0:
392,264,245498,1,0,0:0:0:0:
412,244,245563,1,0,0:0:0:0:
432,224,245628,1,0,0:0:0:0:
430,177,245693,5,2,0:0:0:0:
413,155,245758,1,0,0:0:0:0:
388,143,245824,1,0,0:0:0:0:
359,138,245889,1,0,0:0:0:0:
333,147,245954,1,0,0:0:0:0:
310,167,246019,1,0,0:0:0:0:
297,192,246085,1,0,0:0:0:0:
294,217,246150,1,0,0:0:0:0:
252,240,246215,5,0,0:0:0:0:
224,244,246280,1,0,0:0:0:0:
196,240,246345,1,0,0:0:0:0:
172,224,246411,1,0,0:0:0:0:
156,200,246476,6,0,P|136:172|96:156,7,62.5,2|0|0|0|0|0|0|0,0:0|0:0|0:0|0:0|0:0|0:0|0:0|0:0,0:0:0:0:
92,304,246998,2,0,L|132:352,1,62.5
348,328,247128,2,0,L|304:280,1,62.5
352,96,247258,2,0,L|392:144,7,62.5,2|0|0|0|0|0|0|0,0:0|0:0|0:0|0:0|0:0|0:0|0:0|0:0,0:0:0:0:
168,64,247780,6,0,P|132:68|100:92,1,62.5
140,284,247911,2,0,P|172:292|216:280,1,62.5
380,176,248041,2,0,L|448:152,7,62.5,2|0|0|0|0|0|0|0,0:0|0:0|0:0|0:0|0:0|0:0|0:0|0:0,0:0:0:0:
236,236,248563,5,0,0:0:0:0:
212,248,248628,1,0,0:0:0:0:
188,260,248693,1,0,0:0:0:0:
164,272,248758,1,0,0:0:0:0:
140,284,248824,5,2,0:0:0:0:
92,276,248889,1,0,0:0:0:0:
64,236,248954,1,0,0:0:0:0:
72,188,249019,1,0,0:0:0:0:
104,152,249085,1,0,0:0:0:0:
152,148,249150,1,0,0:0:0:0:
192,176,249215,1,0,0:0:0:0:
216,216,249280,1,0,0:0:0:0:
264,220,249345,1,0,0:0:0:0:
308,200,249411,1,0,0:0:0:0:
336,160,249476,1,0,0:0:0:0:
336,108,249541,1,0,0:0:0:0:
304,84,249606,5,2,0:0:0:0:
280,72,249671,1,0,0:0:0:0:
258,60,249737,1,0,0:0:0:0:
236,50,249802,1,0,0:0:0:0:
213,38,249867,1,0,0:0:0:0:
191,27,249932,1,0,0:0:0:0:
152,40,249998,5,0,0:0:0:0:
112,60,250063,1,0,0:0:0:0:
96,104,250128,1,2,0:0:0:0:
104,152,250193,1,0,0:0:0:0:
132,192,250258,1,0,0:0:0:0:
180,204,250324,1,0,0:0:0:0:
225,192,250389,5,2,0:0:0:0:
241,208,250454,1,0,0:0:0:0:
257,224,250519,1,0,0:0:0:0:
273,240,250585,1,0,0:0:0:0:
289,256,250650,1,0,0:0:0:0:
305,272,250715,1,0,0:0:0:0:
321,288,250780,1,0,0:0:0:0:
337,304,250845,1,0,0:0:0:0:
349,320,250911,2,0,L|401:368,3,62.5
450,229,251171,5,2,0:0:0:0:
426,201,251237,1,2,0:0:0:0:
418,165,251302,2,0,P|418:137|438:101,3,62.5,0|2|0|2,0:0|0:0|0:0|0:0,0:0:0:0:
314,129,251563,5,2,0:0:0:0:
278,137,251628,1,2,0:0:0:0:
242,129,251693,2,0,P|214:117|198:81,3,62.5,2|2|2|2,0:0|0:0|0:0|0:0,0:0:0:0:
84,136,251954,6,0,L|80:204,1,62.5,2|0,0:0|0:0,0:0:0:0:
208,340,252085,2,0,L|200:272,1,62.5
316,124,252215,2,0,L|312:192,1,62.5
464,336,252345,2,0,L|452:264,1,62.5
392,124,252476,5,0,0:0:0:0:
352,96,252541,1,0,0:0:0:0:
304,92,252606,1,0,0:0:0:0:
260,108,252671,1,0,0:0:0:0:
228,148,252737,1,2,0:0:0:0:
212,192,252802,1,0,0:0:0:0:
212,240,252867,1,0,0:0:0:0:
232,284,252932,1,0,0:0:0:0:
276,304,252998,5,0,0:0:0:0:
324,296,253063,1,0,0:0:0:0:
360,264,253128,1,0,0:0:0:0:
356,216,253193,1,0,0:0:0:0:
320,184,253258,1,0,0:0:0:0:
272,184,253324,1,0,0:0:0:0:
232,212,253389,1,0,0:0:0:0:
184,216,253454,1,0,0:0:0:0:
140,192,253519,5,2,0:0:0:0:
120,144,253585,1,0,0:0:0:0:
128,96,253650,1,0,0:0:0:0:
168,68,253715,1,0,0:0:0:0:
216,64,253780,1,0,0:0:0:0:
260,88,253845,1,0,0:0:0:0:
288,128,253911,1,0,0:0:0:0:
336,132,253976,1,0,0:0:0:0:
376,108,254041,6,0,P|396:88|400:44,3,62.5
404,272,254302,2,0,L|428:336,3,62.5,2|0|0|0,0:0|0:0|0:0|0:0,0:0:0:0:
232,212,254563,2,0,L|204:144,3,62.5
108,296,254824,2,0,L|128:356,3,62.5
64,188,255085,5,2,0:0:0:0:
72,136,255150,1,0,0:0:0:0:
112,104,255215,1,0,0:0:0:0:
164,100,255280,1,0,0:0:0:0:
204,132,255345,1,0,0:0:0:0:
212,180,255411,1,0,0:0:0:0:
216,228,255476,1,0,0:0:0:0:
236,272,255541,1,0,0:0:0:0:
280,288,255606,1,0,0:0:0:0:
328,276,255671,1,0,0:0:0:0:
364,240,255737,1,0,0:0:0:0:
376,192,255802,1,0,0:0:0:0:
364,144,255867,6,0,L|348:80,3,62.5,2|0|0|0,0:0|0:0|0:0|0:0,0:0:0:0:
280,32,256128,2,0,P|248:28|204:40,3,62.5,2|0|0|0,0:0|0:0|0:0|0:0,0:0:0:0:
164,100,256389,2,0,L|132:160,3,62.5,2|0|0|0,0:0|0:0|0:0|0:0,0:0:0:0:
148,252,256650,5,2,0:0:0:0:
191,281,256715,1,0,0:0:0:0:
241,274,256780,1,0,0:0:0:0:
280,242,256845,1,0,0:0:0:0:
291,195,256911,1,0,0:0:0:0:
284,146,256976,1,0,0:0:0:0:
259,105,257041,1,0,0:0:0:0:
217,81,257106,1,0,0:0:0:0:
170,86,257171,5,0,0:0:0:0:
125,101,257237,1,0,0:0:0:0:
99,137,257302,1,0,0:0:0:0:
89,179,257367,1,0,0:0:0:0:
91,220,257432,1,2,0:0:0:0:
104,260,257498,1,0,0:0:0:0:
129,294,257563,1,0,0:0:0:0:
161,320,257628,1,0,0:0:0:0:
215,333,257693,5,2,0:0:0:0:
271,341,257758,1,0,0:0:0:0:
323,311,257824,1,0,0:0:0:0:
357,261,257889,1,0,0:0:0:0:
369,203,257954,1,2,0:0:0:0:
354,141,258019,1,0,0:0:0:0:
315,93,258085,1,0,0:0:0:0:
260,65,258150,1,0,0:0:0:0:
200,59,258215,6,0,L|119:69,11,62.5,8|0|0|0|0|0|0|0|0|0|0|0,2:0|0:0|0:0|0:0|0:0|0:0|0:0|0:0|0:0|0:0|0:0|0:0,0:0:0:0:
224,184,258998,2,0,L|232:248,3,62.5,8|0|0|0,2:0|0:0|0:0|0:0,0:0:0:0:
328,116,259258,2,0,L|332:48,3,62.5,8|0|0|0,2:0|0:0|0:0|0:0,0:0:0:0:
408,208,259519,2,0,L|424:272,3,62.5,8|0|0|0,2:0|0:0|0:0|0:0,0:0:0:0:
304,296,259780,6,0,L|240:316,1,62.5,8|0,2:0|0:0,0:0:0:0:
124,304,259911,2,0,L|56:312,1,62.5,8|0,2:0|0:0,0:0:0:0:
100,200,260041,2,0,L|72:140,3,62.5,8|0|0|0,2:0|0:0|0:0|0:0,0:0:0:0:
136,64,260302,6,0,L|208:40,1,62.5,8|0,2:0|0:0,0:0:0:0:
348,76,260432,2,0,L|416:64,1,62.5,8|0,2:0|0:0,0:0:0:0:
464,224,260563,2,0,L|476:288,11,62.5,8|0|0|0|0|0|0|0|0|0|0|0,2:0|0:0|0:0|0:0|0:0|0:0|0:0|0:0|0:0|0:0|0:0|0:0,0:0:0:0:
332,328,261345,6,0,P|292:336|240:336,1,83.3333333333333,8|0,2:0|0:0,0:0:0:0:
120,320,261518,2,0,P|84:308|40:224,1,125,0|8,0:0|2:0,0:0:0:0:
72,128,261692,2,0,P|108:148|132:192,1,83.3333333333333
240,252,261867,2,0,L|236:344,1,83.3333333333333,8|0,2:0|0:0,0:0:0:0:
336,224,262040,5,0,0:0:0:0:
348,196,262128,1,8,2:0:0:0:
360,168,262214,1,0,0:0:0:0:
400,64,262301,5,0,0:0:0:0:
276,48,262389,2,0,L|152:160,1,166.666666666667,8|0,2:0|0:0,0:0:0:0:
68,240,262650,2,0,P|148:272|224:224,1,166.666666666667,8|0,2:0|0:0,0:0:0:0:
276,144,262911,6,0,P|304:128|336:124,7,62.5,2|0|0|0|0|0|0|0,0:0|0:0|0:0|0:0|0:0|0:0|0:0|0:0,0:0:0:0:
256,260,263432,2,0,L|268:328,3,62.5,8|0|0|0,2:0|0:0|0:0|0:0,0:0:0:0:
124,197,263693,2,0,P|92:197|60:185,7,62.5,2|0|0|0|0|0|0|0,0:0|0:0|0:0|0:0|0:0|0:0|0:0|0:0,0:0:0:0:
252,80,264215,2,0,L|320:64,3,62.5
128,101,264476,5,2,0:0:0:0:
112,149,264541,1,0,0:0:0:0:
124,197,264606,1,0,0:0:0:0:
160,233,264671,1,0,0:0:0:0:
208,249,264737,1,0,0:0:0:0:
256,233,264802,1,0,0:0:0:0:
292,201,264867,1,0,0:0:0:0:
312,156,264932,1,0,0:0:0:0:
332,111,264998,1,0,0:0:0:0:
356,71,265063,1,0,0:0:0:0:
404,59,265128,1,0,0:0:0:0:
448,75,265193,1,0,0:0:0:0:
472,116,265258,5,2,0:0:0:0:
470,134,265324,1,0,0:0:0:0:
468,155,265389,1,0,0:0:0:0:
466,175,265454,1,0,0:0:0:0:
464,196,265519,1,0,0:0:0:0:
462,217,265585,1,0,0:0:0:0:
461,237,265650,1,0,0:0:0:0:
460,258,265715,1,0,0:0:0:0:
457,279,265780,1,0,0:0:0:0:
456,299,265845,1,0,0:0:0:0:
455,320,265911,1,0,0:0:0:0:
453,341,265976,1,0,0:0:0:0:
450,356,266041,5,2,0:0:0:0:
394,345,266106,1,0,0:0:0:0:
350,321,266171,1,0,0:0:0:0:
318,285,266237,1,0,0:0:0:0:
290,245,266302,2,0,P|285:209|265:170,3,62.5
181,199,266563,2,0,L|113:199,3,62.5
180,100,266824,6,0,L|376:76,1,187.5,2|0,0:0|0:0,0:0:0:0:
444,76,267085,2,0,P|446:152|349:174,1,187.5
276,208,267345,2,0,B|224:208|204:232|204:232|168:232|168:232|144:260|112:260|112:260|96:248,1,187.5
60,176,267606,6,0,B|44:116|44:116|36:48,1,125,8|0,0:0|0:0,0:0:0:0:
212,48,267867,2,0,L|244:172,1,125
204,336,268128,2,0,P|140:332|96:288,1,125
248,144,268389,5,2,0:0:0:0:
332,304,268519,1,0,0:0:0:0:
360,76,268650,1,0,0:0:0:0:
356,328,268780,1,0,0:0:0:0:
444,32,268911,1,0,0:0:0:0:
380,352,269041,1,0,0:0:0:0:
308,280,269171,6,0,P|240:272|200:228,2,125,8|0|0,0:0|0:0|0:0,0:0:0:0:
372,136,269563,2,0,P|436:144|476:188,2,125
252,208,269954,2,0,B|176:220|120:164|120:164|76:176|44:104,1,250,2|0,0:0|0:0,0:0:0:0:
192,104,270649,5,2,0:0:0:0:
230,121,270736,1,0,0:0:0:0:
258,152,270823,1,0,0:0:0:0:
271,190,270910,1,0,0:0:0:0:
272,232,270997,1,0,0:0:0:0:
252,268,271084,1,0,0:0:0:0:
216,288,271170,1,0,0:0:0:0:
192,324,271257,5,0,0:0:0:0:
224,344,271344,1,0,0:0:0:0:
260,344,271431,1,0,0:0:0:0:
296,332,271518,1,2,0:0:0:0:
324,308,271605,1,0,0:0:0:0:
336,276,271692,1,0,0:0:0:0:
328,240,271779,5,0,0:0:0:0:
314,185,271866,1,0,0:0:0:0:
269,155,271953,1,0,0:0:0:0:
215,152,272041,1,0,0:0:0:0:
163,173,272127,1,0,0:0:0:0:
127,211,272214,1,0,0:0:0:0:
91,249,272302,6,0,P|81:276|48:304,2,62.5000023841859,2|0|0,0:0|0:0|0:0,0:0:0:0:
132,104,272563,2,0,L|128:24,2,62.5000023841859,2|0|0,0:0|0:0|0:0,0:0:0:0:
232,212,272824,2,0,L|252:284,2,62.5000023841859,2|0|0,0:0|0:0|0:0,0:0:0:0:
124,216,273085,5,2,0:0:0:0:
136,240,273170,1,0,0:0:0:0:
148,264,273257,1,0,0:0:0:0:
160,288,273345,1,0,0:0:0:0:
172,312,273431,1,0,0:0:0:0:
184,336,273518,1,0,0:0:0:0:
280,332,273605,6,0,L|360:344,1,62.5000023841859
436,268,273779,2,0,L|360:256,1,62.5000023841859,0|2,0:0|0:0,0:0:0:0:
256,184,273953,2,0,L|340:196,1,62.5000023841859
412,120,274128,2,0,L|340:108,1,62.5000023841859
200,60,274301,5,0,0:0:0:0:
184,80,274389,2,0,L|128:136,2,62.5000023841859
308,156,274650,5,2,0:0:0:0:
324,140,274736,2,0,L|380:88,2,62.5000023841859
344,280,274997,5,0,0:0:0:0:
328,296,275084,2,0,L|272:348,2,62.5000023841859
224,264,275344,5,0,0:0:0:0:
176,268,275431,1,2,0:0:0:0:
132,248,275518,1,0,0:0:0:0:
112,204,275605,1,0,0:0:0:0:
112,156,275692,1,2,0:0:0:0:
144,120,275779,1,0,0:0:0:0:
192,120,275866,1,0,0:0:0:0:
232,148,275953,5,2,0:0:0:0:
256,156,276040,1,0,0:0:0:0:
280,164,276127,1,0,0:0:0:0:
304,172,276215,2,2,B|332:188|360:172|360:172|380:188|380:188|424:216|500:200|480:28|352:116,1,312.5,2|0,0:0|0:0,0:0:0:0:
192,120,276997,6,0,P|124:128|100:180,1,125,10|0,0:0|0:0,0:0:0:0:
132,312,277257,2,0,P|196:304|224:256,1,125
84,148,277518,1,0,0:0:0:0:
120,300,277649,1,0,0:0:0:0:
304,288,277779,6,0,P|372:288|412:244,1,125,10|0,0:0|0:0,0:0:0:0:
336,64,278040,2,0,P|272:60|232:100,1,125
416,272,278301,1,0,0:0:0:0:
348,76,278431,1,0,0:0:0:0:
160,180,278562,5,10,0:0:0:0:
252,304,278692,1,0,0:0:0:0:
248,48,278823,1,0,0:0:0:0:
84,148,278953,1,0,0:0:0:0:
120,300,279083,1,0,0:0:0:0:
368,344,279214,1,0,0:0:0:0:
456,120,279344,6,0,B|396:108|396:108|320:116,1,125,10|0,0:0|0:0,0:0:0:0:
252,304,279605,1,0,0:0:0:0:
296,312,279670,1,0,0:0:0:0:
340,304,279736,1,0,0:0:0:0:
376,276,279801,1,0,0:0:0:0:
388,232,279866,2,0,P|388:168|348:124,2,125,0|0|8,0:0|0:0|0:0,0:0:0:0:
264,344,280257,5,0,0:0:0:0:
120,300,280388,2,0,L|48:120,1,187.5
104,40,280649,2,0,L|156:164,1,125
248,276,280910,5,8,0:0:0:0:
372,184,281040,1,0,0:0:0:0:
380,160,281105,1,0,0:0:0:0:
388,140,281170,2,0,P|360:84|440:112,1,187.500007152558
428,308,281692,5,8,0:0:0:0:
392,328,281757,1,0,0:0:0:0:
352,328,281823,1,0,0:0:0:0:
312,320,281888,1,0,0:0:0:0:
276,300,281953,2,0,P|256:284|188:280,2,83.3333333333333
312,192,282214,2,0,L|304:92,2,83.3333333333333
232,168,282475,6,0,P|164:168|216:104,1,187.500007152558
328,104,282866,2,0,P|376:128|396:172,1,93.7500035762788
392,328,283127,1,0,0:0:0:0:
216,300,283257,6,0,P|168:292|128:308,1,93.7500035762788,10|0,0:0|0:0,0:0:0:0:
336,272,283518,2,0,P|392:260|412:232,1,93.7500035762788
256,208,283779,2,0,L|224:120,1,93.7500035762788
136,144,284040,6,0,L|80:220,1,93.7500035762788,8|0,0:0|0:0,0:0:0:0:
223,119,284301,2,0,P|275:127|323:111,1,93.7500035762788
148,56,284562,2,0,P|100:44|48:56,1,93.7500035762788
60,228,284823,5,10,0:0:0:0:
160,298,284953,1,0,0:0:0:0:
170,177,285083,1,0,0:0:0:0:
44,258,285214,5,0,0:0:0:0:
187,303,285344,1,0,0:0:0:0:
155,157,285475,1,0,0:0:0:0:
333,274,285605,5,8,0:0:0:0:
443,222,285736,1,0,0:0:0:0:
344,154,285866,1,0,0:0:0:0:
352,303,285997,5,0,0:0:0:0:
462,201,286127,1,0,0:0:0:0:
320,157,286257,1,0,0:0:0:0:
120,300,286387,6,0,B|168:316|168:316|248:320,1,125,8|0,0:0|0:0,0:0:0:0:
164,116,286649,2,0,P|116:156|104:220,1,125
385,211,286910,2,0,B|389:143|389:143|381:87,1,125
168,224,287170,5,8,0:0:0:0:
297,292,287301,1,0,0:0:0:0:
372,52,287431,1,0,0:0:0:0:
448,316,287562,5,0,0:0:0:0:
297,292,287692,1,0,0:0:0:0:
248,72,287823,1,0,0:0:0:0:
76,208,287953,6,0,L|52:332,1,93.7500035762788,8|0,0:0|0:0,0:0:0:0:
297,292,288214,2,0,L|308:192,1,93.7500035762788
120,60,288475,2,0,P|72:88|56:136,1,93.7500035762788
160,312,288736,2,0,P|204:284|216:228,1,93.7500035762788,8|0,0:0|0:0,0:0:0:0:
68,140,288997,5,0,0:0:0:0:
297,292,289127,1,0,0:0:0:0:
428,88,289257,1,0,0:0:0:0:
444,228,289388,1,0,0:0:0:0:
372,336,289518,6,0,P|320:360|268:356,1,93.75,10|0,0:0|0:0,0:0:0:0:
248,348,289779,1,0,0:0:0:0:
224,320,289844,1,0,0:0:0:0:
208,284,289910,1,0,0:0:0:0:
212,244,289975,1,0,0:0:0:0:
228,208,290040,1,0,0:0:0:0:
392,68,290301,5,10,0:0:0:0:
412,216,290431,1,0,0:0:0:0:
268,80,290562,1,0,0:0:0:0:
460,144,290692,1,0,0:0:0:0:
228,208,290823,2,0,L|136:228,1,93.75
36,204,291083,5,10,0:0:0:0:
44,168,291149,1,0,0:0:0:0:
64,136,291214,1,0,0:0:0:0:
96,116,291279,1,0,0:0:0:0:
132,108,291344,1,0,0:0:0:0:
168,116,291410,1,0,0:0:0:0:
196,128,291475,1,0,0:0:0:0:
224,152,291540,1,0,0:0:0:0:
244,172,291605,2,0,P|304:176|352:152,1,93.75
376,64,291866,5,10,0:0:0:0:
380,72,291931,1,0,0:0:0:0:
384,80,291997,1,0,0:0:0:0:
388,88,292062,1,0,0:0:0:0:
420,108,292127,5,0,0:0:0:0:
424,116,292192,1,0,0:0:0:0:
428,124,292257,1,0,0:0:0:0:
432,132,292323,1,0,0:0:0:0:
468,156,292388,6,0,B|468:224|468:224|456:292,1,125
384,328,292714,2,0,L|336:352,1,41.6666666666667
280,304,292910,2,0,L|332:280,1,41.6666666666667
320,212,293105,2,0,L|268:232,1,41.6666666666667
216,144,293256,5,0,0:0:0:0:
228,140,293343,1,0,0:0:0:0:
240,136,293430,1,0,0:0:0:0:
252,132,293517,1,0,0:0:0:0:
264,128,293604,1,0,0:0:0:0:
276,124,293692,1,0,0:0:0:0:
288,120,293778,1,0,0:0:0:0:
300,116,293865,1,0,0:0:0:0:
312,112,293953,1,0,0:0:0:0:
388,96,294039,5,0,0:0:0:0:
432,152,294126,1,0,0:0:0:0:
432,224,294214,2,0,P|400:284|332:288,1,140.625005364418,10|0,0:0|0:0,0:0:0:0:
252,248,294475,2,0,P|224:240|188:244,7,62.5
112,268,294997,2,0,P|128:208|108:136,1,125,8|0,0:0|0:0,0:0:0:0:
164,48,295257,5,0,0:0:0:0:
176,56,295323,1,0,0:0:0:0:
188,64,295388,1,0,0:0:0:0:
200,72,295453,1,0,0:0:0:0:
212,80,295518,1,0,0:0:0:0:
224,88,295583,1,0,0:0:0:0:
236,96,295649,1,0,0:0:0:0:
248,104,295714,1,0,0:0:0:0:
260,112,295779,6,0,B|312:148|312:148|368:176,1,125,8|0,0:0|0:0,0:0:0:0:
392,320,296040,5,0,0:0:0:0:
360,328,296105,1,0,0:0:0:0:
328,328,296170,1,0,0:0:0:0:
300,312,296236,1,0,0:0:0:0:
284,284,296301,1,0,0:0:0:0:
276,252,296366,1,0,0:0:0:0:
284,220,296431,1,0,0:0:0:0:
308,196,296497,1,0,0:0:0:0:
340,192,296562,6,0,L|464:208,1,125,8|0,0:0|0:0,0:0:0:0:
260,112,296823,2,0,L|132:88,1,125,8|0,0:0|0:0,0:0:0:0:
156,328,297083,2,0,L|280:344,1,125,8|0,0:0|0:0,0:0:0:0:
104,220,297344,6,0,P|40:240|56:288,1,125,10|0,0:0|0:0,0:0:0:0:
60,296,297670,1,0,0:0:0:0:
72,304,297736,1,0,0:0:0:0:
84,304,297801,1,0,0:0:0:0:
96,300,297866,1,0,0:0:0:0:
104,292,297931,1,0,0:0:0:0:
104,284,297997,1,0,0:0:0:0:
100,276,298062,1,0,0:0:0:0:
96,272,298127,1,8,0:0:0:0:
224,176,298388,5,0,0:0:0:0:
240,184,298453,1,0,0:0:0:0:
256,192,298518,1,0,0:0:0:0:
272,200,298583,1,0,0:0:0:0:
288,208,298649,1,0,0:0:0:0:
304,216,298714,1,0,0:0:0:0:
320,224,298779,1,0,0:0:0:0:
336,232,298844,1,0,0:0:0:0:
352,240,298909,2,0,L|408:264,7,46.8750017881394,8|0|0|0|0|0|0|0,0:0|0:0|0:0|0:0|0:0|0:0|0:0|0:0,0:0:0:0:
460,228,299431,5,0,0:0:0:0:
456,184,299497,1,0,0:0:0:0:
436,144,299562,1,0,0:0:0:0:
396,124,299627,1,0,0:0:0:0:
352,128,299692,1,8,0:0:0:0:
320,156,299757,1,0,0:0:0:0:
312,200,299823,1,0,0:0:0:0:
332,240,299888,1,0,0:0:0:0:
332,280,299953,5,0,0:0:0:0:
300,304,300018,1,0,0:0:0:0:
260,304,300083,1,0,0:0:0:0:
224,288,300149,1,0,0:0:0:0:
208,252,300214,1,0,0:0:0:0:
212,212,300279,1,0,0:0:0:0:
236,180,300344,1,0,0:0:0:0:
276,176,300410,1,0,0:0:0:0:
312,200,300475,6,0,B|376:208|376:208|444:200,1,125,8|0,0:0|0:0,0:0:0:0:
164,92,300736,1,0,0:0:0:0:
124,120,300801,1,0,0:0:0:0:
112,168,300866,1,0,0:0:0:0:
120,216,300931,1,0,0:0:0:0:
160,244,300997,1,0,0:0:0:0:
208,252,301062,1,0,0:0:0:0:
252,228,301127,1,0,0:0:0:0:
260,180,301192,1,0,0:0:0:0:
260,132,301257,6,0,P|308:88|372:104,1,125,8|0,0:0|0:0,0:0:0:0:
421,260,301518,1,0,0:0:0:0:
425,268,301583,1,0,0:0:0:0:
429,276,301649,1,0,0:0:0:0:
433,284,301714,1,0,0:0:0:0:
437,292,301779,1,0,0:0:0:0:
441,300,301844,1,0,0:0:0:0:
445,308,301910,1,0,0:0:0:0:
449,316,301975,1,0,0:0:0:0:
452,325,302040,6,0,B|388:333|388:333|317:328,1,125,8|0,0:0|0:0,0:0:0:0:
156,320,302301,1,0,0:0:0:0:
120,304,302366,1,0,0:0:0:0:
96,272,302431,1,0,0:0:0:0:
92,232,302497,1,0,0:0:0:0:
104,196,302562,1,0,0:0:0:0:
140,176,302627,1,0,0:0:0:0:
180,180,302692,1,0,0:0:0:0:
208,208,302757,1,0,0:0:0:0:
224,244,302823,6,0,P|288:256|344:240,1,125,8|0,0:0|0:0,0:0:0:0:
416,52,303083,2,0,P|352:40|296:60,1,125,8|0,0:0|0:0,0:0:0:0:
436,312,303344,2,0,B|452:252|452:252|448:188,1,125,8|0,0:0|0:0,0:0:0:0:
188,324,303605,6,0,P|256:336|328:308,1,125,10|0,0:0|0:0,0:0:0:0:
416,240,303866,2,0,L|460:192,7,62.5
336,176,304388,2,0,L|228:112,1,125,8|0,0:0|0:0,0:0:0:0:
68,212,304649,6,0,P|64:244|76:280,3,62.5
80,176,304910,5,0,0:0:0:0:
108,152,304975,1,0,0:0:0:0:
144,144,305040,1,0,0:0:0:0:
180,152,305105,1,0,0:0:0:0:
204,180,305170,1,2,0:0:0:0:
212,216,305236,1,0,0:0:0:0:
244,236,305301,1,0,0:0:0:0:
280,228,305366,1,0,0:0:0:0:
296,192,305431,5,0,0:0:0:0:
328,168,305497,1,0,0:0:0:0:
368,172,305562,1,0,0:0:0:0:
396,200,305627,1,0,0:0:0:0:
396,240,305692,1,0,0:0:0:0:
368,268,305757,1,0,0:0:0:0:
328,272,305823,1,0,0:0:0:0:
292,252,305888,1,0,0:0:0:0:
272,216,305953,5,2,0:0:0:0:
268,176,306018,1,0,0:0:0:0:
248,140,306083,1,0,0:0:0:0:
212,124,306149,1,0,0:0:0:0:
176,136,306214,1,0,0:0:0:0:
148,168,306279,1,0,0:0:0:0:
136,208,306344,1,0,0:0:0:0:
144,248,306410,1,0,0:0:0:0:
180,272,306475,5,0,0:0:0:0:
212,304,306540,1,0,0:0:0:0:
196,348,306605,1,0,0:0:0:0:
148,352,306670,1,0,0:0:0:0:
116,312,306736,6,0,P|88:272|88:192,2,125
180,272,307064,2,0,L|240:268,1,46.8750017881394
268,176,307259,1,0,0:0:0:0:
80,72,307390,1,0,0:0:0:0:
72,212,307520,1,0,0:0:0:0:
164,48,307651,1,0,0:0:0:0:
232,200,307781,6,0,L|256:308,1,93.7500035762788
372,344,308042,1,0,0:0:0:0:
432,240,308172,2,0,P|440:184|428:140,1,93.7500035762788
296,88,308433,1,0,0:0:0:0:
160,136,308564,2,0,P|112:180|104:224,1,93.7500035762788
192,312,308824,5,4,0:0:0:0:
240,296,308890,1,0,0:0:0:0:
272,256,308955,1,0,0:0:0:0:
288,208,309020,1,0,0:0:0:0:
296,160,309085,1,0,0:0:0:0:
288,112,309151,1,0,0:0:0:0:
252,80,309216,1,0,0:0:0:0:
208,64,309281,1,0,0:0:0:0:
160,72,309346,5,4,0:0:0:0:
120,100,309411,1,0,0:0:0:0:
104,144,309477,1,0,0:0:0:0:
128,184,309542,1,0,0:0:0:0:
172,204,309607,1,0,0:0:0:0:
216,184,309672,1,0,0:0:0:0:
264,188,309738,1,0,0:0:0:0:
296,224,309803,1,0,0:0:0:0:
304,272,309868,5,4,0:0:0:0:
264,304,309933,1,0,0:0:0:0:
220,280,309998,1,0,0:0:0:0:
232,236,310064,1,0,0:0:0:0:
276,216,310129,1,0,0:0:0:0:
324,220,310194,1,0,0:0:0:0:
368,200,310259,1,0,0:0:0:0:
376,152,310324,1,0,0:0:0:0:
364,108,310390,6,0,P|352:88|304:84,3,62.5,4|0|0|0,0:0|0:0|0:0|0:0,0:0:0:0:
436,192,310651,2,0,L|448:260,3,62.5
308,144,310911,5,4,0:0:0:0:
272,124,310977,1,0,0:0:0:0:
232,112,311042,1,0,0:0:0:0:
192,120,311107,1,0,0:0:0:0:
160,144,311172,1,0,0:0:0:0:
152,184,311238,1,0,0:0:0:0:
164,224,311303,1,0,0:0:0:0:
192,256,311368,1,0,0:0:0:0:
192,296,311433,6,0,P|184:324|152:352,3,62.5,4|0|0|0,0:0|0:0|0:0|0:0,0:0:0:0:
324,220,311694,2,0,L|360:168,3,62.5
408,304,311955,5,4,0:0:0:0:
448,276,312020,1,0,0:0:0:0:
468,232,312085,1,0,0:0:0:0:
464,184,312151,1,0,0:0:0:0:
448,140,312216,1,0,0:0:0:0:
408,112,312281,1,0,0:0:0:0:
360,120,312346,1,4,0:0:0:0:
320,148,312411,1,0,0:0:0:0:
272,152,312477,5,0,0:0:0:0:
232,124,312542,1,0,0:0:0:0:
240,76,312607,1,0,0:0:0:0:
288,56,312672,1,0,0:0:0:0:
332,72,312738,1,4,0:0:0:0:
352,116,312803,1,0,0:0:0:0:
344,164,312868,1,0,0:0:0:0:
325,207,312933,1,0,0:0:0:0:
294,241,312998,5,4,0:0:0:0:
273,256,313064,1,0,0:0:0:0:
249,268,313129,1,0,0:0:0:0:
224,274,313194,1,0,0:0:0:0:
198,276,313259,1,0,0:0:0:0:
172,273,313324,1,0,0:0:0:0:
147,264,313390,1,0,0:0:0:0:
124,251,313455,1,0,0:0:0:0:
76,243,313520,5,4,0:0:0:0:
63,278,313585,1,0,0:0:0:0:
69,315,313651,1,0,0:0:0:0:
93,344,313716,1,0,0:0:0:0:
144,344,313781,5,4,0:0:0:0:
188,348,313846,1,0,0:0:0:0:
232,352,313911,1,0,0:0:0:0:
276,356,313977,1,0,0:0:0:0:
320,359,314042,6,0,L|400:364,2,62.5000023841859,6|0|0,0:0|0:0|0:0,0:0:0:0:
399,274,314302,2,0,L|468:280,2,62.5000023841859
295,209,314564,2,0,L|220:204,2,62.5000023841859,6|0|0,0:0|0:0|0:0,0:0:0:0:
365,126,314824,2,0,L|288:120,2,62.5000023841859
348,280,315085,5,4,0:0:0:0:
324,292,315151,1,0,0:0:0:0:
296,288,315216,1,0,0:0:0:0:
276,272,315281,1,0,0:0:0:0:
268,248,315346,1,0,0:0:0:0:
264,220,315411,1,0,0:0:0:0:
260,196,315477,1,0,0:0:0:0:
248,172,315542,1,0,0:0:0:0:
232,152,315607,6,0,L|160:144,3,62.5,4|0|0|0,0:0|0:0|0:0|0:0,0:0:0:0:
232,52,315868,2,0,L|300:48,3,62.5
400,40,316129,5,4,0:0:0:0:
440,68,316194,1,0,0:0:0:0:
460,112,316259,1,0,0:0:0:0:
456,160,316324,1,0,0:0:0:0:
424,196,316390,1,0,0:0:0:0:
380,212,316455,1,0,0:0:0:0:
332,200,316520,1,4,0:0:0:0:
288,176,316585,1,0,0:0:0:0:
240,168,316651,5,0,0:0:0:0:
192,184,316716,1,0,0:0:0:0:
160,220,316781,1,0,0:0:0:0:
160,268,316846,1,0,0:0:0:0:
192,304,316911,1,4,0:0:0:0:
240,304,316977,1,0,0:0:0:0:
276,272,317042,1,0,0:0:0:0:
280,224,317107,1,0,0:0:0:0:
280,176,317172,5,4,0:0:0:0:
286,143,317238,1,0,0:0:0:0:
299,117,317303,1,0,0:0:0:0:
319,97,317368,1,0,0:0:0:0:
345,84,317433,1,0,0:0:0:0:
371,84,317498,1,0,0:0:0:0:
397,91,317564,1,0,0:0:0:0:
423,104,317629,1,0,0:0:0:0:
431,146,317694,5,4,0:0:0:0:
427,162,317759,1,0,0:0:0:0:
423,178,317824,1,0,0:0:0:0:
419,194,317890,1,0,0:0:0:0:
415,210,317955,1,0,0:0:0:0:
411,226,318020,1,0,0:0:0:0:
407,242,318085,1,0,0:0:0:0:
403,258,318151,1,0,0:0:0:0:
423,310,318216,6,0,L|487:326,3,62.5,4|0|0|0,0:0|0:0|0:0|0:0,0:0:0:0:
232,288,318477,2,0,L|164:272,3,62.5
80,144,318738,2,0,P|64:108|72:64,3,62.5,4|0|0|0,0:0|0:0|0:0|0:0,0:0:0:0:
252,144,318998,2,0,L|316:164,3,62.5
400,48,319259,5,4,0:0:0:0:
424,76,319324,1,0,0:0:0:0:
436,112,319390,1,0,0:0:0:0:
440,148,319455,1,0,0:0:0:0:
432,184,319520,1,0,0:0:0:0:
412,216,319585,1,0,0:0:0:0:
380,236,319651,1,0,0:0:0:0:
344,244,319716,1,0,0:0:0:0:
292,220,319781,5,6,0:0:0:0:
236,212,319846,1,0,0:0:0:0:
180,216,319911,1,0,0:0:0:0:
128,228,319977,1,0,0:0:0:0:
100,268,320042,5,0,0:0:0:0:
119,287,320107,1,0,0:0:0:0:
139,307,320172,1,0,0:0:0:0:
160,328,320238,1,0,0:0:0:0:
212,336,320303,5,4,0:0:0:0:
247,350,320368,1,0,0:0:0:0:
284,356,320433,1,0,0:0:0:0:
322,351,320498,1,0,0:0:0:0:
357,337,320564,1,0,0:0:0:0:
388,312,320629,1,0,0:0:0:0:
424,284,320694,5,4,0:0:0:0:
416,244,320759,1,0,0:0:0:0:
408,204,320824,1,0,0:0:0:0:
400,164,320890,1,0,0:0:0:0:
392,124,320955,1,0,0:0:0:0:
382,83,321020,1,0,0:0:0:0:
352,68,321085,6,0,P|332:60|292:64,3,62.5,4|0|0|0,0:0|0:0|0:0|0:0,0:0:0:0:
188,100,321346,2,0,P|164:112|136:144,7,62.5,6|0|0|0|0|0|0|0,0:0|0:0|0:0|0:0|0:0|0:0|0:0|0:0,0:0:0:0:
240,216,321868,5,4,0:0:0:0:
240,268,321933,1,0,0:0:0:0:
204,304,321998,1,0,0:0:0:0:
152,304,322064,1,0,0:0:0:0:
112,272,322129,1,0,0:0:0:0:
108,224,322194,1,0,0:0:0:0:
120,176,322259,1,0,0:0:0:0:
160,148,322324,1,0,0:0:0:0:
208,140,322390,6,0,P|244:136|276:120,2,62.5000023841859,4|0|0,0:0|0:0|0:0,0:0:0:0:
384,168,322651,2,0,L|424:232,2,62.5000023841859
304,304,322911,6,0,P|276:320|228:320,1,62.5000023841859,4|0,0:0|0:0,0:0:0:0:
112,272,323084,2,0,P|88:256|76:220,1,62.5000023841859
80,88,323258,2,0,P|96:60|128:40,1,62.5000023841859
324,144,323433,6,0,L|384:168,2,62.5000023841859,4|0|0,0:0|0:0|0:0,0:0:0:0:
120,176,323694,2,0,L|68:164,3,46.8750017881394
392,268,323955,6,0,B|424:268|424:268|460:284,1,62.5,4|0,0:0|0:0,0:0:0:0:
224,332,324085,2,0,P|192:332|160:316,1,62.5
276,110,324216,2,0,P|308:122|328:154,1,62.5
64,144,324346,2,0,P|48:116|48:76,1,62.5
112,272,324477,5,2,0:0:0:0:
216,256,340129,6,0,P|264:256|212:176,1,187.500007152558,4|0,0:0|0:0,0:0:0:0:
112,304,340520,1,0,0:0:0:0:
324,332,340651,5,0,0:0:0:0:
364,320,340716,1,0,0:0:0:0:
396,292,340781,1,0,0:0:0:0:
380,96,340911,6,0,B|348:64|308:76|308:76|284:68|284:68|252:84|192:64,1,187.500007152558,2|0,0:0|0:0,0:0:0:0:
160,267,341433,5,0,0:0:0:0:
180,275,341498,1,0,0:0:0:0:
200,283,341564,1,0,0:0:0:0:
220,291,341629,1,0,0:0:0:0:
236,299,341694,2,0,L|332:335,1,93.7500035762788
460,284,341955,5,0,0:0:0:0:
460,284,342020,1,0,0:0:0:0:
460,284,342085,2,0,B|416:260|416:260|364:244,1,93.7500035762788
96,132,342477,6,0,L|192:168,1,93.7500035762788,4|0,0:0|0:0,0:0:0:0:
300,156,342737,1,0,0:0:0:0:
300,156,342803,1,0,0:0:0:0:
300,156,342868,1,0,0:0:0:0:
300,156,342933,1,0,0:0:0:0:
300,156,342998,2,0,P|336:116|252:120,1,187.500007152558,2|0,0:0|0:0,0:0:0:0:
316,280,343520,5,0,0:0:0:0:
356,264,343585,1,0,0:0:0:0:
384,232,343651,1,0,0:0:0:0:
400,192,343716,1,0,0:0:0:0:
396,148,343781,2,0,B|384:100|384:100|392:56,1,93.7500035762788,4|4,0:0|0:0,0:0:0:0:
200,164,344042,6,0,P|144:156|144:80,1,140.625005364418,2|0,0:0|0:0,0:0:0:0:
224,88,344303,2,0,B|264:112|264:112|280:160,1,93.7500035762788,4|0,0:0|0:0,0:0:0:0:
376,332,344564,6,0,P|344:296|332:252,1,93.7500035762788
328,88,344824,2,0,L|324:36,3,46.8750017881394,4|0|0|0,0:0|0:0|0:0|0:0,0:0:0:0:
336,112,345085,2,0,B|352:168|352:168|380:196|436:168,1,140.625005364418
412,100,345346,6,0,L|448:60,2,46.8750017881394,4|0|0,0:0|0:0|0:0,0:0:0:0:
264,240,345607,1,4,0:0:0:0:
244,260,345672,1,0,0:0:0:0:
224,280,345737,1,0,0:0:0:0:
204,300,345803,1,0,0:0:0:0:
184,320,345868,1,2,0:0:0:0:
136,320,345933,5,0,0:0:0:0:
124,296,345998,1,0,0:0:0:0:
124,268,346064,1,0,0:0:0:0:
136,244,346129,1,0,0:0:0:0:
152,228,346194,1,0,0:0:0:0:
172,220,346259,2,0,P|220:204|248:168,1,93.7500035762788,0|8,0:0|0:0,0:0:0:0:
188,56,346520,5,8,0:0:0:0:
56,276,346651,1,8,0:0:0:0:
312,216,346781,1,8,0:0:0:0:
76,152,346911,5,8,0:0:0:0:
232,296,347042,1,8,0:0:0:0:
256,124,347172,1,8,0:0:0:0:
88,344,347303,1,8,0:0:0:0:
352,272,347433,6,0,P|392:192|336:120,1,187.500007152558,8|2,0:0|0:0,0:0:0:0:
324,116,347759,1,0,0:0:0:0:
312,104,347824,1,0,0:0:0:0:
312,84,347890,1,0,0:0:0:0:
328,72,347955,1,0,0:0:0:0:
344,76,348020,1,0,0:0:0:0:
356,84,348085,1,0,0:0:0:0:
364,92,348151,1,0,0:0:0:0:
376,104,348216,5,4,0:0:0:0:
384,116,348281,1,0,0:0:0:0:
392,128,348346,1,0,0:0:0:0:
400,140,348411,1,0,0:0:0:0:
408,152,348477,6,0,P|424:200|356:200,1,140.625005364418,2|0,0:0|0:0,0:0:0:0:
328,204,348737,2,0,L|228:220,1,93.7500035762788
80,244,348998,5,0,0:0:0:0:
80,244,349064,1,0,0:0:0:0:
80,244,349129,1,0,0:0:0:0:
224,324,349259,6,2,B|256:328|256:328|272:320|272:320|292:328|352:332|352:332|372:324|420:336,1,187.5,4|0,0:0|0:0,1:0:0:0:
480,336,349520,2,0,B|476:288|476:288|464:236,1,93.7500035762788
324,76,349781,2,0,P|332:124|356:164,1,93.7500035762788
196,40,350042,2,0,P|104:60|72:156,1,187.500007152558
132,296,350433,5,0,0:0:0:0:
132,296,350498,1,0,0:0:0:0:
132,296,350564,2,0,B|188:324|240:324|240:324|292:304,1,140.625005364418
328,264,350824,2,0,P|380:248|420:256,1,93.7500035762788
376,136,351085,5,0,0:0:0:0:
368,120,351151,1,0,0:0:0:0:
360,104,351216,1,0,0:0:0:0:
352,88,351281,1,0,0:0:0:0:
320,60,351346,6,2,B|284:56|252:60|252:60|232:52|232:52|200:60|176:44|176:44|144:52|152:72,1,187.5,4|0,0:0|0:0,1:0:0:0:
164,140,351607,2,0,B|168:188|168:188|164:236,1,93.7500035762788
216,328,351868,5,0,0:0:0:0:
236,332,351933,1,0,0:0:0:0:
256,336,351998,1,0,0:0:0:0:
276,340,352064,1,0,0:0:0:0:
292,344,352129,2,0,B|332:352|352:348|352:348|392:352,1,93.7500035762788
452,264,352390,6,0,P|456:212|388:240,1,140.625005364418
324,256,352651,2,0,B|276:264|276:264|232:264|232:264|172:272,1,140.625005364418
108,304,352911,6,0,L|76:216,1,93.7500035762788
184,76,353172,2,0,L|220:168,1,93.7500035762788
324,256,353433,6,2,B|368:256|400:244|400:244|424:216|424:216|420:208|436:184|436:184|448:180|448:132|448:132|428:104|400:108|400:108|372:140|372:140|360:140,1,312.5,4|0,0:0|0:0,1:0:0:0:
348,152,353759,1,0,0:0:0:0:
336,160,353824,1,0,0:0:0:0:
76,176,353955,5,0,0:0:0:0:
96,184,354020,1,0,0:0:0:0:
116,192,354085,1,0,0:0:0:0:
316,268,354216,5,0,0:0:0:0:
296,280,354281,1,0,0:0:0:0:
276,296,354346,1,0,0:0:0:0:
80,328,354477,5,0,0:0:0:0:
112,336,354542,1,0,0:0:0:0:
148,344,354607,1,0,0:0:0:0:
288,344,354737,5,4,0:0:0:0:
326,333,354803,1,0,0:0:0:0:
358,306,354868,1,0,0:0:0:0:
376,270,354933,1,0,0:0:0:0:
400,236,354998,5,4,0:0:0:0:
416,200,355064,1,0,0:0:0:0:
416,160,355129,1,0,0:0:0:0:
404,120,355194,1,0,0:0:0:0:
376,88,355259,5,4,0:0:0:0:
336,96,355324,1,0,0:0:0:0:
296,104,355390,1,0,0:0:0:0:
256,112,355455,1,0,0:0:0:0:
216,128,355520,5,4,0:0:0:0:
221,135,355585,1,0,0:0:0:0:
226,142,355651,1,0,0:0:0:0:
231,149,355716,1,0,0:0:0:0:
240,164,355781,5,4,0:0:0:0:
246,152,355846,1,0,0:0:0:0:
252,141,355911,1,0,0:0:0:0:
258,130,355977,1,0,0:0:0:0:
268,92,356042,5,4,0:0:0:0:
276,114,356107,1,0,0:0:0:0:
285,137,356172,1,0,0:0:0:0:
293,160,356237,1,0,0:0:0:0:
316,188,356303,5,4,0:0:0:0:
330,149,356368,1,0,0:0:0:0:
345,111,356433,1,0,0:0:0:0:
356,73,356498,1,0,0:0:0:0:
376,40,356564,5,4,0:0:0:0:
392,85,356629,1,0,0:0:0:0:
409,139,356694,1,0,0:0:0:0:
427,193,356759,1,0,0:0:0:0:
444,243,356824,2,0,B|412:297|366:289|366:289|348:300|303:300|303:300|279:276|247:277|247:277|235:304,1,250,2|0,1:0|0:0,0:0:0:0:
88,324,357607,5,0,0:0:0:0:
80,300,357672,1,0,0:0:0:0:
72,276,357737,1,0,0:0:0:0:
64,252,357803,1,0,0:0:0:0:
56,228,357868,1,0,0:0:0:0:
80,80,358129,5,0,0:0:0:0:
96,96,358390,1,2,3:0:0:0:
112,112,358651,1,0,0:0:0:0:
196,276,358781,1,0,0:0:0:0:
184,176,358911,1,0,0:0:0:0:
328,332,359172,5,0,0:0:0:0:
344,316,359433,1,0,0:0:0:0:
360,300,359694,1,0,0:0:0:0:
376,284,359955,1,8,3:0:0:0:
420,120,360216,1,0,0:0:0:0:
408,124,360477,1,0,0:0:0:0:
400,128,360737,5,0,0:0:0:0:
268,196,360868,1,0,0:0:0:0:
464,72,360998,1,2,3:0:0:0:
252,72,361259,5,0,0:0:0:0:
240,80,361520,1,0,0:0:0:0:
228,88,361781,1,0,0:0:0:0:
228,88,361846,1,0,0:0:0:0:
228,88,361911,1,0,0:0:0:0:
228,88,361977,1,0,0:0:0:0:
228,88,362042,6,0,L|172:128,1,62.5
164,248,362303,2,0,L|216:212,1,62.5
316,144,362564,1,2,3:0:0:0:
332,152,362824,1,0,0:0:0:0:
348,160,363085,1,8,3:0:0:0:
364,168,363346,5,0,0:0:0:0:
464,244,363477,1,0,0:0:0:0:
344,288,363607,1,0,0:0:0:0:
460,72,363868,1,0,0:0:0:0:
464,64,363933,1,0,0:0:0:0:
468,56,363998,1,0,0:0:0:0:
472,48,364064,1,0,0:0:0:0:
476,40,364129,1,8,3:0:0:0:
296,92,364390,5,0,0:0:0:0:
280,100,364651,1,0,0:0:0:0:
264,108,364911,1,0,0:0:0:0:
128,152,365042,1,0,0:0:0:0:
44,48,365172,5,8,3:0:0:0:
56,56,365433,1,0,0:0:0:0:
68,64,365694,1,0,0:0:0:0:
80,72,365955,1,0,0:0:0:0:
80,72,366020,1,0,0:0:0:0:
80,72,366085,1,0,0:0:0:0:
80,72,366151,1,0,0:0:0:0:
80,72,366216,1,2,3:0:0:0:
124,188,366477,5,0,0:0:0:0:
136,200,366737,1,0,0:0:0:0:
148,212,366998,2,0,L|192:252,1,41.6666666666667
332,348,367171,2,0,L|296:308,1,41.6666666666667
320,220,367520,5,0,0:0:0:0:
324,200,367781,1,0,0:0:0:0:
328,180,368042,1,8,3:0:0:0:
380,40,368303,5,2,3:0:0:0:
388,72,368564,1,0,0:0:0:0:
396,104,368824,1,0,0:0:0:0:
404,136,369085,1,0,0:0:0:0:
428,248,369216,1,0,0:0:0:0:
276,184,369346,6,0,L|256:120,1,62.5,2|0,3:0|0:0,0:0:0:0:
208,260,369607,2,0,L|228:324,1,62.5
104,208,369868,2,0,L|84:144,1,62.5
36,284,370129,2,0,L|56:348,1,62.5
40,184,370390,5,2,3:0:0:0:
48,164,370455,1,0,0:0:0:0:
56,144,370520,1,0,0:0:0:0:
64,128,370585,1,0,0:0:0:0:
72,112,370651,2,0,L|100:52,1,62.5
172,184,370911,2,0,L|144:244,1,62.5
292,152,371172,2,0,L|320:92,1,62.5
392,224,371433,2,0,L|364:284,1,62.5,2|0,3:0|0:0,0:0:0:0:
448,108,371694,1,0,0:0:0:0:
440,328,371824,1,0,0:0:0:0:
304,220,371955,5,0,0:0:0:0:
276,228,372020,1,0,0:0:0:0:
248,240,372085,1,0,0:0:0:0:
220,252,372151,1,0,0:0:0:0:
192,264,372216,2,0,L|128:288,1,62.5
60,208,372477,6,0,L|44:156,1,41.6666666666667
92,96,372650,2,0,L|76:40,1,41.6666666666667
160,156,372823,2,0,L|180:216,1,41.6666666666667
188,80,372998,2,0,L|172:24,1,41.6666666666667
268,116,373171,2,0,L|292:160,1,41.6666666666667
328,68,373345,2,0,L|300:16,1,41.6666666666667
432,88,373520,6,0,B|400:113|405:165|405:165|417:188|417:188|412:209|421:256|432:274|432:274|418:285|405:328,1,250,8|0,3:0|0:0,0:0:0:0:
340,276,374303,5,0,0:0:0:0:
327,283,374368,1,0,0:0:0:0:
315,291,374433,1,0,0:0:0:0:
303,298,374498,1,0,0:0:0:0:
290,306,374564,1,2,3:0:0:0:
176,324,374824,5,0,0:0:0:0:
160,312,375085,1,0,0:0:0:0:
144,300,375346,1,0,0:0:0:0:
36,200,375477,1,8,3:0:0:0:
136,168,375607,1,0,0:0:0:0:
360,244,375868,5,0,0:0:0:0:
348,224,376129,1,0,0:0:0:0:
336,204,376390,1,8,3:0:0:0:
248,48,376651,1,2,3:0:0:0:
240,64,376911,1,0,0:0:0:0:
232,80,377172,1,0,0:0:0:0:
192,184,377303,1,0,0:0:0:0:
328,88,377433,1,0,0:0:0:0:
340,76,377694,5,2,3:0:0:0:
352,64,377955,1,0,0:0:0:0:
364,52,378216,1,0,0:0:0:0:
376,40,378477,5,0,0:0:0:0:
376,40,378542,1,0,0:0:0:0:
376,40,378607,1,0,0:0:0:0:
376,40,378672,1,0,0:0:0:0:
376,40,378737,1,8,3:0:0:0:
440,92,378868,2,0,L|448:164,1,62.5
396,292,379129,2,0,L|388:220,1,62.5
384,304,379520,5,0,0:0:0:0:
372,316,379781,1,8,3:0:0:0:
360,328,380042,1,0,0:0:0:0:
200,296,380303,5,0,0:0:0:0:
212,284,380564,1,0,0:0:0:0:
212,284,380629,1,0,0:0:0:0:
212,284,380694,1,0,0:0:0:0:
212,284,380759,1,0,0:0:0:0:
212,284,380824,2,0,L|260:240,1,62.5,2|0,3:0|0:0,0:0:0:0:
340,164,381085,5,8,3:0:0:0:
408,256,381216,1,0,0:0:0:0:
296,84,381346,1,0,0:0:0:0:
452,168,381477,1,0,0:0:0:0:
208,176,381607,2,0,L|144:184,1,41.6666666666667
296,248,381803,2,0,L|344:240,1,41.6666666666667
68,160,382129,5,0,0:0:0:0:
80,152,382390,1,0,0:0:0:0:
92,144,382651,1,0,0:0:0:0:
92,144,382716,1,0,0:0:0:0:
92,144,382781,1,0,0:0:0:0:
92,144,382846,1,0,0:0:0:0:
92,144,382911,1,8,3:0:0:0:
232,72,383172,5,8,3:0:0:0:
248,84,383433,1,0,0:0:0:0:
264,96,383694,2,0,L|316:132,1,62.5
408,284,383955,2,0,L|352:244,1,62.5,2|0,3:0|0:0,0:0:0:0:
200,256,384216,2,0,L|264:304,1,62.5
80,268,384477,2,0,L|28:224,1,62.5
96,276,384737,1,0,0:0:0:0:
260,332,384998,5,8,3:0:0:0:
272,316,385259,1,0,0:0:0:0:
388,84,385520,5,0,0:0:0:0:
396,104,385781,1,0,0:0:0:0:
396,104,385846,1,0,0:0:0:0:
396,104,385911,1,0,0:0:0:0:
396,104,385977,1,0,0:0:0:0:
396,104,386042,1,2,3:0:0:0:
424,208,386172,5,0,0:0:0:0:
360,284,386303,1,0,0:0:0:0:
264,292,386433,1,0,0:0:0:0:
168,256,386564,1,0,0:0:0:0:
240,200,386694,1,0,0:0:0:0:
168,256,386824,1,0,0:0:0:0:
72,248,386955,1,0,0:0:0:0:
56,156,387085,5,8,3:0:0:0:
56,156,387151,1,0,0:0:0:0:
56,156,387216,1,0,0:0:0:0:
56,156,387281,1,0,0:0:0:0:
56,156,387346,1,0,0:0:0:0:
76,77,387477,5,0,0:0:0:0:
159,46,387607,1,0,0:0:0:0:
136,140,387737,1,0,0:0:0:0:
159,46,387868,1,0,0:0:0:0:
240,72,387998,1,0,0:0:0:0:
296,128,388129,6,0,L|328:196,1,62.5,2|0,3:0|0:0,0:0:0:0:
320,312,388390,2,0,L|288:248,1,62.5
416,296,388651,5,0,0:0:0:0:
424,288,388716,1,0,0:0:0:0:
432,280,388781,1,0,0:0:0:0:
436,268,388846,1,0,0:0:0:0:
444,256,388911,2,0,P|460:224|460:196,1,62.5
296,128,389172,6,0,L|240:148,1,41.6666666666667
188,272,389368,2,0,L|236:252,1,41.6666666666667
80,232,389498,2,0,L|24:252,1,41.6666666666667
136,136,389694,2,0,L|184:124,1,41.6666666666667
240,44,389890,2,0,L|292:36,1,41.6666666666667
376,52,390020,2,0,L|436:40,1,41.6666666666667
468,100,390216,6,0,P|430:150|366:134,1,125
136,72,390737,5,0,0:0:0:0:
148,88,390998,1,0,0:0:0:0:
148,88,391064,1,0,0:0:0:0:
148,88,391129,1,0,0:0:0:0:
148,88,391194,1,0,0:0:0:0:
148,88,391259,1,0,0:0:0:0:
160,248,391520,5,0,0:0:0:0:
168,256,391781,1,0,0:0:0:0:
176,264,392042,1,0,0:0:0:0:
268,328,392172,1,0,0:0:0:0:
372,252,392303,1,0,0:0:0:0:
384,232,392564,1,0,0:0:0:0:
396,216,392824,1,0,0:0:0:0:
408,196,393085,1,0,0:0:0:0:
476,84,393346,5,0,0:0:0:0:
460,88,393607,1,0,0:0:0:0:
444,92,393868,1,0,0:0:0:0:
428,96,394129,1,0,0:0:0:0:
316,172,394259,1,0,0:0:0:0:
336,284,394390,2,0,L|356:348,1,62.5
256,308,394651,2,0,L|236:240,1,62.5
120,220,394911,5,0,0:0:0:0:
128,208,395172,1,0,0:0:0:0:
128,208,395237,1,0,0:0:0:0:
128,208,395303,1,0,0:0:0:0:
128,208,395368,1,0,0:0:0:0:
128,208,395433,2,0,L|168:152,1,62.5
316,172,395694,2,0,L|272:236,1,62.5
448,128,395955,5,0,0:0:0:0:
448,144,396216,1,0,0:0:0:0:
448,160,396477,1,0,0:0:0:0:
448,176,396737,1,0,0:0:0:0:
424,304,396868,1,0,0:0:0:0:
264,324,396998,2,0,L|192:332,1,62.5
88,300,397259,5,0,0:0:0:0:
80,296,397324,1,0,0:0:0:0:
72,288,397390,1,0,0:0:0:0:
68,280,397455,1,0,0:0:0:0:
68,272,397520,1,0,0:0:0:0:
148,160,397781,5,0,0:0:0:0:
164,152,398042,1,0,0:0:0:0:
184,144,398303,1,0,0:0:0:0:
300,152,398433,1,0,0:0:0:0:
320,256,398564,1,0,0:0:0:0:
452,328,398824,5,0,0:0:0:0:
448,308,399085,1,0,0:0:0:0:
444,288,399346,1,0,0:0:0:0:
444,288,399411,1,0,0:0:0:0:
444,288,399477,1,0,0:0:0:0:
444,288,399542,1,0,0:0:0:0:
444,288,399607,1,0,0:0:0:0:
380,60,399868,5,0,0:0:0:0:
380,76,400129,1,0,0:0:0:0:
380,92,400390,2,0,L|384:144,1,41.6666666666667
444,288,400563,2,0,L|440:228,1,41.6666666666667
332,304,400911,5,0,0:0:0:0:
328,280,401172,1,0,0:0:0:0:
324,252,401433,1,0,0:0:0:0:
200,48,401694,5,0,0:0:0:0:
204,68,401955,1,0,0:0:0:0:
208,88,402216,2,0,L|224:152,1,62.5
188,264,402477,2,0,L|168:192,1,62.5
244,320,402737,5,0,0:0:0:0:
320,308,402868,1,0,0:0:0:0:
380,264,402998,1,0,0:0:0:0:
400,196,403129,1,0,0:0:0:0:
388,124,403259,1,0,0:0:0:0:
328,172,403390,1,0,0:0:0:0:
400,196,403520,5,0,0:0:0:0:
464,156,403651,1,0,0:0:0:0:
472,80,403781,1,0,0:0:0:0:
472,80,403846,1,0,0:0:0:0:
472,80,403911,1,0,0:0:0:0:
472,80,403977,1,0,0:0:0:0:
472,80,404042,1,0,0:0:0:0:
396,44,404172,1,0,0:0:0:0:
312,56,404303,1,0,0:0:0:0:
364,120,404433,1,0,0:0:0:0:
312,56,404564,1,0,0:0:0:0:
260,120,404694,1,0,0:0:0:0:
184,156,404824,6,0,P|152:160|108:152,1,62.5
196,44,405085,2,0,P|236:40|264:48,1,62.5
308,128,405346,1,0,0:0:0:0:
312,144,405411,1,0,0:0:0:0:
316,160,405477,1,0,0:0:0:0:
320,176,405542,1,0,0:0:0:0:
324,192,405607,2,0,L|344:256,1,62.5
236,328,405868,6,0,P|204:340|180:336,1,41.6666666666667
96,284,406064,2,0,L|68:232,1,41.6666666666667
132,152,406215,2,0,L|156:200,1,41.6666666666667
280,220,406390,2,0,L|256:176,1,41.6666666666667
360,80,406563,2,0,L|388:124,1,41.6666666666667
477,265,406736,2,0,L|464:220,1,41.6666666666667
356,252,406911,6,0,B|416:272|416:272|492:264,1,125
396,56,407433,1,0,0:0:0:0:
408,72,407694,5,0,0:0:0:0:
408,72,407759,1,0,0:0:0:0:
408,72,407824,1,0,0:0:0:0:
408,72,407890,1,0,0:0:0:0:
408,72,407955,1,0,0:0:0:0:
444,240,408216,5,0,0:0:0:0:
432,256,408477,1,0,0:0:0:0:
420,272,408737,1,0,0:0:0:0:
296,344,408868,1,0,0:0:0:0:
156,264,408998,1,0,0:0:0:0:
172,268,409259,1,0,0:0:0:0:
184,272,409520,1,0,0:0:0:0:
196,276,409781,1,0,0:0:0:0:
392,320,410042,5,0,0:0:0:0:
220,116,410303,1,0,0:0:0:0:
232,128,410564,1,0,0:0:0:0:
244,140,410824,1,0,0:0:0:0:
256,152,411085,2,0,L|304:200,1,62.5
48,96,411607,5,0,0:0:0:0:
64,124,411868,1,0,0:0:0:0:
64,124,411933,1,0,0:0:0:0:
64,124,411998,1,0,0:0:0:0:
64,124,412064,1,0,0:0:0:0:
64,124,412129,2,0,L|92:184,1,62.5
196,240,412390,2,0,L|168:176,1,62.5
120,80,412651,1,0,0:0:0:0:
238,110,413172,5,0,0:0:0:0:
368,151,413433,1,0,0:0:0:0:
325,282,413694,1,0,0:0:0:0:
196,240,413955,1,0,0:0:0:0:
184,236,414020,1,0,0:0:0:0:
172,232,414085,1,0,0:0:0:0:
160,228,414151,1,0,0:0:0:0:
148,224,414216,1,0,0:0:0:0:
48,192,414346,1,0,0:0:0:0:
144,56,414607,5,0,0:0:0:0:
238,110,414737,1,0,0:0:0:0:
344,72,414868,1,0,0:0:0:0:
416,280,415129,5,0,0:0:0:0:
416,280,415194,1,0,0:0:0:0:
416,280,415259,1,0,0:0:0:0:
144,324,415781,5,0,0:0:0:0:
128,304,416042,1,0,0:0:0:0:
128,304,416107,1,0,0:0:0:0:
128,304,416172,1,0,0:0:0:0:
128,304,416237,1,0,0:0:0:0:
128,304,416303,1,0,0:0:0:0:
140,48,416564,5,0,0:0:0:0:
152,64,416824,1,0,0:0:0:0:
164,80,417085,1,0,0:0:0:0:
176,96,417346,1,0,0:0:0:0:
320,144,417607,5,0,0:0:0:0:
340,170,417868,1,0,0:0:0:0:
360,197,418129,1,0,0:0:0:0:
380,224,418390,1,0,0:0:0:0:
400,252,418651,1,0,0:0:0:0:
256,320,418911,5,0,0:0:0:0:
240,304,419172,1,0,0:0:0:0:
240,304,419237,1,0,0:0:0:0:
240,304,419303,1,0,0:0:0:0:
240,304,419368,1,0,0:0:0:0:
240,304,419433,6,0,L|192:264,1,62.5
160,136,419694,2,0,L|216:188,1,62.5
252,108,419955,1,0,0:0:0:0:
192,64,420085,1,0,0:0:0:0:
120,68,420216,1,0,0:0:0:0:
80,124,420346,1,0,0:0:0:0:
64,192,420477,5,0,0:0:0:0:
64,208,420542,1,0,0:0:0:0:
64,224,420607,1,0,0:0:0:0:
64,240,420672,1,0,0:0:0:0:
64,256,420737,2,0,L|64:320,1,62.5
172,260,420998,2,0,L|172:192,1,62.5
264,228,421259,5,0,0:0:0:0:
308,292,421390,1,0,0:0:0:0:
384,288,421520,1,0,0:0:0:0:
428,228,421651,2,0,P|452:208|488:200,1,62.5
352,184,421911,2,0,P|332:156|324:124,1,62.5
324,120,422107,1,0,0:0:0:0:
324,112,422172,1,0,0:0:0:0:
328,104,422237,1,0,0:0:0:0:
332,96,422303,1,0,0:0:0:0:
428,64,422433,5,0,0:0:0:0:
448,184,422564,2,0,L|452:244,2,41.6666666666667
396,264,422824,2,0,L|400:324,2,41.6666666666667
308,236,423085,1,0,0:0:0:0:
272,228,423171,1,0,0:0:0:0:
236,236,423258,1,0,0:0:0:0:
208,260,423346,1,0,0:0:0:0:
200,296,423432,2,0,L|192:344,1,41.6666666666667
116,324,423607,5,0,0:0:0:0:
108,304,423868,1,0,0:0:0:0:
100,284,424129,1,0,0:0:0:0:
96,184,424390,5,0,0:0:0:0:
100,176,424455,1,0,0:0:0:0:
104,168,424520,1,0,0:0:0:0:
108,160,424585,1,0,0:0:0:0:
112,152,424651,1,0,0:0:0:0:
192,60,424911,5,0,0:0:0:0:
204,76,425172,1,0,0:0:0:0:
216,92,425433,1,0,0:0:0:0:
328,208,425564,1,0,0:0:0:0:
368,96,425694,1,0,0:0:0:0:
428,256,425955,5,0,0:0:0:0:
432,276,426216,1,0,0:0:0:0:
436,296,426477,1,0,0:0:0:0:
224,304,426737,5,0,0:0:0:0:
440,316,426998,1,0,0:0:0:0:
144,244,427259,1,0,0:0:0:0:
144,224,427520,1,0,0:0:0:0:
176,112,427651,1,0,0:0:0:0:
264,244,427781,1,0,0:0:0:0:
396,144,428042,5,0,0:0:0:0:
388,120,428303,1,0,0:0:0:0:
380,96,428564,1,0,0:0:0:0:
380,96,428629,1,0,0:0:0:0:
380,96,428694,1,0,0:0:0:0:
380,96,428759,1,0,0:0:0:0:
380,96,428824,1,0,0:0:0:0:
304,108,428955,5,0,0:0:0:0:
240,140,429085,1,0,0:0:0:0:
240,208,429216,1,0,0:0:0:0:
276,268,429346,1,0,0:0:0:0:
128,324,429868,5,0,0:0:0:0:
104,308,430129,1,0,0:0:0:0:
72,140,430259,1,0,0:0:0:0:
144,192,430390,1,0,0:0:0:0:
296,216,430651,5,0,0:0:0:0:
312,220,430716,1,0,0:0:0:0:
328,224,430781,1,0,0:0:0:0:
344,228,430846,1,0,0:0:0:0:
360,232,430911,1,0,0:0:0:0:
452,336,431172,1,0,0:0:0:0:
412,76,431433,1,0,0:0:0:0:
252,136,431694,5,0,0:0:0:0:
148,152,431824,1,0,0:0:0:0:
360,160,431955,1,0,0:0:0:0:
372,168,432216,1,0,0:0:0:0:
384,176,432477,1,0,0:0:0:0:
396,184,432737,1,0,0:0:0:0:
396,184,432803,1,0,0:0:0:0:
396,184,432868,1,0,0:0:0:0:
396,184,432933,1,0,0:0:0:0:
396,184,432998,1,0,0:0:0:0:
448,324,433259,5,0,0:0:0:0:
312,304,433520,1,0,0:0:0:0:
212,188,433781,2,0,P|216:164|236:132,1,62.5
280,72,433977,2,0,P|304:60|324:56,1,31.25
132,112,434303,5,0,0:0:0:0:
120,128,434564,1,0,0:0:0:0:
108,144,434824,1,0,0:0:0:0:
96,160,435085,1,0,0:0:0:0:
36,232,435346,1,0,0:0:0:0:
88,312,435607,5,0,0:0:0:0:
104,316,435737,1,0,0:0:0:0:
120,320,435868,1,0,0:0:0:0:
136,324,435998,1,0,0:0:0:0:
152,328,436129,2,0,L|220:344,1,62.5
308,344,436390,2,0,P|344:340|372:324,1,62.5
408,200,436651,2,0,B|416:236|416:236|416:268,1,62.5
332,168,436911,2,0,B|324:136|324:136|324:100,1,62.5
404,52,437172,5,0,0:0:0:0:
404,52,437237,1,0,0:0:0:0:
404,52,437303,1,0,0:0:0:0:
404,52,437368,1,0,0:0:0:0:
404,52,437433,1,0,0:0:0:0:
456,144,437564,1,0,0:0:0:0:
312,92,437694,6,0,L|248:72,1,62.5
332,168,437955,2,0,L|392:188,1,62.5
268,212,438216,2,0,L|200:192,1,62.5
288,284,438477,2,0,L|352:304,1,62.5
208,320,438737,5,0,0:0:0:0:
196,312,438803,1,0,0:0:0:0:
184,304,438868,1,0,0:0:0:0:
172,296,438933,1,0,0:0:0:0:
160,288,438998,1,0,0:0:0:0:
92,168,439129,5,0,0:0:0:0:
224,120,439259,2,0,L|216:76,1,41.6666666666667
268,212,439432,2,0,L|280:264,1,41.6666666666667
312,96,439606,2,0,L|296:40,1,41.6666666666667
368,200,439781,2,0,L|384:248,1,41.6666666666667
408,84,439977,2,0,L|396:32,1,41.6666666666667
468,184,440107,2,0,L|480:232,1,41.6666666666667
312,244,440303,2,0,P|260:264|188:256,1,125
200,100,440824,5,0,0:0:0:0:
352,144,441085,1,0,0:0:0:0:
364,148,441151,1,0,0:0:0:0:
376,152,441216,1,0,0:0:0:0:
388,156,441281,1,0,0:0:0:0:
400,160,441346,1,0,0:0:0:0:
444,336,441607,5,0,0:0:0:0:
436,320,441868,1,0,0:0:0:0:
428,300,442129,1,0,0:0:0:0:
292,256,442259,1,0,0:0:0:0:
468,220,442390,1,0,0:0:0:0:
460,200,442651,1,0,0:0:0:0:
452,180,442911,1,0,0:0:0:0:
444,164,443172,1,0,0:0:0:0:
348,56,443433,5,0,0:0:0:0:
336,184,443694,1,0,0:0:0:0:
340,200,443955,1,0,0:0:0:0:
344,216,444216,1,0,0:0:0:0:
348,232,444477,1,0,0:0:0:0:
192,324,444737,5,0,0:0:0:0:
184,296,444998,1,0,0:0:0:0:
176,268,445259,1,0,0:0:0:0:
176,268,445324,1,0,0:0:0:0:
176,268,445390,1,0,0:0:0:0:
176,268,445455,1,0,0:0:0:0:
176,268,445520,2,0,L|156:204,1,62.5
264,256,445781,2,0,L|284:320,1,62.5
364,304,446042,1,0,0:0:0:0:
416,68,446564,5,0,0:0:0:0:
176,112,446824,1,0,0:0:0:0:
392,208,447085,1,0,0:0:0:0:
240,56,447346,1,0,0:0:0:0:
240,56,447411,1,0,0:0:0:0:
240,56,447477,1,0,0:0:0:0:
240,56,447542,1,0,0:0:0:0:
240,56,447607,1,0,0:0:0:0:
268,168,447737,1,0,0:0:0:0:
156,320,447998,5,0,0:0:0:0:
116,212,448129,1,0,0:0:0:0:
176,112,448259,5,0,0:0:0:0:
208,216,448390,1,0,0:0:0:0:
240,320,448520,1,0,0:0:0:0:
244,332,448585,1,0,0:0:0:0:
248,344,448651,1,0,0:0:0:0:
368,296,448911,5,0,0:0:0:0:
364,272,449172,1,0,0:0:0:0:
360,248,449433,1,0,0:0:0:0:
360,248,449498,1,0,0:0:0:0:
360,248,449564,1,0,0:0:0:0:
360,248,449629,1,0,0:0:0:0:
360,248,449694,1,0,0:0:0:0:
384,84,449955,5,0,0:0:0:0:
368,92,450216,1,0,0:0:0:0:
352,100,450477,1,0,0:0:0:0:
336,108,450737,1,0,0:0:0:0:
112,132,450998,5,0,0:0:0:0:
124,152,451259,1,0,0:0:0:0:
136,172,451520,1,0,0:0:0:0:
148,192,451781,1,0,0:0:0:0:
300,320,452042,5,0,0:0:0:0:
296,296,452303,1,0,0:0:0:0:
292,272,452564,1,0,0:0:0:0:
292,272,452629,1,0,0:0:0:0:
292,272,452694,1,0,0:0:0:0:
292,272,452759,1,0,0:0:0:0:
292,272,452824,5,0,0:0:0:0:
232,208,452955,1,0,0:0:0:0:
348,220,453085,1,0,0:0:0:0:
276,92,453216,1,0,0:0:0:0:
292,272,453346,1,0,0:0:0:0:
356,128,453477,1,0,0:0:0:0:
196,140,453607,1,0,0:0:0:0:
448,104,453737,1,0,0:0:0:0:
432,260,453868,5,0,0:0:0:0:
432,260,453933,1,0,0:0:0:0:
432,260,453998,1,0,0:0:0:0:
432,260,454064,1,0,0:0:0:0:
432,260,454129,2,0,L|432:328,1,62.5
352,224,454390,2,0,L|352:156,1,62.5
276,120,454651,5,0,0:0:0:0:
200,148,454781,1,0,0:0:0:0:
180,220,454911,1,0,0:0:0:0:
208,288,455042,1,0,0:0:0:0:
280,312,455172,1,0,0:0:0:0:
348,280,455303,1,0,0:0:0:0:
376,172,455433,5,0,0:0:0:0:
380,160,455498,1,0,0:0:0:0:
384,148,455564,1,0,0:0:0:0:
388,136,455629,1,0,0:0:0:0:
392,124,455694,1,0,0:0:0:0:
424,44,455824,1,0,0:0:0:0:
468,156,455955,6,0,L|472:208,1,41.6666666666667
436,324,456128,2,0,L|424:272,1,41.6666666666667
376,172,456302,2,0,L|368:228,1,41.6666666666667
328,340,456476,2,0,L|324:288,1,41.6666666666667
256,144,456650,2,0,L|252:192,1,41.6666666666667
184,328,456823,2,0,L|176:264,1,41.6666666666667
152,152,456998,1,0,0:0:0:0:
