osu file format v14

[General]
AudioFilename: audio.mp3
AudioLeadIn: 0
PreviewTime: -1
Countdown: 1
SampleSet: None
StackLeniency: 0.7
Mode: 2
LetterboxInBreaks: 0
WidescreenStoryboard: 1

[Editor]
DistanceSpacing: 0.8
BeatDivisor: 1
GridSize: 32
TimelineZoom: 1

[Metadata]
Title:Epic intro montage omg
TitleUnicode:Epic intro montage omg
Artist:Forlan TV
ArtistUnicode:Forlan TV
Creator:Corn-
Version:BonswAR10AtousLesAmis
Source:
Tags:
BeatmapID:1611490
BeatmapSetID:765714

[Difficulty]
HPDrainRate:8
CircleSize:4
OverallDifficulty:7
ApproachRate:10
SliderMultiplier:1.4
SliderTickRate:1

[Events]
//Background and Video events
0,0,"background.png",0,0
//Break Periods
//Storyboard Layer 0 (Background)
//Storyboard Layer 1 (Fail)
//Storyboard Layer 2 (Pass)
//Storyboard Layer 3 (Foreground)
//Storyboard Sound Samples

[TimingPoints]
23896.0036112446,156.887354879197,4,1,0,100,1,0

[HitObjects]
0,288,49,6,0,B|128:192|32:160|64:192,3,140
512,288,676,2,0,B|384:192|480:160|448:192,3,140
0,288,1304,2,0,B|128:192|32:160|64:192,3,140
512,288,1931,2,0,B|384:192|480:160|448:192,3,140
0,288,2559,2,0,B|128:192|32:160|64:192,3,140
512,288,3186,2,0,B|384:192|480:160|448:192,3,140
0,288,3814,2,0,B|128:192|32:160|64:192,3,140
512,288,4441,2,0,B|384:192|480:160|448:192,3,140
0,288,5069,2,0,B|128:192|32:160|64:192,3,140
512,288,5696,2,0,B|384:192|480:160|448:192,3,140
0,288,6324,2,0,B|128:192|32:160|64:192,3,140
512,288,6951,2,0,B|384:192|480:160|448:192,3,140
0,288,7579,2,0,B|128:192|32:160|64:192,3,140
512,288,8206,2,0,B|384:192|480:160|448:192,3,140
0,288,8834,2,0,B|128:192|32:160|64:192,3,140
512,288,9461,2,0,B|384:192|480:160|448:192,3,140
0,288,10089,2,0,B|128:192|32:160|64:192,3,140
512,288,10716,2,0,B|384:192|480:160|448:192,3,140
0,288,11344,2,0,B|128:192|32:160|64:192,3,140
512,288,11971,2,0,B|384:192|480:160|448:192,3,140
0,288,12599,2,0,B|128:192|32:160|64:192,3,140
512,288,13226,2,0,B|384:192|480:160|448:192,3,140
0,288,13854,2,0,B|128:192|32:160|64:192,3,140
512,288,14481,2,0,B|384:192|480:160|448:192,3,140
0,288,15109,2,0,B|128:192|32:160|64:192,3,140
512,288,15736,2,0,B|384:192|480:160|448:192,3,140
0,288,16364,2,0,B|128:192|32:160|64:192,3,140
512,288,16991,2,0,B|384:192|480:160|448:192,3,140
0,288,17619,2,0,B|128:192|32:160|64:192,3,140
512,288,18246,2,0,B|384:192|480:160|448:192,3,140
0,288,18874,2,0,B|128:192|32:160|64:192,3,140
512,288,19501,2,0,B|384:192|480:160|448:192,3,140
0,288,20130,2,0,B|128:192|32:160|64:192,3,140
512,288,20757,2,0,B|384:192|480:160|448:192,3,140
0,288,21385,2,0,B|128:192|32:160|64:192,3,140
512,288,22012,2,0,B|384:192|480:160|448:192,3,140
0,288,22640,2,0,B|128:192|32:160|64:192,3,140
512,288,23267,2,0,B|384:192|480:160|448:192,3,140
0,288,23895,2,0,B|128:192|32:160|64:192,3,140
512,288,24522,2,0,B|384:192|480:160|448:192,3,140
0,288,25150,2,0,B|128:192|32:160|64:192,3,140
512,288,25777,2,0,B|384:192|480:160|448:192,3,140
0,288,26405,2,0,B|128:192|32:160|64:192,3,140
512,288,27032,2,0,B|384:192|480:160|448:192,3,140
0,288,27660,2,0,B|128:192|32:160|64:192,3,140
512,288,28287,2,0,B|384:192|480:160|448:192,3,140
0,288,28915,2,0,B|128:192|32:160|64:192,3,140
512,288,29542,2,0,B|384:192|480:160|448:192,3,140
0,288,30170,2,0,B|128:192|32:160|64:192,3,140
512,288,30797,2,0,B|384:192|480:160|448:192,3,140
0,288,31425,2,0,B|128:192|32:160|64:192,3,140
512,288,32052,2,0,B|384:192|480:160|448:192,3,140
0,288,32680,2,0,B|128:192|32:160|64:192,3,140
512,288,33307,2,0,B|384:192|480:160|448:192,3,140
0,288,33935,2,0,B|128:192|32:160|64:192,3,140
512,288,34562,2,0,B|384:192|480:160|448:192,3,140
0,288,35190,2,0,B|128:192|32:160|64:192,3,140
512,288,35817,2,0,B|384:192|480:160|448:192,3,140
0,288,36445,2,0,B|128:192|32:160|64:192,3,140
512,288,37072,2,0,B|384:192|480:160|448:192,3,140
0,288,37700,2,0,B|128:192|32:160|64:192,3,140
512,288,38327,2,0,B|384:192|480:160|448:192,3,140
0,288,38955,2,0,B|128:192|32:160|64:192,3,140
512,288,39582,2,0,B|384:192|480:160|448:192,3,140
0,288,40212,2,0,B|128:192|32:160|64:192,3,140
512,288,40839,2,0,B|384:192|480:160|448:192,3,140
0,288,41467,2,0,B|128:192|32:160|64:192,3,140
512,288,42094,2,0,B|384:192|480:160|448:192,3,140
0,288,42722,2,0,B|128:192|32:160|64:192,3,140
512,288,43349,2,0,B|384:192|480:160|448:192,3,140
0,288,43977,2,0,B|128:192|32:160|64:192,3,140
512,288,44604,2,0,B|384:192|480:160|448:192,3,140
0,288,45232,2,0,B|128:192|32:160|64:192,3,140
512,288,45859,2,0,B|384:192|480:160|448:192,3,140
0,288,46487,2,0,B|128:192|32:160|64:192,3,140
512,288,47114,2,0,B|384:192|480:160|448:192,3,140
0,288,47742,2,0,B|128:192|32:160|64:192,3,140
512,288,48369,2,0,B|384:192|480:160|448:192,3,140
0,288,48997,2,0,B|128:192|32:160|64:192,3,140
512,288,49624,2,0,B|384:192|480:160|448:192,3,140
0,288,50252,2,0,B|128:192|32:160|64:192,3,140
512,288,50879,2,0,B|384:192|480:160|448:192,3,140
0,288,51507,2,0,B|128:192|32:160|64:192,3,140
512,288,52134,2,0,B|384:192|480:160|448:192,3,140
0,288,52762,2,0,B|128:192|32:160|64:192,3,140
512,288,53389,2,0,B|384:192|480:160|448:192,3,140
0,288,54017,2,0,B|128:192|32:160|64:192,3,140
512,288,54644,2,0,B|384:192|480:160|448:192,3,140
0,288,55272,2,0,B|128:192|32:160|64:192,3,140
512,288,55899,2,0,B|384:192|480:160|448:192,3,140
0,288,56527,2,0,B|128:192|32:160|64:192,3,140
