osu file format v14

[General]
AudioFilename: audio.mp3
AudioLeadIn: 0
PreviewTime: 93946
Countdown: 0
SampleSet: Soft
StackLeniency: 0.7
Mode: 3
LetterboxInBreaks: 0
SpecialStyle: 0
WidescreenStoryboard: 0

[Editor]
DistanceSpacing: 0.5
BeatDivisor: 4
GridSize: 32
TimelineZoom: 2.2

[Metadata]
Title:You May Not Want To Hear This But
TitleUnicode:You May Not Want To Hear This But
Artist:Foreground Eclipse
ArtistUnicode:Foreground Eclipse
Creator:Eternalie
Version:Unforgotten
Source:東方Project
Tags:Steins 封じられた妖怪 ~ Lost Place 暗闇の風穴 めらみぽっぷ Seated with Liquor meramipop merami teto draw the emotional touhou 東方地霊殿 ~ Subterranean Animism ZUN
BeatmapID:997734
BeatmapSetID:466150

[Difficulty]
HPDrainRate:8
CircleSize:6
OverallDifficulty:8
ApproachRate:5
SliderMultiplier:1.4
SliderTickRate:1

[Events]
//Background and Video events
0,0,"1321352.jpg",0,0
//Break Periods
//Storyboard Layer 0 (Background)
//Storyboard Layer 1 (Fail)
//Storyboard Layer 2 (Pass)
//Storyboard Layer 3 (Foreground)
//Storyboard Sound Samples

[TimingPoints]
5988,314.13612565445,4,2,0,30,1,0
93946,-100,4,2,0,30,0,1
114050,-100,4,2,0,30,0,0
174364,-100,4,2,0,30,0,1
194469,-100,4,2,0,30,0,0
214574,-100,4,2,0,30,0,1
234679,-100,4,2,0,30,0,0

[HitObjects]
469,192,3474,5,0,0:0:0:40:LR_Drum Rpd Fast .wav
384,192,3553,1,0,0:0:0:40:LR_Drum Rpd Fast .wav
42,192,3631,1,0,0:0:0:40:LR_Drum Rpd Fast .wav
128,192,3710,1,0,0:0:0:40:LR_Drum Rpd Fast .wav
298,192,3789,1,0,0:0:0:40:LR_Drum Rpd Fast .wav
469,192,3946,1,0,0:0:0:0:
384,192,3946,1,0,0:0:0:40:LR_Drum Kick Wet Fast.wav
128,192,4103,1,0,0:0:0:40:LR_Drum Rpd Fast .wav
42,192,4103,1,0,0:0:0:0:
298,192,4260,1,0,0:0:0:0:
384,192,4260,1,0,0:0:0:0:
128,192,4574,128,2,4731:0:0:0:0:
469,192,4574,1,0,0:0:0:40:LR_Drum Kick Wet Fast.wav
213,192,4574,1,0,0:0:0:0:
128,192,4888,128,2,5045:0:0:0:0:
469,192,4888,1,0,0:0:0:40:LR_Drum Kick Wet Fast.wav
213,192,4888,1,0,0:0:0:0:
128,192,5202,128,2,5359:0:0:0:0:
469,192,5202,1,0,0:0:0:40:LR_Drum Kick Wet Fast.wav
213,192,5202,1,0,0:0:0:0:
384,192,5281,1,0,0:0:0:0:
42,192,5359,1,4,0:0:0:0:
298,192,5359,1,0,0:0:0:40:LR_Drum Rpd Fast .wav
469,192,5516,1,0,0:0:0:0:
213,192,5516,1,0,0:0:0:40:LR_Drum Kick Wet Fast.wav
128,192,5988,1,0,0:0:0:0:
384,192,5988,1,0,0:0:0:40:LR_Drum Kick Wet Fast.wav
42,192,5988,1,4,0:0:0:0:
213,192,6145,1,0,0:0:0:0:
384,192,6302,1,0,0:0:0:0:
469,192,6459,1,0,0:0:0:0:
128,192,6459,1,0,0:0:0:40:LR_Drum Kick Wet Fast.wav
298,192,6616,1,0,0:0:0:0:
42,192,6616,1,0,0:0:0:40:LR_Drum Rpd Fast .wav
128,192,6773,1,0,0:0:0:40:LR_Drum Kick Wet Fast.wav
213,192,6773,1,0,0:0:0:0:
384,192,6930,1,0,0:0:0:40:LR_Drum Kick Wet Fast.wav
469,192,6930,1,0,0:0:0:0:
213,192,7087,1,0,0:0:0:0:
42,192,7087,1,0,0:0:0:40:LR_Drum Kick Wet Fast.wav
384,192,7244,1,0,0:0:0:0:
128,192,7401,1,0,0:0:0:40:LR_Drum Kick Wet Fast.wav
298,192,7401,1,0,0:0:0:0:
469,192,7558,1,0,0:0:0:0:
42,192,7558,1,0,0:0:0:40:LR_Drum Kick Wet Fast.wav
298,192,7715,1,0,0:0:0:0:
469,192,7872,1,0,0:0:0:0:
213,192,7872,1,0,0:0:0:40:LR_Drum Rpd Fast .wav
298,192,8029,1,0,0:0:0:0:
128,192,8029,1,0,0:0:0:40:LR_Drum Kick Wet Fast.wav
469,192,8186,1,0,0:0:0:0:
298,192,8344,1,0,0:0:0:0:
213,192,8501,1,0,0:0:0:0:
128,192,8501,1,0,0:0:0:40:LR_Drum Kick Wet Fast.wav
384,192,8658,1,0,0:0:0:0:
298,192,8658,1,0,0:0:0:40:LR_Drum Kick Wet Fast.wav
128,192,8815,1,0,0:0:0:0:
384,192,8972,1,0,0:0:0:40:LR_Drum Kick Wet Fast.wav
469,192,8972,1,0,0:0:0:0:
213,192,9129,1,0,0:0:0:0:
42,192,9129,1,0,0:0:0:40:LR_Drum Rpd Fast .wav
298,192,9286,1,0,0:0:0:40:LR_Drum Kick Wet Fast.wav
469,192,9286,1,0,0:0:0:0:
128,192,9443,1,0,0:0:0:40:LR_Drum Kick Wet Fast.wav
213,192,9443,1,0,0:0:0:0:
384,192,9600,1,0,0:0:0:40:LR_Drum Kick Wet Fast.wav
469,192,9600,1,0,0:0:0:0:
128,192,9757,1,0,0:0:0:0:
469,192,9914,1,0,0:0:0:0:
213,192,9914,1,0,0:0:0:40:LR_Drum Kick Wet Fast.wav
298,192,10071,1,0,0:0:0:0:
42,192,10071,1,0,0:0:0:40:LR_Drum Kick Wet Fast.wav
469,192,10228,1,0,0:0:0:0:
384,192,10385,128,0,10700:0:0:0:0:
128,192,10385,1,0,0:0:0:40:LR_Drum Rpd Fast .wav
298,192,10542,1,0,0:0:0:40:LR_Drum Kick Wet Fast.wav
42,192,10700,1,0,0:0:0:0:
469,192,10700,1,0,0:0:0:0:
213,192,11014,1,0,0:0:0:40:LR_Drum Kick Wet Fast.wav
469,192,11014,1,0,0:0:0:0:
384,192,11014,1,4,0:0:0:0:
42,192,11171,1,0,0:0:0:0:
298,192,11171,1,0,0:0:0:50:LR_Drum Kick Wet Fast.wav
213,192,11328,1,0,0:0:0:0:
128,192,11485,1,0,0:0:0:50:LR_Drum Kick Wet Fast.wav
469,192,11485,1,0,0:0:0:0:
384,192,11642,1,0,0:0:0:0:
42,192,11642,1,0,0:0:0:50:LR_Drum Rpd Fast .wav
128,192,11799,1,0,0:0:0:50:LR_Drum Kick Wet Fast.wav
298,192,11799,1,0,0:0:0:0:
42,192,11956,1,0,0:0:0:50:LR_Drum Kick Wet Fast.wav
469,192,11956,1,0,0:0:0:0:
298,192,12113,1,0,0:0:0:0:
213,192,12113,1,0,0:0:0:50:LR_Drum Kick Wet Fast.wav
42,192,12270,1,0,0:0:0:0:
298,192,12427,1,0,0:0:0:0:
128,192,12427,1,0,0:0:0:50:LR_Drum Kick Wet Fast.wav
469,192,12584,1,0,0:0:0:0:
42,192,12584,1,0,0:0:0:50:LR_Drum Kick Wet Fast.wav
384,192,12741,1,0,0:0:0:0:
469,192,12898,1,0,0:0:0:0:
128,192,12898,1,0,0:0:0:50:LR_Drum Rpd Fast .wav
213,192,13056,1,0,0:0:0:0:
42,192,13056,1,0,0:0:0:50:LR_Drum Kick Wet Fast.wav
469,192,13213,1,0,0:0:0:0:
213,192,13370,1,0,0:0:0:0:
384,192,13527,1,0,0:0:0:0:
42,192,13527,1,0,0:0:0:50:LR_Drum Kick Wet Fast.wav
128,192,13684,1,0,0:0:0:50:LR_Drum Kick Wet Fast.wav
298,192,13684,1,0,0:0:0:0:
384,192,13841,1,0,0:0:0:0:
42,192,13998,1,0,0:0:0:50:LR_Drum Kick Wet Fast.wav
469,192,13998,1,0,0:0:0:0:
298,192,14155,1,0,0:0:0:0:
128,192,14155,1,0,0:0:0:50:LR_Drum Rpd Fast .wav
42,192,14312,1,0,0:0:0:50:LR_Drum Kick Wet Fast.wav
469,192,14312,1,0,0:0:0:0:
384,192,14469,1,0,0:0:0:0:
213,192,14469,1,0,0:0:0:50:LR_Drum Kick Wet Fast.wav
128,192,14626,1,0,0:0:0:50:LR_Drum Kick Wet Fast.wav
298,192,14626,1,0,0:0:0:0:
469,192,14783,1,0,0:0:0:0:
42,192,14783,1,0,0:0:0:50:LR_Drum Kick Wet Fast.wav
213,192,14940,1,0,0:0:0:50:LR_Drum Rpd Fast .wav
298,192,14940,1,0,0:0:0:0:
384,192,15097,1,0,0:0:0:50:LR_Drum Kick Wet Fast.wav
469,192,15097,1,0,0:0:0:0:
128,192,15255,1,0,0:0:0:0:
42,192,15255,1,0,0:0:0:50:LR_Drum Kick Wet Fast.wav
469,192,15333,1,0,0:0:0:0:
298,192,15412,1,0,0:0:0:50:LR_Drum Rpd Fast .wav
213,192,15490,1,0,0:0:0:50:LR_Drum Kick Wet Fast.wav
42,192,15569,1,0,0:0:0:50:LR_Drum Rpd Fast .wav
469,192,15569,1,0,0:0:0:0:
128,192,15647,1,0,0:0:0:50:LR_Drum Rpd Fast .wav
384,192,15647,1,0,0:0:0:0:
213,192,15726,1,0,0:0:0:50:LR_Drum Rpd Fast .wav
298,192,15726,1,0,0:0:0:0:
128,192,15883,1,0,0:0:0:50:LR_Drum Rpd Fast .wav
384,192,15883,1,0,0:0:0:0:
42,192,16040,1,0,0:0:0:50:LR_Drum Kick Wet Fast.wav
213,192,16040,1,0,0:0:0:0:
469,192,16040,1,0,0:0:0:0:
298,192,16197,1,0,0:0:0:0:
128,192,16197,1,0,0:0:0:50:LR_Drum Kick Wet Fast.wav
469,192,16354,1,0,0:0:0:0:
213,192,16354,1,0,0:0:0:40:LR_Drum Kick Wet Fast.wav
384,192,16511,1,0,0:0:0:0:
42,192,16511,1,0,0:0:0:50:LR_Drum Kick Wet Fast.wav
213,192,16668,1,0,0:0:0:0:
128,192,16668,1,0,0:0:0:50:LR_Drum Rpd Fast .wav
384,192,16825,1,0,0:0:0:0:
42,192,16825,1,0,0:0:0:50:LR_Drum Kick Wet Fast.wav
128,192,16982,1,0,0:0:0:50:LR_Drum Kick Wet Fast.wav
469,192,16982,1,0,0:0:0:0:
298,192,17139,1,0,0:0:0:50:LR_Drum Kick Wet Fast.wav
384,192,17139,1,0,0:0:0:0:
213,192,17218,1,0,0:0:0:50:LR_Drum Kick Wet Fast.wav
42,192,17296,1,0,0:0:0:50:LR_Drum Kick Wet Fast.wav
469,192,17296,1,0,0:0:0:0:
298,192,17453,1,0,0:0:0:50:LR_Drum Kick Wet Fast.wav
128,192,17611,1,0,0:0:0:50:LR_Drum Kick Wet Fast.wav
213,192,17611,1,0,0:0:0:0:
384,192,17768,1,0,0:0:0:50:LR_Drum Kick Wet Fast.wav
469,192,17768,1,0,0:0:0:0:
42,192,17925,1,0,0:0:0:50:LR_Drum Rpd Fast .wav
298,192,17925,1,0,0:0:0:0:
128,192,18082,1,0,0:0:0:0:
469,192,18082,1,0,0:0:0:50:LR_Drum Kick Wet Fast.wav
384,192,18239,1,0,0:0:0:50:LR_Drum Kick Wet Fast.wav
42,192,18239,1,0,0:0:0:0:
128,192,18396,1,0,0:0:0:0:
469,192,18396,1,0,0:0:0:50:LR_Drum Kick Wet Fast.wav
298,192,18553,1,0,0:0:0:0:
213,192,18553,1,0,0:0:0:50:LR_Drum Kick Wet Fast.wav
128,192,18710,1,0,0:0:0:50:LR_Drum Kick Wet Fast.wav
469,192,18710,1,0,0:0:0:0:
298,192,18867,1,0,0:0:0:0:
42,192,18867,1,0,0:0:0:50:LR_Drum Kick Wet Fast.wav
384,192,19024,1,0,0:0:0:0:
128,192,19024,1,0,0:0:0:50:LR_Drum Kick Wet Fast.wav
213,192,19181,1,0,0:0:0:50:LR_Drum Rpd Fast .wav
469,192,19181,1,0,0:0:0:0:
384,192,19338,1,0,0:0:0:0:
128,192,19338,1,0,0:0:0:50:LR_Drum Kick Wet Fast.wav
469,192,19495,1,0,0:0:0:0:
42,192,19495,1,0,0:0:0:50:LR_Drum Kick Wet Fast.wav
298,192,19652,1,0,0:0:0:0:
213,192,19652,1,0,0:0:0:50:LR_Drum Kick Wet Fast.wav
128,192,19731,1,0,0:0:0:50:LR_Drum Kick Wet Fast.wav
469,192,19809,1,0,0:0:0:0:
42,192,19809,1,0,0:0:0:50:LR_Drum Kick Wet Fast.wav
213,192,19967,1,0,0:0:0:0:
298,192,20124,1,0,0:0:0:50:LR_Drum Kick Wet Fast.wav
384,192,20124,1,0,0:0:0:0:
128,192,20281,1,0,0:0:0:50:LR_Drum Kick Wet Fast.wav
469,192,20281,1,0,0:0:0:0:
213,192,20438,1,0,0:0:0:0:
42,192,20438,1,0,0:0:0:50:LR_Drum Rpd Fast .wav
384,192,20595,1,0,0:0:0:0:
298,192,20595,1,0,0:0:0:50:LR_Drum Kick Wet Fast.wav
213,192,20752,1,0,0:0:0:0:
42,192,20752,1,0,0:0:0:50:LR_Drum Rpd Fast .wav
384,192,20909,1,0,0:0:0:0:
298,192,20909,1,0,0:0:0:50:LR_Drum Kick Wet Fast.wav
42,192,21066,1,0,0:0:0:50:LR_Drum Kick Wet Fast.wav
469,192,21066,1,0,0:0:0:0:
213,192,21066,1,0,0:0:0:0:
298,192,21223,1,0,0:0:0:0:
213,192,21223,1,0,0:0:0:50:LR_Drum Kick Wet Fast.wav
469,192,21380,1,0,0:0:0:0:
128,192,21380,1,0,0:0:0:50:LR_Drum Kick Wet Fast.wav
384,192,21537,1,0,0:0:0:0:
42,192,21537,1,0,0:0:0:50:LR_Drum Kick Wet Fast.wav
298,192,21616,1,0,0:0:0:50:LR_Drum Kick Wet Fast.wav
213,192,21694,1,0,0:0:0:50:LR_Drum Rpd Fast .wav
469,192,21694,1,0,0:0:0:0:
42,192,21851,1,0,0:0:0:50:LR_Drum Kick Wet Fast.wav
128,192,22008,1,0,0:0:0:50:LR_Drum Kick Wet Fast.wav
469,192,22008,1,0,0:0:0:0:
42,192,22166,1,0,0:0:0:50:LR_Drum Kick Wet Fast.wav
384,192,22166,1,0,0:0:0:0:
298,192,22244,1,0,0:0:0:50:LR_Drum Kick Wet Fast.wav
128,192,22323,1,0,0:0:0:50:LR_Drum Kick Wet Fast.wav
469,192,22323,1,0,0:0:0:0:
298,192,22480,1,0,0:0:0:50:LR_Drum Kick Wet Fast.wav
42,192,22480,1,0,0:0:0:0:
128,192,22637,1,0,0:0:0:50:LR_Drum Kick Wet Fast.wav
384,192,22637,1,0,0:0:0:0:
213,192,22794,1,0,0:0:0:50:LR_Drum Kick Wet Fast.wav
469,192,22794,1,0,0:0:0:0:
42,192,22951,1,0,0:0:0:50:LR_Drum Rpd Fast .wav
298,192,22951,1,0,0:0:0:0:
213,192,23108,1,0,0:0:0:50:LR_Drum Kick Wet Fast.wav
384,192,23108,1,0,0:0:0:0:
42,192,23265,1,0,0:0:0:50:LR_Drum Kick Wet Fast.wav
469,192,23265,1,0,0:0:0:0:
213,192,23422,1,0,0:0:0:50:LR_Drum Kick Wet Fast.wav
298,192,23422,1,0,0:0:0:0:
469,192,23579,1,0,0:0:0:0:
128,192,23579,1,0,0:0:0:50:LR_Drum Kick Wet Fast.wav
298,192,23736,1,0,0:0:0:0:
42,192,23736,1,0,0:0:0:50:LR_Drum Kick Wet Fast.wav
469,192,23893,1,0,0:0:0:0:
213,192,23893,1,0,0:0:0:50:LR_Drum Kick Wet Fast.wav
384,192,24050,1,0,0:0:0:0:
42,192,24050,1,0,0:0:0:50:LR_Drum Kick Wet Fast.wav
128,192,24207,1,0,0:0:0:50:LR_Drum Rpd Fast .wav
298,192,24207,1,0,0:0:0:0:
384,192,24364,1,0,0:0:0:50:LR_Drum Kick Wet Fast.wav
469,192,24364,1,0,0:0:0:0:
213,192,24522,1,0,0:0:0:0:
42,192,24522,1,0,0:0:0:50:LR_Drum Kick Wet Fast.wav
298,192,24679,1,0,0:0:0:0:
128,192,24679,1,0,0:0:0:50:LR_Drum Kick Wet Fast.wav
213,192,24836,1,0,0:0:0:50:LR_Drum Kick Wet Fast.wav
384,192,24836,1,0,0:0:0:0:
469,192,24993,5,0,0:0:0:0:
42,192,24993,1,0,0:0:0:50:LR_Drum Rpd Fast .wav
298,192,25071,1,0,0:0:0:50:LR_Drum Rpd Fast .wav
128,192,25150,1,0,0:0:0:50:LR_Drum Rpd Fast .wav
384,192,25150,1,0,0:0:0:0:
469,192,25307,1,0,0:0:0:0:
42,192,25307,1,0,0:0:0:50:LR_Drum Rpd Fast .wav
384,192,25464,1,0,0:0:0:0:
213,192,25464,1,0,0:0:0:50:LR_Drum Kick Wet Fast.wav
128,192,25542,1,0,0:0:0:50:LR_Drum Kick Wet Fast.wav
42,192,25621,1,0,0:0:0:50:LR_Drum Rpd Fast .wav
469,192,25621,1,0,0:0:0:0:
298,192,25700,1,0,0:0:0:50:LR_Drum Rpd Fast .wav
128,192,25778,1,0,0:0:0:50:LR_Drum Rpd Fast .wav
384,192,25778,1,0,0:0:0:0:
42,192,25935,1,0,0:0:0:50:LR_Drum Kick Wet Fast.wav
469,192,25935,1,0,0:0:0:0:
128,192,26014,1,0,0:0:0:50:LR_Drum Kick Wet Fast.wav
384,192,26014,1,0,0:0:0:0:
213,192,26092,1,0,0:0:0:50:LR_Drum Kick Wet Fast.wav
298,192,26092,1,4,0:0:0:0:
213,192,26249,128,0,26563:0:0:0:50:LR_Drum Rpd Fast .wav
298,192,26249,128,4,26563:0:0:0:0:
42,192,26563,1,0,0:0:0:50:LR_Drum Kick Wet Fast.wav
469,192,26563,1,4,0:0:0:0:
42,192,26720,128,0,27035:0:0:0:50:LR_Drum Rpd Fast .wav
469,192,26720,128,4,27035:0:0:0:0:
128,192,27035,1,0,0:0:0:50:LR_Drum Kick Wet Fast.wav
384,192,27035,1,4,0:0:0:0:
128,192,27192,128,0,27506:0:0:0:50:LR_Drum Rpd Fast .wav
384,192,27192,128,4,27506:0:0:0:0:
213,192,27506,1,0,0:0:0:50:LR_Drum Kick Wet Fast.wav
469,192,27506,1,4,0:0:0:0:
213,192,27663,128,0,27977:0:0:0:50:LR_Drum Rpd Fast .wav
469,192,27663,128,4,27977:0:0:0:0:
128,192,27977,128,0,28134:0:0:0:50:LR_Drum Kick Wet Fast.wav
384,192,27977,128,4,28134:0:0:0:0:
384,192,28291,128,4,28605:0:0:0:0:
128,192,28291,128,0,28605:0:0:0:50:LR_Drum Kick Wet Fast.wav
42,192,28605,1,0,0:0:0:0:
298,192,28605,1,0,0:0:0:50:LR_Drum Kick Wet Fast.wav
469,192,28605,1,4,0:0:0:0:
213,192,28762,1,0,0:0:0:0:
298,192,28919,1,0,0:0:0:0:
42,192,28919,1,0,0:0:0:50:LR_Drum Rpd Fast .wav
384,192,28919,1,0,0:0:0:0:
213,192,29077,1,0,0:0:0:0:
298,192,29234,1,0,0:0:0:0:
128,192,29234,1,0,0:0:0:50:LR_Drum Kick Wet Fast.wav
213,192,29391,1,0,0:0:0:0:
298,192,29548,1,0,0:0:0:0:
42,192,29548,1,0,0:0:0:50:LR_Drum Rpd Fast .wav
469,192,29548,1,0,0:0:0:0:
213,192,29705,1,0,0:0:0:0:
298,192,29862,1,0,0:0:0:50:LR_Drum Kick Wet Fast.wav
384,192,29862,1,0,0:0:0:0:
213,192,30019,1,0,0:0:0:0:
298,192,30176,1,0,0:0:0:0:
42,192,30176,1,0,0:0:0:50:LR_Drum Rpd Fast .wav
128,192,30176,1,0,0:0:0:0:
213,192,30333,1,0,0:0:0:0:
298,192,30490,1,0,0:0:0:50:LR_Drum Kick Wet Fast.wav
469,192,30490,1,0,0:0:0:0:
213,192,30647,1,0,0:0:0:0:
298,192,30804,1,0,0:0:0:0:
42,192,30804,1,0,0:0:0:50:LR_Drum Rpd Fast .wav
384,192,30804,1,0,0:0:0:0:
213,192,30961,1,0,0:0:0:0:
128,192,31118,1,0,0:0:0:50:LR_Drum Kick Wet Fast.wav
469,192,31118,1,0,0:0:0:0:
384,192,31275,1,0,0:0:0:0:
128,192,31433,1,0,0:0:0:0:
298,192,31433,1,0,0:0:0:0:
42,192,31433,1,0,0:0:0:50:LR_Drum Rpd Fast .wav
384,192,31590,1,0,0:0:0:0:
128,192,31747,1,0,0:0:0:50:LR_Drum Kick Wet Fast.wav
213,192,31747,1,0,0:0:0:0:
384,192,31904,1,0,0:0:0:0:
128,192,32061,1,0,0:0:0:0:
42,192,32061,1,0,0:0:0:50:LR_Drum Rpd Fast .wav
469,192,32061,1,0,0:0:0:0:
384,192,32218,1,0,0:0:0:0:
128,192,32375,1,0,0:0:0:50:LR_Drum Kick Wet Fast.wav
298,192,32375,1,0,0:0:0:0:
384,192,32532,1,0,0:0:0:0:
128,192,32689,1,0,0:0:0:50:LR_Drum Rpd Fast .wav
213,192,32689,1,0,0:0:0:0:
469,192,32689,1,0,0:0:0:0:
384,192,32846,1,0,0:0:0:0:
128,192,33003,1,0,0:0:0:0:
42,192,33003,1,0,0:0:0:50:LR_Drum Kick Wet Fast.wav
384,192,33160,1,0,0:0:0:0:
128,192,33317,1,0,0:0:0:50:LR_Drum Rpd Fast .wav
213,192,33317,1,0,0:0:0:0:
469,192,33317,1,0,0:0:0:0:
384,192,33474,1,0,0:0:0:0:
298,192,33631,1,0,0:0:0:0:
213,192,33631,1,0,0:0:0:50:LR_Drum Kick Wet Fast.wav
469,192,33631,1,4,0:0:0:0:
42,192,33789,1,0,0:0:0:0:
298,192,33946,1,0,0:0:0:0:
384,192,33946,1,0,0:0:0:0:
213,192,33946,1,0,0:0:0:50:LR_Drum Rpd Fast .wav
42,192,34103,1,0,0:0:0:0:
298,192,34260,1,0,0:0:0:50:LR_Drum Kick Wet Fast.wav
469,192,34260,1,0,0:0:0:0:
42,192,34417,1,0,0:0:0:0:
298,192,34574,1,0,0:0:0:0:
128,192,34574,1,0,0:0:0:50:LR_Drum Rpd Fast .wav
384,192,34574,1,0,0:0:0:0:
42,192,34731,1,0,0:0:0:0:
298,192,34888,1,0,0:0:0:0:
213,192,34888,1,0,0:0:0:50:LR_Drum Kick Wet Fast.wav
42,192,35045,1,0,0:0:0:0:
298,192,35202,1,0,0:0:0:0:
384,192,35202,1,0,0:0:0:0:
128,192,35202,1,0,0:0:0:50:LR_Drum Rpd Fast .wav
42,192,35359,1,0,0:0:0:0:
298,192,35516,1,0,0:0:0:50:LR_Drum Kick Wet Fast.wav
469,192,35516,1,0,0:0:0:0:
42,192,35673,1,0,0:0:0:0:
298,192,35830,1,0,0:0:0:0:
128,192,35830,1,0,0:0:0:50:LR_Drum Rpd Fast .wav
384,192,35830,1,0,0:0:0:0:
42,192,35987,1,0,0:0:0:0:
384,192,36145,1,0,0:0:0:0:
213,192,36145,1,0,0:0:0:50:LR_Drum Kick Wet Fast.wav
128,192,36302,1,0,0:0:0:0:
384,192,36459,1,0,0:0:0:0:
42,192,36459,1,0,0:0:0:50:LR_Drum Rpd Fast .wav
298,192,36459,1,0,0:0:0:0:
128,192,36616,1,0,0:0:0:0:
384,192,36773,1,0,0:0:0:0:
213,192,36773,1,0,0:0:0:50:LR_Drum Kick Wet Fast.wav
128,192,36930,1,0,0:0:0:0:
384,192,37087,1,0,0:0:0:0:
469,192,37087,1,0,0:0:0:0:
298,192,37087,1,0,0:0:0:50:LR_Drum Rpd Fast .wav
128,192,37244,1,0,0:0:0:0:
384,192,37401,1,0,0:0:0:0:
42,192,37401,1,0,0:0:0:50:LR_Drum Kick Wet Fast.wav
128,192,37558,1,0,0:0:0:0:
384,192,37715,1,0,0:0:0:0:
213,192,37715,1,0,0:0:0:50:LR_Drum Rpd Fast .wav
469,192,37715,1,0,0:0:0:0:
128,192,37872,1,0,0:0:0:0:
384,192,38029,1,0,0:0:0:0:
42,192,38029,1,0,0:0:0:50:LR_Drum Kick Wet Fast.wav
128,192,38186,1,0,0:0:0:0:
469,192,38186,1,0,0:0:0:0:
384,192,38344,1,0,0:0:0:0:
213,192,38344,1,0,0:0:0:0:
42,192,38344,1,0,0:0:0:50:LR_Drum Rpd Fast .wav
128,192,38501,1,0,0:0:0:50:LR_Drum Rpd Fast .wav
298,192,38501,1,0,0:0:0:0:
469,192,38501,1,0,0:0:0:0:
42,192,38658,1,0,0:0:0:50:LR_Drum Kick Wet Fast.wav
213,192,38658,1,0,0:0:0:0:
384,192,38658,1,4,0:0:0:0:
469,192,38815,1,0,0:0:0:0:
384,192,38972,1,0,0:0:0:0:
298,192,38972,1,0,0:0:0:0:
42,192,38972,1,0,0:0:0:50:LR_Drum Rpd Fast .wav
128,192,39129,1,0,0:0:0:0:
42,192,39207,1,0,0:0:0:50:LR_Drum Rpd Fast .wav
469,192,39207,1,0,0:0:0:0:
298,192,39207,1,0,0:0:0:0:
384,192,39286,1,0,0:0:0:0:
213,192,39286,1,0,0:0:0:50:LR_Drum Kick Wet Fast.wav
128,192,39443,1,0,0:0:0:0:
384,192,39600,1,0,0:0:0:0:
42,192,39600,1,0,0:0:0:50:LR_Drum Rpd Fast .wav
213,192,39600,1,0,0:0:0:0:
469,192,39757,1,0,0:0:0:0:
384,192,39914,1,0,0:0:0:0:
298,192,39914,1,0,0:0:0:50:LR_Drum Kick Wet Fast.wav
128,192,40071,1,0,0:0:0:0:
384,192,40228,1,0,0:0:0:0:
42,192,40228,1,0,0:0:0:50:LR_Drum Rpd Fast .wav
469,192,40228,1,0,0:0:0:0:
128,192,40385,1,0,0:0:0:0:
42,192,40464,1,0,0:0:0:50:LR_Drum Rpd Fast .wav
469,192,40464,1,0,0:0:0:0:
213,192,40464,1,0,0:0:0:0:
384,192,40542,1,0,0:0:0:0:
298,192,40542,1,0,0:0:0:50:LR_Drum Kick Wet Fast.wav
128,192,40700,1,0,0:0:0:0:
384,192,40857,1,0,0:0:0:0:
469,192,40857,1,0,0:0:0:0:
42,192,40857,1,0,0:0:0:50:LR_Drum Rpd Fast .wav
128,192,41014,1,0,0:0:0:0:
213,192,41171,1,0,0:0:0:0:
42,192,41171,1,0,0:0:0:50:LR_Drum Kick Wet Fast.wav
469,192,41328,1,0,0:0:0:0:
213,192,41485,1,0,0:0:0:0:
128,192,41485,1,0,0:0:0:50:LR_Drum Rpd Fast .wav
384,192,41485,1,0,0:0:0:0:
469,192,41642,1,0,0:0:0:0:
42,192,41720,1,0,0:0:0:50:LR_Drum Rpd Fast .wav
298,192,41720,1,0,0:0:0:0:
384,192,41720,1,0,0:0:0:0:
213,192,41799,1,0,0:0:0:0:
128,192,41799,1,0,0:0:0:50:LR_Drum Kick Wet Fast.wav
469,192,41956,1,0,0:0:0:0:
213,192,42113,1,0,0:0:0:0:
42,192,42113,1,0,0:0:0:50:LR_Drum Rpd Fast .wav
384,192,42113,1,0,0:0:0:0:
469,192,42270,1,0,0:0:0:0:
213,192,42427,1,0,0:0:0:50:LR_Drum Kick Wet Fast.wav
298,192,42427,1,0,0:0:0:0:
469,192,42584,1,0,0:0:0:0:
213,192,42741,1,0,0:0:0:0:
128,192,42741,1,0,0:0:0:50:LR_Drum Rpd Fast .wav
384,192,42741,1,0,0:0:0:0:
469,192,42898,1,0,0:0:0:0:
298,192,42977,1,0,0:0:0:0:
128,192,42977,1,0,0:0:0:0:
42,192,42977,1,0,0:0:0:50:LR_Drum Rpd Fast .wav
213,192,43056,1,0,0:0:0:50:LR_Drum Kick Wet Fast.wav
384,192,43056,1,0,0:0:0:0:
469,192,43213,1,0,0:0:0:0:
213,192,43370,1,0,0:0:0:0:
42,192,43370,1,0,0:0:0:50:LR_Drum Rpd Fast .wav
128,192,43370,1,0,0:0:0:0:
469,192,43527,1,0,0:0:0:0:
298,192,43684,1,0,0:0:0:0:
384,192,43684,1,4,0:0:0:0:
42,192,43684,1,0,0:0:0:50:LR_Drum Kick Wet Fast.wav
128,192,43841,1,0,0:0:0:0:
298,192,43998,1,0,0:0:0:0:
469,192,43998,1,0,0:0:0:0:
42,192,43998,1,0,0:0:0:50:LR_Drum Rpd Fast .wav
128,192,44155,1,0,0:0:0:0:
384,192,44234,1,0,0:0:0:0:
42,192,44234,1,0,0:0:0:50:LR_Drum Rpd Fast .wav
469,192,44234,1,0,0:0:0:0:
298,192,44312,1,0,0:0:0:0:
213,192,44312,1,0,0:0:0:50:LR_Drum Kick Wet Fast.wav
128,192,44469,1,0,0:0:0:0:
298,192,44626,1,0,0:0:0:0:
469,192,44626,1,0,0:0:0:0:
42,192,44626,1,0,0:0:0:50:LR_Drum Rpd Fast .wav
128,192,44783,1,0,0:0:0:0:
298,192,44940,1,0,0:0:0:50:LR_Drum Kick Wet Fast.wav
384,192,44940,1,0,0:0:0:0:
128,192,45097,1,0,0:0:0:0:
298,192,45255,1,0,0:0:0:0:
42,192,45255,1,0,0:0:0:50:LR_Drum Rpd Fast .wav
469,192,45255,1,0,0:0:0:0:
128,192,45412,1,0,0:0:0:0:
42,192,45490,1,0,0:0:0:50:LR_Drum Rpd Fast .wav
384,192,45490,1,0,0:0:0:0:
213,192,45490,1,0,0:0:0:0:
298,192,45569,1,0,0:0:0:50:LR_Drum Kick Wet Fast.wav
469,192,45569,1,0,0:0:0:0:
128,192,45726,1,0,0:0:0:0:
298,192,45883,1,0,0:0:0:0:
42,192,45883,1,0,0:0:0:50:LR_Drum Rpd Fast .wav
384,192,45883,1,0,0:0:0:0:
128,192,46040,1,0,0:0:0:0:
384,192,46197,1,0,0:0:0:50:LR_Drum Kick Wet Fast.wav
469,192,46197,1,0,0:0:0:0:
213,192,46354,1,0,0:0:0:0:
384,192,46511,1,0,0:0:0:0:
42,192,46511,1,0,0:0:0:50:LR_Drum Rpd Fast .wav
128,192,46511,1,0,0:0:0:0:
213,192,46668,1,0,0:0:0:0:
384,192,46825,1,0,0:0:0:50:LR_Drum Kick Wet Fast.wav
469,192,46825,1,0,0:0:0:0:
213,192,46982,1,0,0:0:0:0:
384,192,47139,1,0,0:0:0:0:
42,192,47139,1,0,0:0:0:50:LR_Drum Rpd Fast .wav
128,192,47139,1,0,0:0:0:0:
213,192,47296,1,0,0:0:0:0:
298,192,47453,1,0,0:0:0:50:LR_Drum Kick Wet Fast.wav
469,192,47453,1,4,0:0:0:0:
384,192,47453,1,0,0:0:0:0:
42,192,47532,1,0,0:0:0:50:LR_Drum Rpd Fast .wav
128,192,47611,1,0,0:0:0:50:LR_Drum Rpd Fast .wav
384,192,47689,1,0,0:0:0:50:LR_Drum Rpd Fast .wav
298,192,47768,1,0,0:0:0:0:
42,192,47768,1,0,0:0:0:50:LR_Drum Rpd Fast .wav
469,192,47768,1,0,0:0:0:0:
213,192,47846,1,0,0:0:0:50:LR_Drum Rpd Fast .wav
128,192,47925,1,0,0:0:0:50:LR_Drum Rpd Fast .wav
469,192,48003,1,0,0:0:0:50:LR_Drum Rpd Fast .wav
298,192,48082,1,0,0:0:0:0:
42,192,48082,1,0,3:0:0:0:
213,192,48082,1,0,0:0:0:0:
384,192,48160,1,0,3:0:0:0:
128,192,48239,1,0,3:0:0:0:
469,192,48317,1,0,3:0:0:0:
213,192,48396,1,0,3:0:0:0:
298,192,48396,1,0,0:0:0:0:
42,192,48396,1,0,0:0:0:0:
384,192,48474,1,0,3:0:0:0:
128,192,48553,1,0,3:0:0:0:
384,192,48631,1,0,3:0:0:0:
42,192,48710,1,0,0:0:0:50:LR_Drum Kick Wet Fast.wav
298,192,48710,1,0,0:0:0:50:LR_Drum Rpd Fast .wav
42,192,48867,1,0,0:0:0:0:
213,192,49024,1,0,0:0:0:50:LR_Drum Kick Wet Fast.wav
469,192,49024,1,0,0:0:0:0:
213,192,49181,1,0,0:0:0:0:
384,192,49338,1,0,0:0:0:0:
128,192,49338,1,0,0:0:0:50:LR_Drum Kick Wet Fast.wav
384,192,49495,1,0,0:0:0:0:
213,192,49652,1,0,0:0:0:50:LR_Drum Kick Wet Fast.wav
469,192,49652,1,0,0:0:0:0:
213,192,49809,1,0,0:0:0:0:
42,192,49967,1,0,0:0:0:50:LR_Drum Kick Wet Fast.wav
298,192,49967,1,0,0:0:0:0:
42,192,50124,1,0,0:0:0:0:
213,192,50281,1,0,0:0:0:50:LR_Drum Kick Wet Fast.wav
469,192,50281,1,0,0:0:0:0:
213,192,50438,1,0,0:0:0:0:
384,192,50595,1,0,0:0:0:0:
128,192,50595,1,0,0:0:0:0:
42,192,50595,1,0,0:0:0:50:LR_Drum Rpd Fast .wav
384,192,50752,1,0,0:0:0:0:
42,192,50752,1,0,0:0:0:50:LR_Drum Rpd Fast .wav
128,192,50752,1,0,0:0:0:0:
213,192,50909,1,0,0:0:0:50:LR_Drum Rpd Fast .wav
469,192,50909,1,0,0:0:0:0:
298,192,50909,1,0,0:0:0:0:
213,192,51066,1,0,0:0:0:50:LR_Drum Rpd Fast .wav
298,192,51066,1,0,0:0:0:0:
469,192,51066,1,0,0:0:0:0:
384,192,51223,1,4,0:0:0:0:
128,192,51223,1,0,0:0:0:0:
42,192,51223,1,0,0:0:0:50:LR_Drum Kick Wet Fast.wav
384,192,51380,1,0,0:0:0:0:
469,192,51537,1,0,0:0:0:0:
213,192,51537,1,0,0:0:0:0:
42,192,51537,1,0,0:0:0:50:LR_Drum Rpd Fast .wav
384,192,51694,1,0,0:0:0:0:
213,192,51851,1,0,0:0:0:0:
42,192,51851,1,0,0:0:0:50:LR_Drum Kick Wet Fast.wav
128,192,52008,1,0,0:0:0:50:LR_Drum Rpd Fast .wav
384,192,52008,1,0,0:0:0:0:
469,192,52008,1,0,0:0:0:0:
213,192,52166,1,0,0:0:0:0:
42,192,52166,1,0,0:0:0:50:LR_Drum Kick Wet Fast.wav
469,192,52323,1,0,0:0:0:0:
128,192,52323,1,0,0:0:0:50:LR_Drum Rpd Fast .wav
384,192,52323,1,0,0:0:0:0:
298,192,52480,1,0,0:0:0:0:
42,192,52480,1,0,0:0:0:50:LR_Drum Kick Wet Fast.wav
298,192,52637,1,0,0:0:0:0:
128,192,52794,1,0,0:0:0:0:
469,192,52794,1,0,0:0:0:0:
42,192,52794,1,0,0:0:0:50:LR_Drum Rpd Fast .wav
213,192,52951,1,0,0:0:0:0:
298,192,53108,1,0,0:0:0:50:LR_Drum Kick Wet Fast.wav
384,192,53108,1,0,0:0:0:0:
469,192,53265,1,0,0:0:0:0:
42,192,53265,1,0,0:0:0:50:LR_Drum Rpd Fast .wav
128,192,53265,1,0,0:0:0:0:
384,192,53422,1,0,0:0:0:0:
298,192,53422,1,0,0:0:0:50:LR_Drum Kick Wet Fast.wav
213,192,53579,1,0,0:0:0:0:
42,192,53579,1,0,0:0:0:50:LR_Drum Rpd Fast .wav
128,192,53579,1,0,0:0:0:0:
298,192,53736,1,0,0:0:0:50:LR_Drum Kick Wet Fast.wav
384,192,53736,1,0,0:0:0:0:
298,192,53893,1,0,0:0:0:0:
384,192,54050,1,0,0:0:0:0:
42,192,54050,1,0,0:0:0:50:LR_Drum Rpd Fast .wav
469,192,54050,1,0,0:0:0:0:
213,192,54207,1,0,0:0:0:0:
384,192,54364,1,0,0:0:0:0:
298,192,54364,1,0,0:0:0:50:LR_Drum Kick Wet Fast.wav
128,192,54522,1,0,0:0:0:0:
42,192,54522,1,0,0:0:0:50:LR_Drum Rpd Fast .wav
469,192,54522,1,0,0:0:0:0:
384,192,54679,1,0,0:0:0:0:
298,192,54679,1,0,0:0:0:50:LR_Drum Kick Wet Fast.wav
42,192,54836,1,0,0:0:0:50:LR_Drum Rpd Fast .wav
469,192,54836,1,0,0:0:0:0:
213,192,54836,1,0,0:0:0:0:
384,192,54993,1,0,0:0:0:0:
128,192,54993,1,0,0:0:0:50:LR_Drum Kick Wet Fast.wav
128,192,55150,1,0,0:0:0:0:
213,192,55307,1,0,0:0:0:0:
42,192,55307,1,0,0:0:0:50:LR_Drum Rpd Fast .wav
469,192,55307,1,0,0:0:0:0:
384,192,55464,1,0,0:0:0:0:
213,192,55621,1,0,0:0:0:50:LR_Drum Kick Wet Fast.wav
298,192,55621,1,0,0:0:0:0:
128,192,55778,1,0,0:0:0:0:
42,192,55778,1,0,0:0:0:50:LR_Drum Rpd Fast .wav
384,192,55778,1,0,0:0:0:0:
298,192,55857,1,0,0:0:0:50:LR_Drum Rpd Fast .wav
469,192,55935,1,0,0:0:0:0:
213,192,55935,1,0,0:0:0:50:LR_Drum Kick Wet Fast.wav
128,192,56092,1,0,0:0:0:0:
384,192,56092,1,0,0:0:0:0:
42,192,56092,1,0,0:0:0:50:LR_Drum Rpd Fast .wav
213,192,56171,1,0,0:0:0:50:LR_Drum Rpd Fast .wav
298,192,56249,1,0,0:0:0:50:LR_Drum Kick Wet Fast.wav
469,192,56249,1,0,0:0:0:0:
298,192,56406,1,0,0:0:0:0:
384,192,56563,1,0,0:0:0:0:
128,192,56563,1,0,0:0:0:0:
42,192,56563,1,0,0:0:0:50:LR_Drum Rpd Fast .wav
213,192,56720,1,0,0:0:0:0:
469,192,56878,1,0,0:0:0:0:
128,192,56878,1,0,0:0:0:50:LR_Drum Kick Wet Fast.wav
213,192,57035,1,0,0:0:0:0:
42,192,57035,1,0,0:0:0:50:LR_Drum Rpd Fast .wav
298,192,57035,1,0,0:0:0:0:
384,192,57192,1,0,0:0:0:0:
128,192,57192,1,0,0:0:0:50:LR_Drum Kick Wet Fast.wav
213,192,57349,1,0,0:0:0:0:
42,192,57349,1,0,0:0:0:50:LR_Drum Rpd Fast .wav
298,192,57349,1,0,0:0:0:0:
469,192,57506,1,0,0:0:0:0:
128,192,57506,1,0,0:0:0:50:LR_Drum Kick Wet Fast.wav
128,192,57663,1,0,0:0:0:0:
298,192,57820,1,0,0:0:0:0:
42,192,57820,1,0,0:0:0:50:LR_Drum Rpd Fast .wav
469,192,57820,1,0,0:0:0:0:
128,192,57977,1,0,0:0:0:0:
469,192,58134,1,0,0:0:0:0:
213,192,58134,1,0,0:0:0:50:LR_Drum Kick Wet Fast.wav
384,192,58291,1,0,0:0:0:0:
128,192,58291,1,0,0:0:0:0:
42,192,58291,1,0,0:0:0:50:LR_Drum Rpd Fast .wav
298,192,58448,1,0,0:0:0:0:
469,192,58448,1,0,0:0:0:0:
213,192,58605,1,0,0:0:0:0:
42,192,58605,1,0,0:0:0:50:LR_Drum Rpd Fast .wav
128,192,58605,1,0,0:0:0:0:
384,192,58762,1,0,0:0:0:0:
298,192,58762,1,0,0:0:0:50:LR_Drum Kick Wet Fast.wav
298,192,58919,1,0,0:0:0:0:
384,192,59077,1,0,0:0:0:0:
42,192,59077,1,0,0:0:0:50:LR_Drum Rpd Fast .wav
213,192,59077,1,0,0:0:0:0:
469,192,59234,1,0,0:0:0:0:
128,192,59391,1,0,0:0:0:50:LR_Drum Kick Wet Fast.wav
384,192,59391,1,0,0:0:0:0:
298,192,59548,1,0,0:0:0:0:
42,192,59548,1,0,0:0:0:50:LR_Drum Rpd Fast .wav
469,192,59548,1,0,0:0:0:0:
384,192,59705,1,0,0:0:0:0:
128,192,59705,1,0,0:0:0:50:LR_Drum Kick Wet Fast.wav
213,192,59862,1,0,0:0:0:0:
469,192,59862,1,0,0:0:0:0:
42,192,59862,1,0,0:0:0:50:LR_Drum Rpd Fast .wav
128,192,60019,1,0,0:0:0:50:LR_Drum Kick Wet Fast.wav
298,192,60019,1,0,0:0:0:0:
298,192,60176,1,0,0:0:0:0:
42,192,60333,1,0,0:0:0:50:LR_Drum Rpd Fast .wav
128,192,60333,1,0,0:0:0:0:
384,192,60333,1,0,0:0:0:0:
213,192,60490,1,0,0:0:0:0:
384,192,60647,1,0,0:0:0:0:
128,192,60647,1,0,0:0:0:50:LR_Drum Kick Wet Fast.wav
213,192,60804,1,0,0:0:0:0:
42,192,60804,1,0,0:0:0:50:LR_Drum Rpd Fast .wav
469,192,60804,1,0,0:0:0:0:
384,192,60883,1,0,0:0:0:50:LR_Drum Rpd Fast .wav
469,192,60961,1,0,0:0:0:0:
128,192,60961,1,0,0:0:0:50:LR_Drum Rpd Fast .wav
298,192,61040,1,0,0:0:0:50:LR_Drum Rpd Fast .wav
42,192,61118,1,0,0:0:0:50:LR_Drum Rpd Fast .wav
384,192,61118,1,0,0:0:0:0:
213,192,61197,1,0,0:0:0:50:LR_Drum Rpd Fast .wav
469,192,61275,1,0,0:0:0:0:
128,192,61275,1,0,0:0:0:50:LR_Drum Kick Wet Fast.wav
298,192,61275,1,0,0:0:0:0:
128,192,61433,1,0,0:0:0:0:
298,192,61590,1,0,0:0:0:0:
42,192,61590,1,0,0:0:0:50:LR_Drum Kick Wet Fast.wav
298,192,61747,1,0,0:0:0:0:
469,192,61904,1,0,0:0:0:0:
42,192,61904,1,0,0:0:0:50:LR_Drum Kick Wet Fast.wav
469,192,62061,1,0,0:0:0:0:
298,192,62218,1,0,0:0:0:0:
42,192,62218,1,0,0:0:0:50:LR_Drum Kick Wet Fast.wav
298,192,62375,1,0,0:0:0:50:LR_Drum Rpd Fast .wav
384,192,62375,1,0,0:0:0:0:
469,192,62375,1,0,0:0:0:0:
128,192,62532,1,0,0:0:0:0:
42,192,62532,1,0,0:0:0:50:LR_Drum Kick Wet Fast.wav
128,192,62689,1,0,0:0:0:0:
298,192,62846,1,0,0:0:0:0:
42,192,62846,1,0,0:0:0:50:LR_Drum Kick Wet Fast.wav
298,192,63003,1,0,0:0:0:0:
469,192,63160,1,0,0:0:0:0:
42,192,63160,1,0,0:0:0:50:LR_Drum Kick Wet Fast.wav
469,192,63317,1,0,0:0:0:0:
213,192,63317,1,0,0:0:0:50:LR_Drum Rpd Fast .wav
384,192,63317,1,0,0:0:0:0:
128,192,63474,1,0,0:0:0:0:
42,192,63474,1,0,0:0:0:50:LR_Drum Kick Wet Fast.wav
128,192,63631,1,0,0:0:0:50:LR_Drum Rpd Fast .wav
469,192,63631,1,0,0:0:0:0:
298,192,63631,1,0,0:0:0:0:
42,192,63789,1,0,0:0:0:50:LR_Drum Kick Wet Fast.wav
384,192,63789,1,0,0:0:0:0:
384,192,63946,1,0,0:0:0:0:
298,192,64103,1,0,0:0:0:0:
213,192,64103,1,0,0:0:0:50:LR_Drum Kick Wet Fast.wav
213,192,64260,1,0,0:0:0:0:
469,192,64417,1,0,0:0:0:0:
128,192,64417,1,0,0:0:0:50:LR_Drum Kick Wet Fast.wav
469,192,64574,1,0,0:0:0:0:
298,192,64731,1,0,0:0:0:0:
213,192,64731,1,0,0:0:0:0:
298,192,64888,1,0,0:0:0:50:LR_Drum Rpd Fast .wav
384,192,64888,1,0,0:0:0:0:
42,192,64888,1,0,0:0:0:0:
128,192,65045,1,0,0:0:0:50:LR_Drum Kick Wet Fast.wav
469,192,65045,1,0,0:0:0:0:
128,192,65202,1,0,0:0:0:0:
298,192,65359,1,0,0:0:0:0:
42,192,65359,1,0,0:0:0:50:LR_Drum Kick Wet Fast.wav
298,192,65516,1,0,0:0:0:0:
469,192,65673,1,0,0:0:0:0:
213,192,65673,1,0,0:0:0:50:LR_Drum Kick Wet Fast.wav
469,192,65830,1,0,0:0:0:0:
42,192,65830,1,0,0:0:0:50:LR_Drum Rpd Fast .wav
384,192,65830,1,0,0:0:0:0:
298,192,65987,1,0,0:0:0:0:
128,192,65987,1,0,0:0:0:50:LR_Drum Kick Wet Fast.wav
298,192,66145,1,0,0:0:0:0:
42,192,66145,1,0,0:0:0:50:LR_Drum Rpd Fast .wav
384,192,66145,1,0,0:0:0:0:
128,192,66302,1,0,0:0:0:50:LR_Drum Kick Wet Fast.wav
469,192,66302,1,0,0:0:0:0:
128,192,66459,1,0,0:0:0:0:
298,192,66616,1,0,0:0:0:0:
42,192,66616,1,0,0:0:0:50:LR_Drum Rpd Fast .wav
384,192,66616,1,0,0:0:0:0:
298,192,66773,1,0,0:0:0:0:
469,192,66930,1,0,0:0:0:0:
128,192,66930,1,0,0:0:0:50:LR_Drum Kick Wet Fast.wav
469,192,67087,1,0,0:0:0:0:
213,192,67087,1,0,0:0:0:50:LR_Drum Rpd Fast .wav
384,192,67087,1,0,0:0:0:0:
298,192,67244,1,0,0:0:0:0:
42,192,67244,1,0,0:0:0:50:LR_Drum Kick Wet Fast.wav
298,192,67401,1,0,0:0:0:0:
128,192,67401,1,0,0:0:0:50:LR_Drum Rpd Fast .wav
384,192,67401,1,0,0:0:0:0:
213,192,67558,1,0,0:0:0:50:LR_Drum Kick Wet Fast.wav
469,192,67558,1,0,0:0:0:0:
213,192,67715,1,0,0:0:0:0:
298,192,67872,1,0,0:0:0:0:
42,192,67872,1,0,0:0:0:50:LR_Drum Rpd Fast .wav
384,192,67872,1,0,0:0:0:0:
298,192,68029,1,0,0:0:0:0:
469,192,68186,1,0,0:0:0:0:
128,192,68186,1,0,0:0:0:50:LR_Drum Kick Wet Fast.wav
469,192,68344,1,0,0:0:0:0:
42,192,68344,1,0,0:0:0:50:LR_Drum Rpd Fast .wav
384,192,68344,1,0,0:0:0:0:
298,192,68501,1,0,0:0:0:0:
213,192,68501,1,0,0:0:0:50:LR_Drum Kick Wet Fast.wav
298,192,68658,1,0,0:0:0:0:
42,192,68658,1,0,0:0:0:50:LR_Drum Rpd Fast .wav
384,192,68658,1,0,0:0:0:0:
128,192,68815,1,0,0:0:0:50:LR_Drum Kick Wet Fast.wav
469,192,68815,1,0,0:0:0:0:
128,192,68972,1,0,0:0:0:0:
298,192,69129,1,0,0:0:0:0:
384,192,69129,1,0,0:0:0:0:
42,192,69129,1,0,0:0:0:50:LR_Drum Rpd Fast .wav
298,192,69286,1,0,0:0:0:0:
469,192,69443,1,0,0:0:0:0:
213,192,69443,1,0,0:0:0:50:LR_Drum Kick Wet Fast.wav
469,192,69600,1,0,0:0:0:0:
42,192,69600,1,0,0:0:0:50:LR_Drum Rpd Fast .wav
384,192,69600,1,0,0:0:0:0:
298,192,69757,1,0,0:0:0:0:
128,192,69757,1,0,0:0:0:50:LR_Drum Kick Wet Fast.wav
298,192,69914,1,0,0:0:0:0:
213,192,69914,1,0,0:0:0:50:LR_Drum Rpd Fast .wav
469,192,69914,1,0,0:0:0:0:
128,192,70071,1,0,0:0:0:0:
42,192,70071,1,0,0:0:0:50:LR_Drum Kick Wet Fast.wav
128,192,70228,5,0,0:0:0:0:
298,192,70385,1,0,0:0:0:0:
384,192,70385,1,0,0:0:0:0:
42,192,70385,1,0,0:0:0:50:LR_Drum Rpd Fast .wav
298,192,70542,1,0,0:0:0:0:
213,192,70700,1,0,0:0:0:0:
42,192,70700,1,0,0:0:0:50:LR_Drum Kick Wet Fast.wav
469,192,70700,1,0,0:0:0:0:
42,192,70857,1,0,0:0:0:50:LR_Drum Rpd Fast .wav
298,192,70857,1,0,0:0:0:0:
384,192,70935,1,0,0:0:0:50:LR_Drum Rpd Fast .wav
213,192,71014,1,0,0:0:0:50:LR_Drum Rpd Fast .wav
469,192,71014,1,0,0:0:0:0:
128,192,71092,1,0,0:0:0:50:LR_Drum Rpd Fast .wav
298,192,71171,1,0,0:0:0:50:LR_Drum Rpd Fast .wav
42,192,71171,1,0,0:0:0:0:
384,192,71249,1,0,0:0:0:50:LR_Drum Rpd Fast .wav
469,192,71328,128,0,73527:0:0:0:0:
128,192,71328,128,0,73527:0:0:0:50:LR_Drum Kick Wet Fast.wav
213,192,71328,1,4,0:0:0:0:
298,192,72584,1,2,0:0:0:0:
213,192,73213,1,2,0:0:0:0:
384,192,73527,1,0,0:0:0:50:LR_Drum Kick Wet Fast.wav
42,192,73527,1,0,0:0:0:0:
213,192,73841,128,0,75726:0:0:0:50:LR_Drum Kick Wet Fast.wav
298,192,73841,128,4,75726:0:0:0:0:
128,192,73841,1,0,0:0:0:0:
469,192,75097,1,2,0:0:0:0:
42,192,75726,1,0,0:0:0:50:LR_Drum Kick Wet Fast.wav
128,192,75726,1,0,0:0:0:0:
42,192,75883,1,0,0:0:0:50:LR_Drum Kick Wet Fast.wav
128,192,75883,1,0,0:0:0:0:
298,192,76197,1,0,0:0:0:50:LR_Drum Kick Wet Fast.wav
213,192,76275,1,0,0:0:0:50:LR_Drum Kick Wet Fast.wav
128,192,76354,128,4,78867:0:0:0:0:
384,192,76354,128,0,78867:0:0:0:0:
42,192,76354,1,0,0:0:0:50:LR_Drum Kick Wet Fast.wav
213,192,76668,1,0,0:0:0:50:LR_Drum Kick Wet Fast.wav
469,192,76982,1,0,0:0:0:50:LR_Drum Kick Wet Fast.wav
298,192,77296,1,0,0:0:0:50:LR_Drum Kick Wet Fast.wav
42,192,77611,1,0,0:0:0:50:LR_Drum Kick Wet Fast.wav
213,192,77925,1,0,0:0:0:50:LR_Drum Kick Wet Fast.wav
469,192,78239,1,0,0:0:0:50:LR_Drum Kick Wet Fast.wav
298,192,78553,1,0,0:0:0:50:LR_Drum Kick Wet Fast.wav
469,192,78867,128,4,81380:0:0:0:0:
213,192,78867,1,0,0:0:0:50:LR_Drum Kick Wet Fast.wav
42,192,78867,128,0,81380:0:0:0:0:
298,192,79181,1,0,0:0:0:50:LR_Drum Kick Wet Fast.wav
213,192,79495,1,0,0:0:0:50:LR_Drum Kick Wet Fast.wav
298,192,79809,1,0,0:0:0:50:LR_Drum Kick Wet Fast.wav
128,192,80124,1,0,0:0:0:50:LR_Drum Kick Wet Fast.wav
213,192,80202,1,0,0:0:0:50:LR_Drum Rpd Fast .wav
298,192,80281,1,0,0:0:0:50:LR_Drum Rpd Fast .wav
384,192,80359,1,0,0:0:0:50:LR_Drum Rpd Fast .wav
128,192,80438,1,0,0:0:0:50:LR_Drum Rpd Fast .wav
384,192,80752,1,0,0:0:0:50:LR_Drum Kick Wet Fast.wav
298,192,80830,1,0,0:0:0:50:LR_Drum Rpd Fast .wav
213,192,80909,1,0,0:0:0:50:LR_Drum Rpd Fast .wav
128,192,80987,1,0,0:0:0:50:LR_Drum Rpd Fast .wav
384,192,81066,1,0,0:0:0:50:LR_Drum Rpd Fast .wav
213,192,81223,1,0,0:0:0:50:LR_Drum Kick Wet Fast.wav
128,192,81380,1,0,0:0:0:50:LR_Drum Kick Wet Fast.wav
384,192,81380,1,0,0:0:0:0:
298,192,81380,1,4,0:0:0:0:
213,192,81459,1,0,0:0:0:0:LR_Drum Rpd Fast .wav
42,192,81537,1,0,0:0:0:0:LR_Drum Rpd Fast .wav
298,192,81616,1,0,0:0:0:0:LR_Drum Rpd Fast .wav
469,192,81694,1,0,0:0:0:50:LR_Drum Kick Wet Fast.wav
128,192,81773,1,0,0:0:0:0:LR_Drum Rpd Fast .wav
384,192,81851,1,0,0:0:0:0:LR_Drum Rpd Fast .wav
42,192,81930,1,0,0:0:0:0:LR_Drum Rpd Fast .wav
298,192,82008,1,0,0:0:0:0:
128,192,82087,1,0,0:0:0:0:LR_Drum Rpd Fast .wav
384,192,82166,1,0,0:0:0:0:LR_Drum Rpd Fast .wav
213,192,82244,1,0,0:0:0:0:LR_Drum Rpd Fast .wav
469,192,82323,1,0,0:0:0:50:LR_Drum Kick Wet Fast.wav
128,192,82401,1,0,0:0:0:0:LR_Drum Rpd Fast .wav
384,192,82480,1,0,0:0:0:0:LR_Drum Rpd Fast .wav
42,192,82558,1,0,0:0:0:0:LR_Drum Rpd Fast .wav
298,192,82637,1,0,0:0:0:0:
213,192,82715,1,0,0:0:0:0:LR_Drum Rpd Fast .wav
384,192,82794,1,0,0:0:0:0:LR_Drum Rpd Fast .wav
128,192,82872,1,0,0:0:0:0:LR_Drum Rpd Fast .wav
469,192,82951,1,0,0:0:0:50:LR_Drum Kick Wet Fast.wav
42,192,83029,1,0,0:0:0:0:LR_Drum Rpd Fast .wav
384,192,83108,1,0,0:0:0:0:LR_Drum Rpd Fast .wav
128,192,83186,1,0,0:0:0:0:LR_Drum Rpd Fast .wav
298,192,83265,1,0,0:0:0:0:
213,192,83344,1,0,0:0:0:0:LR_Drum Rpd Fast .wav
128,192,83422,1,0,0:0:0:0:LR_Drum Rpd Fast .wav
384,192,83501,1,0,0:0:0:0:LR_Drum Rpd Fast .wav
469,192,83579,1,0,0:0:0:50:LR_Drum Kick Wet Fast.wav
42,192,83658,1,0,0:0:0:0:LR_Drum Rpd Fast .wav
298,192,83736,1,0,0:0:0:0:LR_Drum Rpd Fast .wav
128,192,83815,1,0,0:0:0:0:LR_Drum Rpd Fast .wav
384,192,83893,1,4,0:0:0:50:LR_Drum Kick Wet Fast.wav
213,192,83893,1,4,0:0:0:0:
42,192,83893,1,0,0:0:0:0:
469,192,83972,1,0,0:0:0:0:LR_Drum Rpd Fast .wav
298,192,84050,1,0,0:0:0:0:LR_Drum Rpd Fast .wav
128,192,84129,1,0,0:0:0:0:LR_Drum Rpd Fast .wav
213,192,84207,1,0,0:0:0:50:LR_Drum Kick Wet Fast.wav
384,192,84286,1,0,0:0:0:0:LR_Drum Rpd Fast .wav
128,192,84364,1,0,0:0:0:0:LR_Drum Rpd Fast .wav
298,192,84443,1,0,0:0:0:0:LR_Drum Rpd Fast .wav
469,192,84522,1,0,0:0:0:0:
42,192,84600,1,0,0:0:0:0:LR_Drum Rpd Fast .wav
213,192,84679,1,0,0:0:0:0:LR_Drum Rpd Fast .wav
384,192,84757,1,0,0:0:0:0:LR_Drum Rpd Fast .wav
128,192,84836,1,0,0:0:0:50:LR_Drum Kick Wet Fast.wav
298,192,84914,1,0,0:0:0:0:LR_Drum Rpd Fast .wav
42,192,84993,1,0,0:0:0:0:LR_Drum Rpd Fast .wav
213,192,85071,1,0,0:0:0:0:LR_Drum Rpd Fast .wav
384,192,85150,1,0,0:0:0:0:
298,192,85228,1,0,0:0:0:0:LR_Drum Rpd Fast .wav
128,192,85307,1,0,0:0:0:0:LR_Drum Rpd Fast .wav
213,192,85385,1,0,0:0:0:0:LR_Drum Rpd Fast .wav
298,192,85464,1,0,0:0:0:50:LR_Drum Kick Wet Fast.wav
128,192,85542,1,0,0:0:0:0:LR_Drum Rpd Fast .wav
384,192,85621,1,0,0:0:0:0:LR_Drum Rpd Fast .wav
213,192,85700,1,0,0:0:0:0:LR_Drum Rpd Fast .wav
469,192,85778,1,0,0:0:0:0:
298,192,85857,1,0,0:0:0:0:LR_Drum Rpd Fast .wav
128,192,85935,1,0,0:0:0:0:LR_Drum Rpd Fast .wav
384,192,86014,1,0,0:0:0:0:LR_Drum Rpd Fast .wav
213,192,86092,1,0,0:0:0:50:LR_Drum Kick Wet Fast.wav
42,192,86171,1,0,0:0:0:0:LR_Drum Rpd Fast .wav
469,192,86249,1,0,0:0:0:0:LR_Drum Rpd Fast .wav
298,192,86328,1,0,0:0:0:0:LR_Drum Rpd Fast .wav
128,192,86406,1,4,0:0:0:50:LR_Drum Kick Wet Fast.wav
213,192,86406,1,4,0:0:0:0:
42,192,86406,1,0,0:0:0:0:
384,192,86485,1,0,0:0:0:0:LR_Drum Rpd Fast .wav
42,192,86563,1,0,0:0:0:0:LR_Drum Rpd Fast .wav
298,192,86642,1,0,0:0:0:0:LR_Drum Rpd Fast .wav
213,192,86720,1,0,0:0:0:50:LR_Drum Kick Wet Fast.wav
469,192,86799,1,0,0:0:0:0:LR_Drum Rpd Fast .wav
128,192,86878,1,0,0:0:0:0:LR_Drum Rpd Fast .wav
384,192,86956,1,0,0:0:0:0:LR_Drum Rpd Fast .wav
298,192,87035,1,0,0:0:0:0:
42,192,87113,1,0,0:0:0:0:LR_Drum Rpd Fast .wav
384,192,87192,1,0,0:0:0:0:LR_Drum Rpd Fast .wav
128,192,87270,1,0,0:0:0:0:LR_Drum Rpd Fast .wav
298,192,87349,1,0,0:0:0:50:LR_Drum Kick Wet Fast.wav
42,192,87427,1,0,0:0:0:0:LR_Drum Rpd Fast .wav
469,192,87506,1,0,0:0:0:0:LR_Drum Rpd Fast .wav
298,192,87584,1,0,0:0:0:0:LR_Drum Rpd Fast .wav
128,192,87663,1,0,0:0:0:0:
384,192,87741,1,0,0:0:0:0:LR_Drum Rpd Fast .wav
42,192,87820,1,0,0:0:0:0:LR_Drum Rpd Fast .wav
298,192,87898,1,0,0:0:0:0:
469,192,87977,1,0,0:0:0:50:LR_Drum Kick Wet Fast.wav
128,192,88056,1,0,0:0:0:0:LR_Drum Rpd Fast .wav
384,192,88134,1,0,0:0:0:0:LR_Drum Rpd Fast .wav
42,192,88213,1,0,0:0:0:0:LR_Drum Rpd Fast .wav
298,192,88291,1,0,0:0:0:0:
213,192,88370,1,0,0:0:0:0:LR_Drum Rpd Fast .wav
128,192,88448,1,0,0:0:0:0:LR_Drum Rpd Fast .wav
469,192,88527,1,0,0:0:0:0:LR_Drum Rpd Fast .wav
384,192,88605,1,0,0:0:0:50:LR_Drum Kick Wet Fast.wav
42,192,88684,1,0,0:0:0:0:
128,192,88762,1,0,0:0:0:0:LR_Drum Kick Wet Fast.wav
213,192,88841,1,0,0:0:0:0:
384,192,88919,1,0,0:0:0:50:LR_Drum Kick Wet Fast.wav
298,192,88919,1,4,0:0:0:0:
469,192,88919,1,0,0:0:0:0:
42,192,88998,1,0,0:0:0:0:LR_Drum Rpd Fast .wav
298,192,89077,1,0,0:0:0:0:LR_Drum Rpd Fast .wav
128,192,89155,1,0,0:0:0:0:LR_Drum Rpd Fast .wav
384,192,89234,1,0,0:0:0:50:LR_Drum Kick Wet Fast.wav
42,192,89312,1,0,0:0:0:0:LR_Drum Rpd Fast .wav
298,192,89391,1,0,0:0:0:0:LR_Drum Rpd Fast .wav
128,192,89469,1,0,0:0:0:0:LR_Drum Rpd Fast .wav
384,192,89548,1,0,0:0:0:50:LR_Drum Kick Wet Fast.wav
42,192,89626,1,0,0:0:0:0:LR_Drum Rpd Fast .wav
298,192,89705,1,0,0:0:0:0:LR_Drum Rpd Fast .wav
128,192,89783,1,0,0:0:0:0:LR_Drum Rpd Fast .wav
384,192,89862,1,0,0:0:0:50:LR_Drum Kick Wet Fast.wav
42,192,89940,1,0,0:0:0:0:LR_Drum Rpd Fast .wav
213,192,90019,1,0,0:0:0:0:LR_Drum Rpd Fast .wav
298,192,90097,1,0,0:0:0:0:LR_Drum Rpd Fast .wav
128,192,90176,1,0,0:0:0:50:LR_Drum Kick Wet Fast.wav
469,192,90255,1,0,0:0:0:0:LR_Drum Rpd Fast .wav
128,192,90333,1,0,0:0:0:0:LR_Drum Rpd Fast .wav
384,192,90412,1,0,0:0:0:0:LR_Drum Rpd Fast .wav
213,192,90490,1,0,0:0:0:50:LR_Drum Kick Wet Fast.wav
469,192,90569,1,0,0:0:0:0:LR_Drum Rpd Fast .wav
128,192,90647,1,0,0:0:0:0:LR_Drum Rpd Fast .wav
384,192,90726,1,0,0:0:0:0:LR_Drum Rpd Fast .wav
213,192,90804,1,0,0:0:0:50:LR_Drum Kick Wet Fast.wav
469,192,90883,1,0,0:0:0:0:LR_Drum Rpd Fast .wav
128,192,90961,1,0,0:0:0:0:LR_Drum Rpd Fast .wav
384,192,91040,1,0,0:0:0:0:LR_Drum Rpd Fast .wav
213,192,91118,1,0,0:0:0:50:LR_Drum Kick Wet Fast.wav
42,192,91197,1,0,0:0:0:0:LR_Drum Rpd Fast .wav
469,192,91275,1,0,0:0:0:0:LR_Drum Rpd Fast .wav
384,192,91354,1,0,0:0:0:0:LR_Drum Rpd Fast .wav
42,192,91433,1,0,0:0:0:50:LR_Drum Kick Wet Fast.wav
128,192,91433,1,0,0:0:0:0:
298,192,91433,1,4,0:0:0:0:
42,192,93003,1,0,0:0:0:0:
469,192,93003,1,0,0:0:0:0:
384,192,93003,1,0,0:0:0:50:LR_Drum Rpd Fast .wav
298,192,93082,1,0,0:0:0:50:LR_Drum Rpd Fast .wav
128,192,93160,1,0,0:0:0:50:LR_Drum Kick Wet Fast.wav
213,192,93160,1,0,0:0:0:0:
469,192,93239,1,0,0:0:0:50:LR_Drum Kick Wet Fast.wav
384,192,93317,1,0,0:0:0:0:
298,192,93317,1,0,0:0:0:50:LR_Drum Kick Wet Fast.wav
42,192,93396,1,0,0:0:0:50:LR_Drum Kick Wet Fast.wav
128,192,93474,1,0,0:0:0:50:LR_Drum Kick Wet Fast.wav
213,192,93474,1,0,0:0:0:0:
469,192,93553,1,0,0:0:0:50:LR_Drum Kick Wet Fast.wav
298,192,93631,1,4,0:0:0:0:
384,192,93631,1,0,0:0:0:0:
42,192,93631,1,0,0:0:0:50:LR_Drum Rpd Fast .wav
213,192,93789,1,0,0:0:0:0:
128,192,93789,1,0,0:0:0:50:LR_Drum Kick Wet Fast.wav
42,192,93946,1,4,0:0:0:0:
469,192,93946,1,0,0:0:0:0:
298,192,93946,1,0,0:0:0:50:LR_Drum Kick Wet Fast.wav
298,192,94103,1,0,0:0:0:50:LR_Drum Kick Wet Fast.wav
469,192,94103,1,0,0:0:0:0:
298,192,94260,1,0,0:0:0:50:LR_Drum Kick Wet Fast.wav
469,192,94260,1,0,0:0:0:0:
128,192,94260,1,0,0:0:0:0:
298,192,94417,1,0,0:0:0:50:LR_Drum Kick Wet Fast.wav
469,192,94417,1,0,0:0:0:0:
298,192,94574,1,0,0:0:0:50:LR_Drum Kick Wet Fast.wav
469,192,94574,1,0,0:0:0:0:
213,192,94574,1,0,0:0:0:50:LR_Drum Rpd Fast .wav
298,192,94731,1,0,0:0:0:50:LR_Drum Kick Wet Fast.wav
469,192,94731,1,0,0:0:0:0:
298,192,94888,1,0,0:0:0:50:LR_Drum Kick Wet Fast.wav
469,192,94888,1,0,0:0:0:0:
42,192,94888,1,0,0:0:0:0:
298,192,95045,1,0,0:0:0:50:LR_Drum Kick Wet Fast.wav
469,192,95045,1,0,0:0:0:0:
128,192,95045,1,0,0:0:0:0:
42,192,95124,1,0,0:0:0:50:LR_Drum Kick Wet Fast.wav
298,192,95202,1,0,0:0:0:50:LR_Drum Kick Wet Fast.wav
469,192,95202,1,0,0:0:0:0:
213,192,95202,1,0,0:0:0:0:
42,192,95359,1,0,0:0:0:50:LR_Drum Kick Wet Fast.wav
128,192,95359,1,0,0:0:0:0:
42,192,95516,1,0,0:0:0:50:LR_Drum Kick Wet Fast.wav
128,192,95516,1,0,0:0:0:0:
298,192,95516,1,0,0:0:0:0:
42,192,95673,1,0,0:0:0:50:LR_Drum Kick Wet Fast.wav
128,192,95673,1,0,0:0:0:0:
42,192,95830,1,0,0:0:0:50:LR_Drum Kick Wet Fast.wav
128,192,95830,1,0,0:0:0:0:
384,192,95830,1,0,0:0:0:50:LR_Drum Rpd Fast .wav
42,192,95987,1,0,0:0:0:50:LR_Drum Kick Wet Fast.wav
128,192,95987,1,0,0:0:0:0:
42,192,96145,1,0,0:0:0:50:LR_Drum Kick Wet Fast.wav
128,192,96145,1,0,0:0:0:0:
469,192,96145,1,0,0:0:0:0:
42,192,96302,1,0,0:0:0:50:LR_Drum Kick Wet Fast.wav
128,192,96302,1,0,0:0:0:0:
42,192,96459,1,0,0:0:0:50:LR_Drum Kick Wet Fast.wav
128,192,96459,1,0,0:0:0:0:
469,192,96459,1,0,0:0:0:0:
298,192,96616,1,0,0:0:0:50:LR_Drum Kick Wet Fast.wav
384,192,96616,1,0,0:0:0:0:
298,192,96773,1,0,0:0:0:50:LR_Drum Kick Wet Fast.wav
384,192,96773,1,0,0:0:0:0:
42,192,96773,1,0,0:0:0:0:
298,192,96930,1,0,0:0:0:50:LR_Drum Kick Wet Fast.wav
384,192,96930,1,0,0:0:0:0:
298,192,97087,1,0,0:0:0:50:LR_Drum Kick Wet Fast.wav
384,192,97087,1,0,0:0:0:0:
128,192,97087,1,0,0:0:0:50:LR_Drum Rpd Fast .wav
298,192,97244,1,0,0:0:0:50:LR_Drum Kick Wet Fast.wav
384,192,97244,1,0,0:0:0:0:
298,192,97401,1,0,0:0:0:50:LR_Drum Kick Wet Fast.wav
384,192,97401,1,0,0:0:0:0:
42,192,97401,1,0,0:0:0:0:
298,192,97558,1,0,0:0:0:0:
384,192,97558,1,0,0:0:0:0:
213,192,97558,1,0,0:0:0:50:LR_Drum Kick Wet Fast.wav
128,192,97637,1,0,0:0:0:50:LR_Drum Kick Wet Fast.wav
298,192,97715,1,0,0:0:0:0:
384,192,97715,1,0,0:0:0:0:
42,192,97715,1,0,0:0:0:50:LR_Drum Kick Wet Fast.wav
213,192,97872,1,0,0:0:0:50:LR_Drum Kick Wet Fast.wav
469,192,97872,1,0,0:0:0:0:
213,192,98029,1,0,0:0:0:50:LR_Drum Kick Wet Fast.wav
469,192,98029,1,0,0:0:0:0:
42,192,98029,1,0,0:0:0:0:
213,192,98186,1,0,0:0:0:50:LR_Drum Kick Wet Fast.wav
469,192,98186,1,0,0:0:0:0:
213,192,98344,1,0,0:0:0:50:LR_Drum Rpd Fast .wav
469,192,98344,1,0,0:0:0:0:
384,192,98344,1,0,0:0:0:0:
42,192,98501,1,0,0:0:0:50:LR_Drum Kick Wet Fast.wav
298,192,98501,1,0,0:0:0:0:
213,192,98658,1,0,0:0:0:0:
469,192,98658,1,0,0:0:0:0:
128,192,98658,1,0,0:0:0:50:LR_Drum Rpd Fast .wav
42,192,98815,1,0,0:0:0:50:LR_Drum Kick Wet Fast.wav
298,192,98815,1,0,0:0:0:0:
128,192,98972,1,0,0:0:0:50:LR_Drum Kick Wet Fast.wav
213,192,98972,1,0,0:0:0:0:
384,192,98972,1,0,0:0:0:0:
128,192,99129,1,0,0:0:0:50:LR_Drum Kick Wet Fast.wav
213,192,99129,1,0,0:0:0:0:
128,192,99286,1,0,0:0:0:50:LR_Drum Kick Wet Fast.wav
213,192,99286,1,0,0:0:0:0:
469,192,99286,1,0,0:0:0:0:
128,192,99443,1,0,0:0:0:50:LR_Drum Kick Wet Fast.wav
213,192,99443,1,0,0:0:0:0:
128,192,99600,1,0,0:0:0:50:LR_Drum Kick Wet Fast.wav
213,192,99600,1,0,0:0:0:0:
298,192,99600,1,0,0:0:0:50:LR_Drum Rpd Fast .wav
128,192,99757,1,0,0:0:0:50:LR_Drum Kick Wet Fast.wav
213,192,99757,1,0,0:0:0:0:
128,192,99914,1,0,0:0:0:50:LR_Drum Kick Wet Fast.wav
213,192,99914,1,0,0:0:0:0:
384,192,99914,1,0,0:0:0:0:
128,192,100071,1,0,0:0:0:50:LR_Drum Kick Wet Fast.wav
213,192,100071,1,0,0:0:0:0:
469,192,100071,1,0,0:0:0:0:
384,192,100150,1,0,0:0:0:50:LR_Drum Kick Wet Fast.wav
128,192,100228,1,0,0:0:0:50:LR_Drum Kick Wet Fast.wav
213,192,100228,1,0,0:0:0:0:
298,192,100228,1,0,0:0:0:0:
384,192,100385,1,0,0:0:0:50:LR_Drum Kick Wet Fast.wav
469,192,100385,1,0,0:0:0:0:
384,192,100542,1,0,0:0:0:50:LR_Drum Kick Wet Fast.wav
469,192,100542,1,0,0:0:0:0:
213,192,100542,1,0,0:0:0:0:
384,192,100700,1,0,0:0:0:50:LR_Drum Kick Wet Fast.wav
469,192,100700,1,0,0:0:0:0:
384,192,100857,1,0,0:0:0:50:LR_Drum Kick Wet Fast.wav
469,192,100857,1,0,0:0:0:0:
42,192,100857,1,0,0:0:0:50:LR_Drum Rpd Fast .wav
384,192,101014,1,0,0:0:0:50:LR_Drum Kick Wet Fast.wav
469,192,101014,1,0,0:0:0:0:
469,192,101171,1,0,0:0:0:0:
128,192,101171,1,0,0:0:0:0:
384,192,101171,1,0,0:0:0:50:LR_Drum Rpd Fast .wav
298,192,101249,1,0,0:0:0:50:LR_Drum Rpd Fast .wav
213,192,101328,1,0,0:0:0:0:
42,192,101328,1,0,0:0:0:50:LR_Drum Rpd Fast .wav
469,192,101406,1,0,0:0:0:50:LR_Drum Rpd Fast .wav
384,192,101485,1,0,0:0:0:50:LR_Drum Kick Wet Fast.wav
128,192,101485,1,4,0:0:0:0:
298,192,101642,1,0,0:0:0:50:LR_Drum Kick Wet Fast.wav
384,192,101799,128,0,101956:0:0:0:0:
128,192,101799,128,0,101956:0:0:0:0:
42,192,101799,128,0,101956:0:0:0:0:
213,192,101956,1,0,0:0:0:50:LR_Drum Kick Wet Fast.wav
469,192,101956,1,0,0:0:0:0:
128,192,102113,128,0,102270:0:0:0:0:
384,192,102113,128,0,102270:0:0:0:0:
42,192,102113,128,0,102270:0:0:0:50:LR_Drum Rpd Fast .wav
298,192,102270,1,0,0:0:0:50:LR_Drum Kick Wet Fast.wav
213,192,102349,1,0,0:0:0:50:LR_Drum Kick Wet Fast.wav
298,192,102427,1,0,0:0:0:0:
128,192,102427,1,0,0:0:0:0:
42,192,102427,1,0,0:0:0:50:LR_Drum Rpd Fast .wav
42,192,102584,128,0,102741:0:0:0:0:
298,192,102584,128,0,102741:0:0:0:0:
128,192,102584,128,4,102741:0:0:0:0:
469,192,102898,128,0,103056:0:0:0:0:
213,192,102898,128,0,103056:0:0:0:50:LR_Drum Kick Wet Fast.wav
384,192,102898,128,4,103056:0:0:0:0:
42,192,103056,1,0,0:0:0:50:LR_Drum Rpd Fast .wav
128,192,103056,1,0,0:0:0:0:
298,192,103056,1,0,0:0:0:0:
42,192,103213,128,0,103370:0:0:0:0:
298,192,103213,128,0,103370:0:0:0:0:
128,192,103213,128,4,103370:0:0:0:50:LR_Drum Kick Wet Fast.wav
469,192,103370,1,0,0:0:0:0:
384,192,103370,1,0,0:0:0:50:LR_Drum Rpd Fast .wav
213,192,103448,1,0,0:0:0:50:LR_Drum Rpd Fast .wav
384,192,103527,1,0,0:0:0:50:LR_Drum Rpd Fast .wav
213,192,103605,1,0,0:0:0:50:LR_Drum Rpd Fast .wav
128,192,103684,1,0,0:0:0:50:LR_Drum Kick Wet Fast.wav
469,192,103684,1,0,0:0:0:0:
42,192,103762,1,0,0:0:0:50:LR_Drum Kick Wet Fast.wav
213,192,103841,1,0,0:0:0:50:LR_Drum Kick Wet Fast.wav
384,192,103841,1,0,0:0:0:0:
128,192,103919,1,0,0:0:0:50:LR_Drum Kick Wet Fast.wav
298,192,103998,1,4,0:0:0:0:
42,192,103998,1,0,0:0:0:50:LR_Drum Kick Wet Fast.wav
469,192,103998,1,0,0:0:0:0:
128,192,104155,1,0,0:0:0:50:LR_Drum Kick Wet Fast.wav
384,192,104155,1,0,0:0:0:0:
42,192,104312,1,0,0:0:0:50:LR_Drum Rpd Fast .wav
298,192,104312,1,0,0:0:0:0:
469,192,104312,1,0,0:0:0:0:
213,192,104469,1,0,0:0:0:50:LR_Drum Kick Wet Fast.wav
384,192,104469,1,0,0:0:0:0:
128,192,104626,1,0,0:0:0:50:LR_Drum Kick Wet Fast.wav
298,192,104626,1,0,0:0:0:0:
213,192,104783,1,0,0:0:0:50:LR_Drum Kick Wet Fast.wav
384,192,104783,1,0,0:0:0:0:
42,192,104940,1,0,0:0:0:50:LR_Drum Rpd Fast .wav
128,192,104940,1,0,0:0:0:0:
469,192,104940,1,0,0:0:0:0:
213,192,105097,1,0,0:0:0:50:LR_Drum Kick Wet Fast.wav
128,192,105176,1,0,0:0:0:50:LR_Drum Kick Wet Fast.wav
384,192,105255,1,0,0:0:0:0:
298,192,105255,1,0,0:0:0:50:LR_Drum Kick Wet Fast.wav
213,192,105412,1,0,0:0:0:0:
42,192,105412,1,0,0:0:0:50:LR_Drum Kick Wet Fast.wav
469,192,105569,1,0,0:0:0:0:
128,192,105569,1,0,0:0:0:50:LR_Drum Rpd Fast .wav
384,192,105569,1,0,0:0:0:0:
213,192,105726,1,0,0:0:0:0:
42,192,105726,1,0,0:0:0:50:LR_Drum Kick Wet Fast.wav
298,192,105883,1,0,0:0:0:50:LR_Drum Kick Wet Fast.wav
469,192,105883,1,0,0:0:0:0:
42,192,106040,1,0,0:0:0:50:LR_Drum Kick Wet Fast.wav
213,192,106040,1,0,0:0:0:0:
128,192,106197,1,0,0:0:0:50:LR_Drum Rpd Fast .wav
384,192,106197,1,0,0:0:0:0:
298,192,106197,1,0,0:0:0:0:
213,192,106354,1,0,0:0:0:50:LR_Drum Kick Wet Fast.wav
469,192,106354,1,0,0:0:0:0:
128,192,106511,1,0,0:0:0:0:
384,192,106511,1,0,0:0:0:0:
42,192,106511,1,0,0:0:0:50:LR_Drum Kick Wet Fast.wav
298,192,106668,1,0,0:0:0:50:LR_Drum Kick Wet Fast.wav
469,192,106668,1,0,0:0:0:0:
213,192,106825,1,0,0:0:0:0:
384,192,106825,1,0,0:0:0:0:
128,192,106825,1,0,0:0:0:50:LR_Drum Rpd Fast .wav
42,192,106982,1,0,0:0:0:50:LR_Drum Kick Wet Fast.wav
298,192,106982,1,0,0:0:0:0:
213,192,107139,1,0,0:0:0:0:
128,192,107139,1,0,0:0:0:50:LR_Drum Rpd Fast .wav
384,192,107139,1,0,0:0:0:0:
42,192,107296,1,0,0:0:0:50:LR_Drum Kick Wet Fast.wav
298,192,107296,1,0,0:0:0:0:
213,192,107453,1,0,0:0:0:50:LR_Drum Kick Wet Fast.wav
469,192,107453,1,0,0:0:0:0:
384,192,107611,1,0,0:0:0:50:LR_Drum Kick Wet Fast.wav
298,192,107689,1,0,0:0:0:50:LR_Drum Kick Wet Fast.wav
128,192,107768,1,0,0:0:0:50:LR_Drum Kick Wet Fast.wav
213,192,107768,1,0,0:0:0:0:
42,192,107925,1,0,0:0:0:50:LR_Drum Rpd Fast .wav
298,192,107925,1,0,0:0:0:0:
469,192,107925,1,0,0:0:0:0:
128,192,108082,1,0,0:0:0:50:LR_Drum Kick Wet Fast.wav
213,192,108082,1,0,0:0:0:0:
384,192,108239,1,0,0:0:0:0:
298,192,108239,1,0,0:0:0:50:LR_Drum Kick Wet Fast.wav
42,192,108396,1,0,0:0:0:50:LR_Drum Rpd Fast .wav
213,192,108396,1,0,0:0:0:0:
469,192,108396,1,0,0:0:0:0:
384,192,108553,1,0,0:0:0:0:
298,192,108553,1,0,0:0:0:50:LR_Drum Kick Wet Fast.wav
469,192,108710,1,0,0:0:0:0:
42,192,108710,1,0,0:0:0:50:LR_Drum Rpd Fast .wav
213,192,108710,1,0,0:0:0:0:
128,192,108867,1,0,0:0:0:50:LR_Drum Kick Wet Fast.wav
384,192,108867,1,0,0:0:0:0:
42,192,109024,1,0,0:0:0:50:LR_Drum Kick Wet Fast.wav
298,192,109024,1,0,0:0:0:0:
213,192,109024,1,0,0:0:0:0:
384,192,109181,1,0,0:0:0:0:
469,192,109181,1,0,0:0:0:50:LR_Drum Kick Wet Fast.wav
213,192,109338,1,0,0:0:0:50:LR_Drum Rpd Fast .wav
128,192,109338,1,0,0:0:0:0:
298,192,109338,1,0,0:0:0:0:
42,192,109495,1,0,0:0:0:50:LR_Drum Kick Wet Fast.wav
469,192,109495,1,0,0:0:0:0:
298,192,109652,1,0,0:0:0:50:LR_Drum Kick Wet Fast.wav
384,192,109652,1,0,0:0:0:0:
128,192,109809,1,0,0:0:0:50:LR_Drum Kick Wet Fast.wav
213,192,109809,1,0,0:0:0:0:
384,192,109967,1,0,0:0:0:0:
469,192,109967,1,0,0:0:0:0:
42,192,109967,1,0,0:0:0:50:LR_Drum Rpd Fast .wav
298,192,110124,1,0,0:0:0:50:LR_Drum Kick Wet Fast.wav
213,192,110202,1,0,0:0:0:50:LR_Drum Kick Wet Fast.wav
128,192,110281,1,0,0:0:0:0:
42,192,110281,1,0,0:0:0:50:LR_Drum Kick Wet Fast.wav
469,192,110438,5,0,0:0:0:0:
384,192,110438,1,0,0:0:0:50:LR_Drum Kick Wet Fast.wav
213,192,110595,1,0,0:0:0:0:
128,192,110595,1,0,0:0:0:50:LR_Drum Rpd Fast .wav
298,192,110595,1,0,0:0:0:0:
42,192,110752,1,0,0:0:0:50:LR_Drum Kick Wet Fast.wav
469,192,110752,1,0,0:0:0:0:
384,192,110909,1,0,0:0:0:0:
128,192,110909,1,0,0:0:0:50:LR_Drum Kick Wet Fast.wav
42,192,111066,1,0,0:0:0:50:LR_Drum Kick Wet Fast.wav
298,192,111066,1,0,0:0:0:0:
213,192,111223,1,0,0:0:0:0:
469,192,111223,1,0,0:0:0:0:
128,192,111223,1,0,0:0:0:50:LR_Drum Rpd Fast .wav
42,192,111380,1,0,0:0:0:50:LR_Drum Kick Wet Fast.wav
298,192,111380,1,0,0:0:0:0:
128,192,111537,5,0,0:0:0:50:LR_Drum Kick Wet Fast.wav
384,192,111537,1,0,0:0:0:0:
469,192,111537,1,0,0:0:0:0:
128,192,111694,1,0,0:0:0:50:LR_Drum Kick Wet Fast.wav
298,192,111851,1,0,0:0:0:0:
42,192,111851,1,0,0:0:0:50:LR_Drum Rpd Fast .wav
384,192,111851,1,0,0:0:0:0:
298,192,112008,1,0,0:0:0:0:
128,192,112008,1,0,0:0:0:50:LR_Drum Kick Wet Fast.wav
469,192,112166,1,0,0:0:0:0:
42,192,112166,1,0,0:0:0:50:LR_Drum Rpd Fast .wav
213,192,112166,1,0,0:0:0:0:
469,192,112323,1,0,0:0:0:0:
128,192,112323,1,0,0:0:0:50:LR_Drum Kick Wet Fast.wav
298,192,112480,1,0,0:0:0:0:
42,192,112480,1,0,0:0:0:50:LR_Drum Rpd Fast .wav
213,192,112480,1,0,0:0:0:0:
469,192,112637,1,0,0:0:0:50:LR_Drum Kick Wet Fast.wav
42,192,112637,1,0,0:0:0:0:
128,192,112715,1,0,0:0:0:50:LR_Drum Kick Wet Fast.wav
384,192,112794,128,0,113422:0:0:0:0:
298,192,112794,1,0,0:0:0:50:LR_Drum Rpd Fast .wav
213,192,112872,1,0,0:0:0:50:LR_Drum Rpd Fast .wav
128,192,112951,1,0,0:0:0:50:LR_Drum Rpd Fast .wav
42,192,113029,1,0,0:0:0:50:LR_Drum Rpd Fast .wav
298,192,113108,1,0,0:0:0:50:LR_Drum Kick Wet Fast.wav
128,192,113186,1,0,0:0:0:50:LR_Drum Kick Wet Fast.wav
213,192,113265,1,0,0:0:0:50:LR_Drum Kick Wet Fast.wav
298,192,113344,1,0,0:0:0:50:LR_Drum Kick Wet Fast.wav
42,192,113422,128,0,114050:0:0:0:0:
128,192,113422,1,0,0:0:0:50:LR_Drum Rpd Fast .wav
469,192,113501,1,0,0:0:0:50:LR_Drum Rpd Fast .wav
213,192,113579,1,0,0:0:0:50:LR_Drum Rpd Fast .wav
384,192,113658,1,0,0:0:0:50:LR_Drum Rpd Fast .wav
128,192,113736,1,0,0:0:0:50:LR_Drum Kick Wet Fast.wav
298,192,113815,1,0,0:0:0:50:LR_Drum Kick Wet Fast.wav
469,192,113893,1,0,0:0:0:50:LR_Drum Kick Wet Fast.wav
213,192,113972,1,0,0:0:0:50:LR_Drum Kick Wet Fast.wav
384,192,114050,1,0,0:0:0:50:LR_Drum Kick Wet Fast.wav
128,192,114050,1,4,0:0:0:0:
128,192,114207,1,0,0:0:0:0:
298,192,114364,1,0,0:0:0:0:
42,192,114364,1,0,0:0:0:50:LR_Drum Rpd Fast .wav
469,192,114364,1,0,0:0:0:0:
298,192,114522,1,0,0:0:0:0:
469,192,114679,1,0,0:0:0:0:
213,192,114679,1,0,0:0:0:50:LR_Drum Kick Wet Fast.wav
469,192,114836,1,0,0:0:0:0:
298,192,114993,1,0,0:0:0:0:
128,192,114993,1,0,0:0:0:0:
42,192,114993,1,0,0:0:0:50:LR_Drum Rpd Fast .wav
298,192,115150,1,0,0:0:0:0:
128,192,115307,1,0,0:0:0:50:LR_Drum Kick Wet Fast.wav
469,192,115307,1,0,0:0:0:0:
128,192,115464,1,0,0:0:0:0:
298,192,115621,1,0,0:0:0:0:
42,192,115621,1,0,0:0:0:50:LR_Drum Rpd Fast .wav
384,192,115621,1,0,0:0:0:0:
298,192,115778,1,0,0:0:0:0:
469,192,115935,1,0,0:0:0:0:
128,192,115935,1,0,0:0:0:50:LR_Drum Kick Wet Fast.wav
469,192,116092,1,0,0:0:0:0:
298,192,116249,1,0,0:0:0:0:
42,192,116249,1,0,0:0:0:50:LR_Drum Rpd Fast .wav
384,192,116249,1,0,0:0:0:0:
298,192,116406,1,0,0:0:0:0:
42,192,116563,1,0,0:0:0:50:LR_Drum Kick Wet Fast.wav
469,192,116563,1,0,0:0:0:0:
42,192,116720,1,0,0:0:0:0:
213,192,116878,1,0,0:0:0:0:
469,192,116878,1,0,0:0:0:0:
128,192,116878,1,0,0:0:0:50:LR_Drum Rpd Fast .wav
213,192,117035,1,0,0:0:0:0:
384,192,117192,1,0,0:0:0:0:
42,192,117192,1,0,0:0:0:50:LR_Drum Kick Wet Fast.wav
384,192,117349,1,0,0:0:0:0:
213,192,117506,1,0,0:0:0:0:
469,192,117506,1,0,0:0:0:0:
128,192,117506,1,0,0:0:0:50:LR_Drum Rpd Fast .wav
213,192,117663,1,0,0:0:0:0:
42,192,117820,1,0,0:0:0:50:LR_Drum Kick Wet Fast.wav
384,192,117820,1,0,0:0:0:0:
42,192,117977,1,0,0:0:0:0:
213,192,118134,1,0,0:0:0:50:LR_Drum Rpd Fast .wav
469,192,118134,1,0,0:0:0:0:
298,192,118134,1,0,0:0:0:0:
213,192,118291,1,0,0:0:0:0:
384,192,118448,1,0,0:0:0:0:
128,192,118448,1,0,0:0:0:50:LR_Drum Kick Wet Fast.wav
384,192,118605,1,0,0:0:0:0:
213,192,118762,1,0,0:0:0:0:
42,192,118762,1,0,0:0:0:50:LR_Drum Rpd Fast .wav
469,192,118762,1,0,0:0:0:0:
213,192,118919,1,0,0:0:0:0:
128,192,119077,1,0,0:0:0:50:LR_Drum Kick Wet Fast.wav
384,192,119077,1,0,0:0:0:0:
298,192,119077,1,0,0:0:0:0:
384,192,119234,1,0,0:0:0:0:
213,192,119391,1,0,0:0:0:0:
42,192,119391,1,0,0:0:0:50:LR_Drum Rpd Fast .wav
469,192,119391,1,0,0:0:0:0:
213,192,119548,1,0,0:0:0:0:
42,192,119705,1,0,0:0:0:50:LR_Drum Kick Wet Fast.wav
384,192,119705,1,0,0:0:0:0:
42,192,119862,1,0,0:0:0:0:
213,192,120019,1,0,0:0:0:50:LR_Drum Rpd Fast .wav
298,192,120019,1,0,0:0:0:0:
469,192,120019,1,0,0:0:0:0:
213,192,120176,1,0,0:0:0:0:
384,192,120333,1,0,0:0:0:0:
128,192,120333,1,0,0:0:0:50:LR_Drum Kick Wet Fast.wav
384,192,120490,1,0,0:0:0:0:
213,192,120647,1,0,0:0:0:0:
42,192,120647,1,0,0:0:0:50:LR_Drum Rpd Fast .wav
469,192,120647,1,0,0:0:0:0:
213,192,120804,1,0,0:0:0:0:
42,192,120961,1,0,0:0:0:50:LR_Drum Kick Wet Fast.wav
384,192,120961,1,0,0:0:0:0:
42,192,121118,1,0,0:0:0:0:
213,192,121275,1,0,0:0:0:0:
128,192,121275,1,0,0:0:0:50:LR_Drum Rpd Fast .wav
469,192,121275,1,0,0:0:0:0:
213,192,121433,1,0,0:0:0:0:
298,192,121590,1,0,0:0:0:0:
42,192,121590,1,0,0:0:0:50:LR_Drum Kick Wet Fast.wav
298,192,121747,1,0,0:0:0:0:
213,192,121904,1,0,0:0:0:0:
128,192,121904,1,0,0:0:0:50:LR_Drum Rpd Fast .wav
469,192,121904,1,0,0:0:0:0:
469,192,122061,1,0,0:0:0:0:
42,192,122218,1,0,0:0:0:50:LR_Drum Kick Wet Fast.wav
298,192,122218,1,0,0:0:0:0:
298,192,122375,1,0,0:0:0:0:
128,192,122532,1,0,0:0:0:50:LR_Drum Rpd Fast .wav
213,192,122532,1,0,0:0:0:0:
469,192,122532,1,0,0:0:0:0:
128,192,122689,1,0,0:0:0:0:
42,192,122846,1,0,0:0:0:50:LR_Drum Kick Wet Fast.wav
298,192,122846,1,0,0:0:0:0:
298,192,123003,1,0,0:0:0:0:
384,192,123160,1,0,0:0:0:0:
42,192,123160,1,0,0:0:0:50:LR_Drum Rpd Fast .wav
213,192,123160,1,0,0:0:0:0:
384,192,123317,1,0,0:0:0:0:
298,192,123474,1,0,0:0:0:0:
128,192,123474,1,0,0:0:0:50:LR_Drum Kick Wet Fast.wav
298,192,123631,1,0,0:0:0:0:
42,192,123789,1,0,0:0:0:50:LR_Drum Rpd Fast .wav
384,192,123789,1,0,0:0:0:0:
469,192,123946,1,0,0:0:0:0:
213,192,123946,1,0,0:0:0:50:LR_Drum Rpd Fast .wav
128,192,124103,1,0,0:0:0:50:LR_Drum Kick Wet Fast.wav
384,192,124103,1,0,0:0:0:0:
298,192,124103,1,4,0:0:0:0:
469,192,124260,1,0,0:0:0:0:
298,192,124417,1,0,0:0:0:0:
42,192,124417,1,0,0:0:0:50:LR_Drum Rpd Fast .wav
128,192,124417,1,0,0:0:0:0:
469,192,124574,1,0,0:0:0:0:
213,192,124731,1,0,0:0:0:0:
128,192,124731,1,0,0:0:0:50:LR_Drum Kick Wet Fast.wav
384,192,124888,1,0,0:0:0:0:
298,192,125045,1,0,0:0:0:0:
42,192,125045,1,0,0:0:0:50:LR_Drum Rpd Fast .wav
128,192,125045,1,0,0:0:0:0:
469,192,125202,1,0,0:0:0:0:
213,192,125359,1,0,0:0:0:0:
128,192,125359,1,0,0:0:0:50:LR_Drum Kick Wet Fast.wav
384,192,125516,1,0,0:0:0:0:
213,192,125673,1,0,0:0:0:0:
469,192,125673,1,0,0:0:0:0:
42,192,125673,1,0,0:0:0:50:LR_Drum Rpd Fast .wav
384,192,125830,1,0,0:0:0:0:
298,192,125987,1,0,0:0:0:0:
128,192,125987,1,0,0:0:0:50:LR_Drum Kick Wet Fast.wav
469,192,126145,1,0,0:0:0:0:
384,192,126302,1,0,0:0:0:0:
42,192,126302,1,0,0:0:0:50:LR_Drum Rpd Fast .wav
213,192,126302,1,0,0:0:0:0:
298,192,126459,1,0,0:0:0:0:
213,192,126616,1,0,0:0:0:50:LR_Drum Kick Wet Fast.wav
469,192,126616,1,0,0:0:0:0:
384,192,126773,1,0,0:0:0:0:
128,192,126930,1,0,0:0:0:0:
42,192,126930,1,0,0:0:0:50:LR_Drum Rpd Fast .wav
469,192,126930,1,0,0:0:0:0:
298,192,127087,1,0,0:0:0:0:
213,192,127244,1,0,0:0:0:0:
128,192,127244,1,0,0:0:0:50:LR_Drum Kick Wet Fast.wav
384,192,127401,1,0,0:0:0:0:
128,192,127558,1,0,0:0:0:0:
469,192,127558,1,0,0:0:0:0:
42,192,127558,1,0,0:0:0:50:LR_Drum Rpd Fast .wav
298,192,127715,1,0,0:0:0:0:
213,192,127872,1,0,0:0:0:50:LR_Drum Kick Wet Fast.wav
384,192,127872,1,0,0:0:0:0:
128,192,128029,1,0,0:0:0:0:
384,192,128186,1,0,0:0:0:0:
42,192,128186,1,0,0:0:0:50:LR_Drum Rpd Fast .wav
469,192,128186,1,0,0:0:0:0:
213,192,128344,1,0,0:0:0:0:
469,192,128501,1,0,0:0:0:0:
128,192,128501,1,0,0:0:0:50:LR_Drum Kick Wet Fast.wav
298,192,128658,1,0,0:0:0:0:
42,192,128815,1,0,0:0:0:50:LR_Drum Rpd Fast .wav
384,192,128815,1,0,0:0:0:0:
128,192,128815,1,0,0:0:0:0:
213,192,128972,1,0,0:0:0:0:
384,192,129129,1,4,0:0:0:0:
469,192,129129,1,0,0:0:0:0:
42,192,129129,1,0,0:0:0:50:LR_Drum Kick Wet Fast.wav
128,192,129286,1,0,0:0:0:0:
298,192,129443,1,0,0:0:0:0:
42,192,129443,1,0,0:0:0:50:LR_Drum Rpd Fast .wav
469,192,129443,1,0,0:0:0:0:
128,192,129600,1,0,0:0:0:0:
469,192,129757,1,0,0:0:0:0:
213,192,129757,1,0,0:0:0:50:LR_Drum Kick Wet Fast.wav
298,192,129914,1,0,0:0:0:0:
384,192,130071,1,0,0:0:0:0:
128,192,130071,1,0,0:0:0:0:
42,192,130071,1,0,0:0:0:50:LR_Drum Rpd Fast .wav
213,192,130228,1,0,0:0:0:0:
298,192,130385,1,0,0:0:0:50:LR_Drum Kick Wet Fast.wav
469,192,130385,1,0,0:0:0:0:
128,192,130542,1,0,0:0:0:0:
298,192,130700,1,0,0:0:0:0:
384,192,130700,1,0,0:0:0:0:
42,192,130700,1,0,0:0:0:50:LR_Drum Rpd Fast .wav
213,192,130857,1,0,0:0:0:0:
469,192,131014,1,0,0:0:0:0:
128,192,131014,1,0,0:0:0:50:LR_Drum Kick Wet Fast.wav
384,192,131171,1,0,0:0:0:0:
298,192,131328,1,0,0:0:0:0:
42,192,131328,1,0,0:0:0:50:LR_Drum Rpd Fast .wav
469,192,131328,1,0,0:0:0:0:
213,192,131485,1,0,0:0:0:0:
384,192,131642,1,0,0:0:0:0:
128,192,131642,1,0,0:0:0:50:LR_Drum Rpd Fast .wav
298,192,131642,1,4,0:0:0:0:
42,192,131799,1,0,0:0:0:50:LR_Drum Kick Wet Fast.wav
213,192,131799,1,0,0:0:0:0:
298,192,131956,1,0,0:0:0:50:LR_Drum Kick Wet Fast.wav
469,192,131956,1,0,0:0:0:0:
128,192,132113,1,4,0:0:0:0:
384,192,132113,1,0,0:0:0:0:
42,192,132113,1,0,0:0:0:50:LR_Drum Rpd Fast .wav
213,192,132270,1,0,0:0:0:50:LR_Drum Kick Wet Fast.wav
469,192,132270,1,0,0:0:0:0:
128,192,132427,1,0,0:0:0:50:LR_Drum Kick Wet Fast.wav
384,192,132427,1,0,0:0:0:0:
42,192,132584,1,0,0:0:0:50:LR_Drum Rpd Fast .wav
213,192,132584,1,4,0:0:0:0:
298,192,132584,1,0,0:0:0:0:
469,192,132741,1,0,0:0:0:0:
384,192,132741,1,0,0:0:0:50:LR_Drum Kick Wet Fast.wav
42,192,132898,1,0,0:0:0:50:LR_Drum Rpd Fast .wav
298,192,132898,1,0,0:0:0:0:
213,192,132898,1,4,0:0:0:0:
469,192,132977,1,0,0:0:0:50:LR_Drum Kick Wet Fast.wav
128,192,133056,1,0,0:0:0:50:LR_Drum Kick Wet Fast.wav
384,192,133134,1,0,0:0:0:50:LR_Drum Kick Wet Fast.wav
213,192,133213,1,0,0:0:0:50:LR_Drum Rpd Fast .wav
128,192,133291,1,0,0:0:0:50:LR_Drum Rpd Fast .wav
298,192,133370,1,0,0:0:0:50:LR_Drum Rpd Fast .wav
384,192,133448,1,0,0:0:0:50:LR_Drum Rpd Fast .wav
298,192,133527,1,0,0:0:0:0:
213,192,133527,1,0,0:0:0:50:LR_Drum Rpd Fast .wav
298,192,133684,1,0,0:0:0:0:
213,192,133684,1,0,0:0:0:50:LR_Drum Kick Wet Fast.wav
42,192,133841,1,0,0:0:0:50:LR_Drum Rpd Fast .wav
469,192,133841,1,0,0:0:0:0:
42,192,133998,1,0,0:0:0:50:LR_Drum Kick Wet Fast.wav
469,192,133998,1,0,0:0:0:0:
384,192,134155,1,0,0:0:0:50:LR_Drum Kick Wet Fast.wav
213,192,134155,1,4,0:0:0:0:
128,192,134155,128,0,134626:0:0:0:0:
469,192,134626,128,0,135097:0:0:0:0:
298,192,134626,1,0,0:0:0:50:LR_Drum Kick Wet Fast.wav
42,192,134783,1,0,0:0:0:50:LR_Drum Rpd Fast .wav
213,192,134783,1,0,0:0:0:0:
384,192,134783,1,0,0:0:0:0:
298,192,134940,1,0,0:0:0:0:
128,192,134940,1,0,0:0:0:50:LR_Drum Kick Wet Fast.wav
42,192,135097,128,0,135726:0:0:0:0:
213,192,135097,1,0,0:0:0:50:LR_Drum Kick Wet Fast.wav
298,192,135255,1,0,0:0:0:50:LR_Drum Kick Wet Fast.wav
469,192,135255,1,0,0:0:0:0:
128,192,135569,1,0,0:0:0:50:LR_Drum Kick Wet Fast.wav
469,192,135569,1,0,0:0:0:0:
384,192,135726,128,0,136668:0:0:0:0:
213,192,135726,1,0,0:0:0:50:LR_Drum Kick Wet Fast.wav
42,192,136040,1,0,0:0:0:50:LR_Drum Rpd Fast .wav
469,192,136040,1,0,0:0:0:0:
213,192,136040,1,0,0:0:0:0:
298,192,136197,1,0,0:0:0:0:
128,192,136197,1,0,0:0:0:50:LR_Drum Kick Wet Fast.wav
128,192,136668,128,0,137139:0:0:0:0:
298,192,136668,1,0,0:0:0:50:LR_Drum Kick Wet Fast.wav
469,192,136825,1,0,0:0:0:0:
213,192,136825,1,0,0:0:0:50:LR_Drum Kick Wet Fast.wav
384,192,137139,128,0,137611:0:0:0:0:
213,192,137139,1,0,0:0:0:50:LR_Drum Kick Wet Fast.wav
298,192,137296,1,0,0:0:0:0:
469,192,137296,1,0,0:0:0:0:
42,192,137296,1,0,0:0:0:50:LR_Drum Rpd Fast .wav
128,192,137453,1,0,0:0:0:50:LR_Drum Kick Wet Fast.wav
213,192,137453,1,0,0:0:0:0:
42,192,137611,128,0,138082:0:0:0:0:
298,192,137611,1,0,0:0:0:50:LR_Drum Kick Wet Fast.wav
213,192,137768,1,0,0:0:0:50:LR_Drum Kick Wet Fast.wav
469,192,137768,1,0,0:0:0:0:
469,192,138082,128,0,138553:0:0:0:0:
128,192,138082,1,0,0:0:0:50:LR_Drum Kick Wet Fast.wav
213,192,138239,1,0,0:0:0:50:LR_Drum Kick Wet Fast.wav
384,192,138239,1,0,0:0:0:0:
298,192,138553,128,0,139181:0:0:0:0:
42,192,138553,1,0,0:0:0:50:LR_Drum Rpd Fast .wav
384,192,138553,1,0,0:0:0:0:
213,192,138710,1,0,0:0:0:50:LR_Drum Kick Wet Fast.wav
42,192,138867,1,0,0:0:0:50:LR_Drum Rpd Fast .wav
128,192,138867,1,0,0:0:0:0:
469,192,138867,1,0,0:0:0:0:
42,192,139181,128,0,139652:0:0:0:0:
213,192,139181,1,0,0:0:0:50:LR_Drum Kick Wet Fast.wav
384,192,139181,1,4,0:0:0:0:
128,192,139338,1,0,0:0:0:50:LR_Drum Kick Wet Fast.wav
469,192,139338,1,0,0:0:0:0:
213,192,139652,1,0,0:0:0:50:LR_Drum Kick Wet Fast.wav
384,192,139652,128,0,140124:0:0:0:0:
128,192,139809,1,0,0:0:0:50:LR_Drum Rpd Fast .wav
298,192,139809,1,0,0:0:0:0:
469,192,139809,1,0,0:0:0:0:
42,192,139967,1,0,0:0:0:50:LR_Drum Kick Wet Fast.wav
213,192,139967,1,0,0:0:0:0:
128,192,140124,128,0,140752:0:0:0:0:
469,192,140124,1,0,0:0:0:50:LR_Drum Kick Wet Fast.wav
298,192,140281,1,0,0:0:0:0:
42,192,140281,1,0,0:0:0:50:LR_Drum Kick Wet Fast.wav
213,192,140595,1,0,0:0:0:50:LR_Drum Kick Wet Fast.wav
384,192,140595,1,0,0:0:0:0:
469,192,140752,128,0,141694:0:0:0:0:
42,192,140752,1,0,0:0:0:50:LR_Drum Kick Wet Fast.wav
128,192,141066,1,0,0:0:0:50:LR_Drum Rpd Fast .wav
384,192,141066,1,0,0:0:0:0:
298,192,141066,1,0,0:0:0:0:
42,192,141223,1,0,0:0:0:50:LR_Drum Kick Wet Fast.wav
213,192,141223,1,0,0:0:0:0:
128,192,141694,128,0,142166:0:0:0:0:
384,192,141694,1,0,0:0:0:50:LR_Drum Kick Wet Fast.wav
298,192,141851,1,0,0:0:0:0:
42,192,141851,1,0,0:0:0:50:LR_Drum Kick Wet Fast.wav
469,192,142166,128,0,142637:0:0:0:0:
213,192,142166,1,0,0:0:0:50:LR_Drum Kick Wet Fast.wav
42,192,142323,1,0,0:0:0:50:LR_Drum Rpd Fast .wav
298,192,142323,1,0,0:0:0:0:
384,192,142323,1,0,0:0:0:0:
128,192,142480,1,0,0:0:0:50:LR_Drum Kick Wet Fast.wav
213,192,142480,1,0,0:0:0:0:
42,192,142637,128,0,143108:0:0:0:0:
298,192,142637,1,0,0:0:0:50:LR_Drum Kick Wet Fast.wav
384,192,142794,1,0,0:0:0:0:
213,192,142794,1,0,0:0:0:50:LR_Drum Kick Wet Fast.wav
128,192,142951,1,0,0:0:0:50:LR_Drum Kick Wet Fast.wav
469,192,142951,1,0,0:0:0:0:
384,192,143108,128,0,143579:0:0:0:0:
213,192,143108,1,0,0:0:0:50:LR_Drum Kick Wet Fast.wav
298,192,143108,1,4,0:0:0:0:
128,192,143265,1,4,0:0:0:0:
42,192,143265,1,0,0:0:0:50:LR_Drum Kick Wet Fast.wav
469,192,143265,1,0,0:0:0:0:
298,192,143422,1,0,0:0:0:50:LR_Drum Kick Wet Fast.wav
213,192,143501,1,0,0:0:0:50:LR_Drum Kick Wet Fast.wav
128,192,143579,128,0,144207:0:0:0:0:
469,192,143579,1,0,0:0:0:0:
42,192,143579,1,0,0:0:0:50:LR_Drum Rpd Fast .wav
298,192,143658,1,0,0:0:0:50:LR_Drum Kick Wet Fast.wav
213,192,143736,1,0,0:0:0:50:LR_Drum Rpd Fast .wav
384,192,143815,1,0,0:0:0:50:LR_Drum Rpd Fast .wav
469,192,143893,1,0,0:0:0:0:
42,192,143893,1,0,0:0:0:50:LR_Drum Rpd Fast .wav
384,192,144050,1,0,0:0:0:0:
213,192,144050,1,0,0:0:0:50:LR_Drum Rpd Fast .wav
42,192,144207,1,0,0:0:0:50:LR_Drum Kick Wet Fast.wav
469,192,144207,1,4,0:0:0:0:
298,192,144207,128,0,144679:0:0:0:0:
213,192,144364,1,0,0:0:0:50:LR_Drum Kick Wet Fast.wav
384,192,144364,1,0,0:0:0:0:
42,192,144522,1,0,0:0:0:50:LR_Drum Kick Wet Fast.wav
128,192,144522,1,0,0:0:0:0:
213,192,144679,1,0,0:0:0:50:LR_Drum Kick Wet Fast.wav
469,192,144679,128,0,145150:0:0:0:0:
128,192,144836,1,0,0:0:0:0:
42,192,144836,1,0,0:0:0:50:LR_Drum Rpd Fast .wav
384,192,144836,1,0,0:0:0:0:
298,192,144993,1,0,0:0:0:50:LR_Drum Kick Wet Fast.wav
384,192,145150,128,0,145778:0:0:0:0:
213,192,145150,1,0,0:0:0:0:
42,192,145150,1,0,0:0:0:50:LR_Drum Kick Wet Fast.wav
128,192,145307,1,0,0:0:0:50:LR_Drum Kick Wet Fast.wav
213,192,145385,1,0,0:0:0:50:LR_Drum Kick Wet Fast.wav
298,192,145464,1,0,0:0:0:50:LR_Drum Kick Wet Fast.wav
42,192,145621,1,0,0:0:0:50:LR_Drum Kick Wet Fast.wav
213,192,145621,1,0,0:0:0:50:LR_Drum Kick Wet Fast.wav
298,192,145778,128,0,146720:0:0:0:0:
469,192,145778,1,0,0:0:0:0:
128,192,145935,1,0,0:0:0:50:LR_Drum Kick Wet Fast.wav
384,192,145935,1,0,0:0:0:0:
469,192,146092,1,0,0:0:0:0:
42,192,146092,1,0,0:0:0:50:LR_Drum Rpd Fast .wav
213,192,146092,1,0,0:0:0:0:
128,192,146249,1,0,0:0:0:50:LR_Drum Kick Wet Fast.wav
384,192,146249,1,0,0:0:0:0:
42,192,146406,1,0,0:0:0:50:LR_Drum Kick Wet Fast.wav
213,192,146406,1,0,0:0:0:0:
128,192,146563,1,0,0:0:0:50:LR_Drum Kick Wet Fast.wav
384,192,146563,1,0,0:0:0:0:
42,192,146720,128,0,147192:0:0:0:0:
469,192,146720,1,4,0:0:0:0:
213,192,146720,1,0,0:0:0:50:LR_Drum Kick Wet Fast.wav
384,192,146878,1,0,0:0:0:50:LR_Drum Kick Wet Fast.wav
298,192,146956,1,0,0:0:0:50:LR_Drum Kick Wet Fast.wav
128,192,147035,1,0,0:0:0:50:LR_Drum Kick Wet Fast.wav
213,192,147192,128,0,147663:0:0:0:0:
469,192,147192,1,0,0:0:0:50:LR_Drum Kick Wet Fast.wav
384,192,147349,1,0,0:0:0:0:
298,192,147349,1,0,0:0:0:0:
42,192,147349,1,0,0:0:0:50:LR_Drum Rpd Fast .wav
469,192,147506,1,0,0:0:0:50:LR_Drum Kick Wet Fast.wav
128,192,147663,128,0,148134:0:0:0:0:
298,192,147663,1,0,0:0:0:50:LR_Drum Kick Wet Fast.wav
469,192,147820,1,0,0:0:0:50:LR_Drum Kick Wet Fast.wav
384,192,147898,1,0,0:0:0:50:LR_Drum Kick Wet Fast.wav
213,192,147977,1,0,0:0:0:50:LR_Drum Kick Wet Fast.wav
384,192,148134,128,0,148605:0:0:0:0:
42,192,148134,1,0,0:0:0:50:LR_Drum Kick Wet Fast.wav
213,192,148291,1,0,0:0:0:50:LR_Drum Kick Wet Fast.wav
298,192,148291,1,0,0:0:0:0:
42,192,148448,1,0,0:0:0:50:LR_Drum Kick Wet Fast.wav
298,192,148605,128,0,149234:0:0:0:0:
128,192,148605,1,0,0:0:0:50:LR_Drum Rpd Fast .wav
469,192,148605,1,0,0:0:0:0:
213,192,148762,1,0,0:0:0:50:LR_Drum Kick Wet Fast.wav
128,192,148919,1,0,0:0:0:0:
42,192,148919,1,0,0:0:0:50:LR_Drum Rpd Fast .wav
384,192,148919,1,0,0:0:0:0:
213,192,149077,1,0,0:0:0:50:LR_Drum Kick Wet Fast.wav
469,192,149077,1,0,0:0:0:0:
384,192,149234,1,4,0:0:0:0:
42,192,149234,1,0,0:0:0:50:LR_Drum Kick Wet Fast.wav
128,192,149234,128,0,149705:0:0:0:0:
213,192,149391,1,0,0:0:0:50:LR_Drum Kick Wet Fast.wav
469,192,149391,1,0,0:0:0:0:
42,192,149548,1,0,0:0:0:50:LR_Drum Kick Wet Fast.wav
384,192,149548,1,0,0:0:0:0:
469,192,149705,128,0,150176:0:0:0:0:
298,192,149705,1,0,0:0:0:50:LR_Drum Kick Wet Fast.wav
213,192,149862,1,0,0:0:0:0:
384,192,149862,1,0,0:0:0:0:
42,192,149862,1,0,0:0:0:50:LR_Drum Rpd Fast .wav
128,192,150019,1,0,0:0:0:50:LR_Drum Kick Wet Fast.wav
298,192,150019,1,0,0:0:0:0:
42,192,150176,128,0,150804:0:0:0:0:
213,192,150176,1,0,0:0:0:50:LR_Drum Kick Wet Fast.wav
384,192,150333,1,0,0:0:0:50:LR_Drum Kick Wet Fast.wav
298,192,150412,1,0,0:0:0:50:LR_Drum Kick Wet Fast.wav
128,192,150490,1,0,0:0:0:50:LR_Drum Kick Wet Fast.wav
213,192,150647,1,0,0:0:0:50:LR_Drum Kick Wet Fast.wav
469,192,150647,1,0,0:0:0:0:
384,192,150804,128,0,151747:0:0:0:0:
298,192,150804,1,0,0:0:0:50:LR_Drum Kick Wet Fast.wav
128,192,150961,1,0,0:0:0:50:LR_Drum Kick Wet Fast.wav
42,192,151118,1,0,0:0:0:50:LR_Drum Rpd Fast .wav
213,192,151118,1,0,0:0:0:0:
469,192,151118,1,0,0:0:0:0:
128,192,151275,1,0,0:0:0:50:LR_Drum Kick Wet Fast.wav
298,192,151275,1,0,0:0:0:0:
42,192,151433,1,0,0:0:0:50:LR_Drum Kick Wet Fast.wav
213,192,151433,1,0,0:0:0:0:
128,192,151590,1,0,0:0:0:50:LR_Drum Kick Wet Fast.wav
298,192,151590,1,0,0:0:0:0:
42,192,151747,1,0,0:0:0:50:LR_Drum Kick Wet Fast.wav
213,192,151747,128,0,152218:0:0:0:0:
298,192,151747,1,4,0:0:0:0:
469,192,151904,1,0,0:0:0:50:LR_Drum Kick Wet Fast.wav
384,192,152061,1,0,0:0:0:0:
42,192,152061,1,0,0:0:0:50:LR_Drum Kick Wet Fast.wav
128,192,152218,128,0,152689:0:0:0:0:
469,192,152218,1,0,0:0:0:50:LR_Drum Kick Wet Fast.wav
298,192,152375,1,0,0:0:0:0:
384,192,152375,1,0,0:0:0:0:
42,192,152375,1,0,0:0:0:50:LR_Drum Rpd Fast .wav
469,192,152532,1,0,0:0:0:0:
213,192,152532,1,0,0:0:0:50:LR_Drum Kick Wet Fast.wav
42,192,152689,128,0,153160:0:0:0:0:
384,192,152689,1,0,0:0:0:50:LR_Drum Kick Wet Fast.wav
298,192,152846,1,0,0:0:0:50:LR_Drum Kick Wet Fast.wav
469,192,152846,1,0,0:0:0:0:
213,192,153003,1,0,0:0:0:50:LR_Drum Kick Wet Fast.wav
384,192,153003,1,0,0:0:0:0:
469,192,153160,128,0,153631:0:0:0:0:
128,192,153160,1,0,0:0:0:50:LR_Drum Rpd Fast .wav
298,192,153160,1,0,0:0:0:0:
213,192,153239,1,0,0:0:0:50:LR_Drum Rpd Fast .wav
384,192,153317,1,0,0:0:0:0:
42,192,153317,1,0,0:0:0:50:LR_Drum Rpd Fast .wav
128,192,153317,1,0,0:0:0:0:
298,192,153474,1,0,0:0:0:0:
42,192,153631,128,0,154260:0:0:0:0:
213,192,153631,1,0,0:0:0:0:
128,192,153631,1,0,0:0:0:50:LR_Drum Rpd Fast .wav
298,192,153710,1,0,0:0:0:50:LR_Drum Rpd Fast .wav
384,192,153789,1,0,0:0:0:50:LR_Drum Rpd Fast .wav
469,192,153789,1,0,0:0:0:0:
213,192,153867,1,0,0:0:0:50:LR_Drum Rpd Fast .wav
298,192,153946,1,0,0:0:0:50:LR_Drum Rpd Fast .wav
384,192,153946,1,0,0:0:0:0:
384,192,154260,128,0,156459:0:0:0:0:
128,192,154260,128,0,156459:0:0:0:0:
298,192,154260,1,0,0:0:0:50:LR_Drum Kick Wet Fast.wav
469,192,154260,1,4,0:0:0:0:
42,192,154574,1,0,0:0:0:50:LR_Drum Kick Wet Fast.wav
213,192,154574,1,0,0:0:0:0:
298,192,154888,1,0,0:0:0:50:LR_Drum Kick Wet Fast.wav
469,192,154888,1,0,0:0:0:0:
42,192,155202,1,0,0:0:0:50:LR_Drum Kick Wet Fast.wav
213,192,155202,1,0,0:0:0:0:
298,192,155516,1,0,0:0:0:50:LR_Drum Kick Wet Fast.wav
469,192,155516,1,0,0:0:0:0:
213,192,155830,1,0,0:0:0:0:
42,192,155830,1,0,0:0:0:50:LR_Drum Kick Wet Fast.wav
298,192,156145,1,0,0:0:0:50:LR_Drum Kick Wet Fast.wav
469,192,156145,1,0,0:0:0:0:
42,192,156459,1,0,0:0:0:50:LR_Drum Kick Wet Fast.wav
213,192,156459,1,0,0:0:0:0:
298,192,156773,128,4,158972:0:0:0:0:
469,192,156773,128,0,158972:0:0:0:0:
42,192,156773,1,0,0:0:0:50:LR_Drum Kick Wet Fast.wav
384,192,156773,1,0,0:0:0:0:
128,192,157087,1,0,0:0:0:50:LR_Drum Kick Wet Fast.wav
213,192,157087,1,0,0:0:0:0:
42,192,157401,1,0,0:0:0:50:LR_Drum Kick Wet Fast.wav
384,192,157401,1,0,0:0:0:0:
128,192,157715,1,0,0:0:0:50:LR_Drum Kick Wet Fast.wav
213,192,157715,1,0,0:0:0:0:
42,192,158029,1,0,0:0:0:50:LR_Drum Kick Wet Fast.wav
384,192,158029,1,0,0:0:0:0:
128,192,158344,1,0,0:0:0:50:LR_Drum Kick Wet Fast.wav
213,192,158344,1,0,0:0:0:0:
128,192,158658,1,8,0:0:0:40:LR_Drum Kick Wet Fast.wav
384,192,158658,1,0,0:0:0:0:
213,192,158815,1,8,0:0:0:40:LR_Drum Kick Wet Fast.wav
128,192,158972,1,0,0:0:0:50:LR_Drum Kick Wet Fast.wav
42,192,159129,1,0,0:0:0:40:LR_Drum Kick Wet Fast.wav
384,192,159129,1,0,0:0:0:50:LR_Drum Kick Wet Fast.wav
298,192,159207,1,0,0:0:0:40:LR_Drum Kick Wet Fast.wav
213,192,159286,1,0,0:0:0:40:LR_Drum Kick Wet Fast.wav
384,192,159286,1,0,0:0:0:0:
128,192,159286,128,0,161485:0:0:0:0:
469,192,159286,128,4,161485:0:0:0:0:
213,192,159600,1,0,0:0:0:0:
42,192,159600,1,0,0:0:0:50:LR_Drum Kick Wet Fast.wav
384,192,159914,1,0,0:0:0:0:
298,192,159914,1,0,0:0:0:50:LR_Drum Kick Wet Fast.wav
42,192,160228,1,0,0:0:0:50:LR_Drum Kick Wet Fast.wav
213,192,160228,1,0,0:0:0:0:
384,192,160542,1,0,0:0:0:0:
298,192,160542,1,0,0:0:0:50:LR_Drum Kick Wet Fast.wav
42,192,160857,1,0,0:0:0:50:LR_Drum Kick Wet Fast.wav
213,192,160857,1,0,0:0:0:0:
298,192,161171,1,0,0:0:0:50:LR_Drum Kick Wet Fast.wav
384,192,161171,1,0,0:0:0:0:
42,192,161485,1,0,0:0:0:50:LR_Drum Kick Wet Fast.wav
213,192,161485,1,0,0:0:0:0:
128,192,161799,1,0,0:0:0:50:LR_Drum Kick Wet Fast.wav
384,192,161799,1,4,0:0:0:0:
298,192,161799,128,0,164312:0:0:0:0:
213,192,161799,128,0,164312:0:0:0:0:
42,192,162113,1,0,0:0:0:50:LR_Drum Kick Wet Fast.wav
469,192,162113,1,0,0:0:0:0:
128,192,162427,1,0,0:0:0:50:LR_Drum Kick Wet Fast.wav
384,192,162427,1,0,0:0:0:0:
42,192,162741,1,0,0:0:0:50:LR_Drum Kick Wet Fast.wav
469,192,162741,1,0,0:0:0:0:
384,192,163056,1,0,0:0:0:0:
42,192,163056,1,0,0:0:0:50:LR_Drum Rpd Fast .wav
128,192,163134,1,0,0:0:0:50:LR_Drum Rpd Fast .wav
469,192,163213,1,0,0:0:0:50:LR_Drum Rpd Fast .wav
384,192,163291,1,0,0:0:0:50:LR_Drum Rpd Fast .wav
42,192,163370,1,0,0:0:0:50:LR_Drum Rpd Fast .wav
469,192,163684,1,0,0:0:0:50:LR_Drum Rpd Fast .wav
384,192,163762,1,0,0:0:0:50:LR_Drum Rpd Fast .wav
42,192,163841,1,0,0:0:0:50:LR_Drum Rpd Fast .wav
128,192,163919,1,0,0:0:0:50:LR_Drum Rpd Fast .wav
469,192,163998,1,0,0:0:0:50:LR_Drum Kick Wet Fast.wav
42,192,164077,1,0,0:0:0:50:LR_Drum Kick Wet Fast.wav
384,192,164155,1,0,0:0:0:50:LR_Drum Kick Wet Fast.wav
128,192,164234,1,0,0:0:0:50:LR_Drum Kick Wet Fast.wav
42,192,164312,1,0,0:0:0:50:LR_Drum Kick Wet Fast.wav
469,192,164312,1,0,0:0:0:0:
384,192,164312,1,4,0:0:0:0:
128,192,164469,1,0,0:0:0:50:LR_Drum Kick Wet Fast.wav
42,192,164626,1,0,0:0:0:50:LR_Drum Rpd Fast .wav
298,192,164626,1,0,0:0:0:0:
469,192,164626,1,0,0:0:0:0:
213,192,164783,1,0,0:0:0:50:LR_Drum Kick Wet Fast.wav
384,192,164783,1,0,0:0:0:0:
128,192,164940,1,0,0:0:0:0:
42,192,164940,1,0,0:0:0:50:LR_Drum Kick Wet Fast.wav
213,192,165097,1,0,0:0:0:50:LR_Drum Kick Wet Fast.wav
384,192,165097,1,0,0:0:0:0:
128,192,165255,1,0,0:0:0:50:LR_Drum Rpd Fast .wav
298,192,165255,1,0,0:0:0:0:
469,192,165255,1,0,0:0:0:0:
42,192,165412,1,0,0:0:0:50:LR_Drum Kick Wet Fast.wav
213,192,165412,1,0,0:0:0:0:
469,192,165569,1,0,0:0:0:0:
298,192,165569,1,0,0:0:0:50:LR_Drum Kick Wet Fast.wav
42,192,165726,1,0,0:0:0:50:LR_Drum Kick Wet Fast.wav
213,192,165726,1,0,0:0:0:0:
128,192,165883,1,0,0:0:0:50:LR_Drum Rpd Fast .wav
384,192,165883,1,0,0:0:0:0:
469,192,165883,1,0,0:0:0:0:
298,192,166040,1,0,0:0:0:0:
42,192,166040,1,0,0:0:0:50:LR_Drum Kick Wet Fast.wav
213,192,166197,1,0,0:0:0:50:LR_Drum Kick Wet Fast.wav
469,192,166197,1,0,0:0:0:0:
128,192,166354,1,0,0:0:0:50:LR_Drum Kick Wet Fast.wav
384,192,166354,1,0,0:0:0:0:
42,192,166511,1,0,0:0:0:50:LR_Drum Rpd Fast .wav
298,192,166511,1,0,0:0:0:0:
213,192,166511,1,0,0:0:0:0:
384,192,166668,1,0,0:0:0:50:LR_Drum Kick Wet Fast.wav
469,192,166668,1,0,0:0:0:0:
128,192,166825,1,0,0:0:0:50:LR_Drum Kick Wet Fast.wav
213,192,166825,1,0,0:0:0:0:
384,192,166982,1,0,0:0:0:0:
42,192,166982,1,0,0:0:0:50:LR_Drum Kick Wet Fast.wav
298,192,167139,1,0,0:0:0:0:
469,192,167139,1,0,0:0:0:0:
128,192,167139,1,0,0:0:0:50:LR_Drum Rpd Fast .wav
42,192,167296,1,0,0:0:0:50:LR_Drum Kick Wet Fast.wav
213,192,167296,1,0,0:0:0:0:
298,192,167453,1,0,0:0:0:50:LR_Drum Kick Wet Fast.wav
469,192,167453,1,0,0:0:0:0:
42,192,167611,1,0,0:0:0:50:LR_Drum Kick Wet Fast.wav
213,192,167611,1,0,0:0:0:0:
128,192,167768,1,0,0:0:0:50:LR_Drum Rpd Fast .wav
384,192,167768,1,0,0:0:0:0:
298,192,167768,1,0,0:0:0:0:
213,192,167925,1,0,0:0:0:50:LR_Drum Kick Wet Fast.wav
469,192,167925,1,0,0:0:0:0:
42,192,168082,1,0,0:0:0:50:LR_Drum Kick Wet Fast.wav
298,192,168082,1,0,0:0:0:0:
128,192,168239,1,0,0:0:0:50:LR_Drum Kick Wet Fast.wav
384,192,168239,1,0,0:0:0:0:
42,192,168396,1,0,0:0:0:50:LR_Drum Rpd Fast .wav
213,192,168396,1,0,0:0:0:0:
469,192,168396,1,0,0:0:0:0:
298,192,168553,1,0,0:0:0:50:LR_Drum Kick Wet Fast.wav
384,192,168553,1,0,0:0:0:0:
128,192,168710,1,0,0:0:0:50:LR_Drum Kick Wet Fast.wav
213,192,168710,1,0,0:0:0:0:
298,192,168867,1,0,0:0:0:50:LR_Drum Kick Wet Fast.wav
384,192,168867,1,0,0:0:0:0:
42,192,169024,1,0,0:0:0:50:LR_Drum Rpd Fast .wav
213,192,169024,1,0,0:0:0:0:
469,192,169024,1,0,0:0:0:0:
128,192,169181,1,0,0:0:0:50:LR_Drum Kick Wet Fast.wav
384,192,169181,1,0,0:0:0:0:
42,192,169338,1,0,0:0:0:0:
298,192,169338,1,4,0:0:0:0:
213,192,169338,1,0,0:0:0:0:
469,192,169495,1,0,0:0:0:0:
128,192,169495,1,0,0:0:0:50:LR_Drum Kick Wet Fast.wav
42,192,169652,1,0,0:0:0:50:LR_Drum Rpd Fast .wav
384,192,169652,1,0,0:0:0:0:
213,192,169652,1,0,0:0:0:0:
128,192,169809,1,0,0:0:0:50:LR_Drum Kick Wet Fast.wav
298,192,169809,1,0,0:0:0:0:
213,192,169967,1,0,0:0:0:50:LR_Drum Kick Wet Fast.wav
384,192,169967,1,0,0:0:0:0:
128,192,170124,1,0,0:0:0:50:LR_Drum Kick Wet Fast.wav
298,192,170124,1,0,0:0:0:0:
213,192,170281,1,0,0:0:0:0:
469,192,170281,1,0,0:0:0:0:
42,192,170281,1,0,0:0:0:50:LR_Drum Rpd Fast .wav
384,192,170438,1,0,0:0:0:0:
298,192,170438,1,0,0:0:0:50:LR_Drum Kick Wet Fast.wav
128,192,170595,1,0,0:0:0:50:LR_Drum Kick Wet Fast.wav
469,192,170595,1,0,0:0:0:0:
42,192,170752,1,0,0:0:0:50:LR_Drum Kick Wet Fast.wav
384,192,170752,1,0,0:0:0:0:
128,192,170909,1,0,0:0:0:50:LR_Drum Rpd Fast .wav
298,192,170909,1,0,0:0:0:0:
469,192,170909,1,0,0:0:0:0:
213,192,171066,1,0,0:0:0:50:LR_Drum Kick Wet Fast.wav
384,192,171066,1,0,0:0:0:0:
128,192,171223,1,0,0:0:0:50:LR_Drum Kick Wet Fast.wav
298,192,171223,1,0,0:0:0:0:
213,192,171380,1,0,0:0:0:50:LR_Drum Kick Wet Fast.wav
384,192,171380,1,0,0:0:0:0:
128,192,171537,1,0,0:0:0:0:
298,192,171537,1,0,0:0:0:0:
42,192,171537,1,0,0:0:0:50:LR_Drum Rpd Fast .wav
469,192,171694,1,0,0:0:0:0:
213,192,171694,1,0,0:0:0:50:LR_Drum Kick Wet Fast.wav
384,192,171773,1,0,0:0:0:50:LR_Drum Kick Wet Fast.wav
42,192,171851,1,0,0:0:0:50:LR_Drum Rpd Fast .wav
128,192,171851,1,0,0:0:0:0:
298,192,171851,1,4,0:0:0:0:
384,192,172008,1,0,0:0:0:50:LR_Drum Kick Wet Fast.wav
469,192,172008,1,0,0:0:0:0:
213,192,172166,1,0,0:0:0:0:
42,192,172166,1,0,0:0:0:50:LR_Drum Rpd Fast .wav
128,192,172166,1,0,0:0:0:0:
298,192,172323,1,0,0:0:0:50:LR_Drum Kick Wet Fast.wav
384,192,172323,1,0,0:0:0:0:
128,192,172480,1,0,0:0:0:50:LR_Drum Rpd Fast .wav
213,192,172480,1,0,0:0:0:0:
469,192,172480,1,0,0:0:0:0:
42,192,172637,1,0,0:0:0:50:LR_Drum Kick Wet Fast.wav
298,192,172637,1,0,0:0:0:0:
213,192,172794,1,0,0:0:0:0:
384,192,172794,1,0,0:0:0:0:
128,192,172794,1,0,0:0:0:50:LR_Drum Rpd Fast .wav
298,192,172951,1,0,0:0:0:50:LR_Drum Kick Wet Fast.wav
469,192,172951,1,0,0:0:0:0:
42,192,173108,1,0,0:0:0:50:LR_Drum Kick Wet Fast.wav
384,192,173108,1,0,0:0:0:0:
128,192,173186,1,0,0:0:0:50:LR_Drum Kick Wet Fast.wav
213,192,173265,1,0,0:0:0:50:LR_Drum Kick Wet Fast.wav
384,192,173344,1,0,0:0:0:50:LR_Drum Kick Wet Fast.wav
42,192,173422,1,0,0:0:0:50:LR_Drum Rpd Fast .wav
469,192,173422,1,0,0:0:0:0:
298,192,173422,1,0,0:0:0:0:
128,192,173579,1,0,0:0:0:50:LR_Drum Rpd Fast .wav
213,192,173579,1,0,0:0:0:0:
384,192,173579,1,0,0:0:0:0:
469,192,173736,1,0,0:0:0:50:LR_Drum Kick Wet Fast.wav
298,192,173815,1,0,0:0:0:50:LR_Drum Kick Wet Fast.wav
42,192,173893,1,0,0:0:0:50:LR_Drum Rpd Fast .wav
213,192,173972,1,0,0:0:0:50:LR_Drum Rpd Fast .wav
384,192,174050,1,0,0:0:0:50:LR_Drum Kick Wet Fast.wav
128,192,174129,1,0,0:0:0:50:LR_Drum Kick Wet Fast.wav
213,192,174207,1,0,0:0:0:50:LR_Drum Kick Wet Fast.wav
298,192,174286,1,0,0:0:0:50:LR_Drum Kick Wet Fast.wav
128,192,174364,1,0,0:0:0:0:
384,192,174364,1,4,0:0:0:0:
42,192,174364,1,0,0:0:0:50:LR_Drum Kick Wet Fast.wav
42,192,174522,1,0,0:0:0:50:LR_Drum Kick Wet Fast.wav
128,192,174522,1,0,0:0:0:0:
42,192,174679,1,0,0:0:0:50:LR_Drum Kick Wet Fast.wav
128,192,174679,1,0,0:0:0:0:
469,192,174679,1,0,0:0:0:0:
42,192,174836,1,0,0:0:0:50:LR_Drum Kick Wet Fast.wav
128,192,174836,1,0,0:0:0:0:
42,192,174993,1,0,0:0:0:0:
128,192,174993,1,0,0:0:0:0:
384,192,174993,1,0,0:0:0:50:LR_Drum Rpd Fast .wav
42,192,175150,1,0,0:0:0:50:LR_Drum Kick Wet Fast.wav
128,192,175150,1,0,0:0:0:0:
42,192,175307,1,0,0:0:0:50:LR_Drum Kick Wet Fast.wav
128,192,175307,1,0,0:0:0:0:
298,192,175307,1,0,0:0:0:0:
42,192,175464,1,0,0:0:0:50:LR_Drum Kick Wet Fast.wav
128,192,175464,1,0,0:0:0:0:
384,192,175464,1,0,0:0:0:0:
298,192,175542,1,0,0:0:0:50:LR_Drum Kick Wet Fast.wav
42,192,175621,1,0,0:0:0:50:LR_Drum Kick Wet Fast.wav
128,192,175621,1,0,0:0:0:0:
213,192,175621,1,0,0:0:0:0:
384,192,175778,1,0,0:0:0:50:LR_Drum Kick Wet Fast.wav
469,192,175778,1,0,0:0:0:0:
384,192,175935,1,0,0:0:0:50:LR_Drum Kick Wet Fast.wav
469,192,175935,1,0,0:0:0:0:
128,192,175935,1,0,0:0:0:0:
384,192,176092,1,0,0:0:0:50:LR_Drum Kick Wet Fast.wav
469,192,176092,1,0,0:0:0:0:
384,192,176249,1,0,0:0:0:0:
469,192,176249,1,0,0:0:0:0:
42,192,176249,1,0,0:0:0:50:LR_Drum Rpd Fast .wav
384,192,176406,1,0,0:0:0:50:LR_Drum Kick Wet Fast.wav
469,192,176406,1,0,0:0:0:0:
384,192,176563,1,0,0:0:0:50:LR_Drum Kick Wet Fast.wav
469,192,176563,1,0,0:0:0:0:
213,192,176563,1,0,0:0:0:0:
384,192,176720,1,0,0:0:0:50:LR_Drum Kick Wet Fast.wav
469,192,176720,1,0,0:0:0:0:
384,192,176878,1,0,0:0:0:50:LR_Drum Kick Wet Fast.wav
469,192,176878,1,0,0:0:0:0:
42,192,176878,1,0,0:0:0:0:
128,192,177035,1,0,0:0:0:50:LR_Drum Kick Wet Fast.wav
213,192,177035,1,0,0:0:0:0:
128,192,177192,1,0,0:0:0:50:LR_Drum Kick Wet Fast.wav
213,192,177192,1,0,0:0:0:0:
469,192,177192,1,0,0:0:0:0:
128,192,177349,1,0,0:0:0:50:LR_Drum Kick Wet Fast.wav
213,192,177349,1,0,0:0:0:0:
128,192,177506,1,0,0:0:0:0:
213,192,177506,1,0,0:0:0:0:
384,192,177506,1,0,0:0:0:50:LR_Drum Rpd Fast .wav
128,192,177663,1,0,0:0:0:50:LR_Drum Kick Wet Fast.wav
213,192,177663,1,0,0:0:0:0:
128,192,177820,1,0,0:0:0:50:LR_Drum Kick Wet Fast.wav
213,192,177820,1,0,0:0:0:0:
469,192,177820,1,0,0:0:0:0:
128,192,177977,1,0,0:0:0:50:LR_Drum Kick Wet Fast.wav
213,192,177977,1,0,0:0:0:0:
384,192,177977,1,0,0:0:0:0:
298,192,178056,1,0,0:0:0:50:LR_Drum Kick Wet Fast.wav
128,192,178134,1,0,0:0:0:50:LR_Drum Kick Wet Fast.wav
213,192,178134,1,0,0:0:0:0:
42,192,178134,1,0,0:0:0:0:
298,192,178291,1,0,0:0:0:50:LR_Drum Kick Wet Fast.wav
469,192,178291,1,0,0:0:0:0:
298,192,178448,1,0,0:0:0:50:LR_Drum Kick Wet Fast.wav
469,192,178448,1,0,0:0:0:0:
128,192,178448,1,0,0:0:0:0:
298,192,178605,1,0,0:0:0:50:LR_Drum Kick Wet Fast.wav
469,192,178605,1,0,0:0:0:0:
298,192,178762,1,0,0:0:0:0:
469,192,178762,1,0,0:0:0:0:
42,192,178762,1,0,0:0:0:50:LR_Drum Rpd Fast .wav
128,192,178919,1,0,0:0:0:50:LR_Drum Kick Wet Fast.wav
384,192,178919,1,0,0:0:0:0:
298,192,179077,1,0,0:0:0:0:
469,192,179077,1,0,0:0:0:0:
42,192,179077,1,0,0:0:0:50:LR_Drum Rpd Fast .wav
384,192,179234,1,0,0:0:0:0:
128,192,179234,1,0,0:0:0:50:LR_Drum Kick Wet Fast.wav
298,192,179391,1,4,0:0:0:0:
469,192,179391,1,0,0:0:0:0:
213,192,179391,1,0,0:0:0:50:LR_Drum Kick Wet Fast.wav
42,192,179548,1,0,0:0:0:50:LR_Drum Kick Wet Fast.wav
128,192,179548,1,0,0:0:0:0:
42,192,179705,1,0,0:0:0:50:LR_Drum Kick Wet Fast.wav
128,192,179705,1,0,0:0:0:0:
384,192,179705,1,0,0:0:0:0:
42,192,179862,1,0,0:0:0:50:LR_Drum Kick Wet Fast.wav
128,192,179862,1,0,0:0:0:0:
42,192,180019,1,0,0:0:0:0:
128,192,180019,1,0,0:0:0:0:
298,192,180019,1,0,0:0:0:50:LR_Drum Rpd Fast .wav
42,192,180176,1,0,0:0:0:50:LR_Drum Kick Wet Fast.wav
128,192,180176,1,0,0:0:0:0:
42,192,180333,1,0,0:0:0:50:LR_Drum Kick Wet Fast.wav
128,192,180333,1,0,0:0:0:0:
469,192,180333,1,0,0:0:0:0:
42,192,180490,1,0,0:0:0:50:LR_Drum Kick Wet Fast.wav
128,192,180490,1,0,0:0:0:0:
384,192,180490,1,0,0:0:0:0:
298,192,180569,1,0,0:0:0:50:LR_Drum Kick Wet Fast.wav
42,192,180647,1,0,0:0:0:50:LR_Drum Kick Wet Fast.wav
128,192,180647,1,0,0:0:0:0:
213,192,180647,1,0,0:0:0:0:
298,192,180804,1,0,0:0:0:50:LR_Drum Kick Wet Fast.wav
384,192,180804,1,0,0:0:0:0:
298,192,180961,1,0,0:0:0:50:LR_Drum Kick Wet Fast.wav
384,192,180961,1,0,0:0:0:0:
128,192,180961,1,0,0:0:0:0:
298,192,181118,1,0,0:0:0:50:LR_Drum Kick Wet Fast.wav
384,192,181118,1,0,0:0:0:0:
298,192,181275,1,0,0:0:0:0:
384,192,181275,1,0,0:0:0:0:
213,192,181275,1,0,0:0:0:50:LR_Drum Rpd Fast .wav
298,192,181433,1,0,0:0:0:50:LR_Drum Kick Wet Fast.wav
384,192,181433,1,0,0:0:0:0:
298,192,181590,1,0,0:0:0:0:
384,192,181590,1,0,0:0:0:0:
128,192,181590,1,0,0:0:0:50:LR_Drum Rpd Fast .wav
42,192,181668,1,0,0:0:0:50:LR_Drum Rpd Fast .wav
213,192,181747,1,0,0:0:0:50:LR_Drum Rpd Fast .wav
469,192,181747,1,0,0:0:0:0:
384,192,181825,1,0,0:0:0:50:LR_Drum Rpd Fast .wav
298,192,181904,1,4,0:0:0:0:
128,192,181904,1,0,0:0:0:0:
42,192,181904,1,0,0:0:0:50:LR_Drum Kick Wet Fast.wav
469,192,182061,1,0,0:0:0:50:LR_Drum Kick Wet Fast.wav
213,192,182218,128,0,182375:0:0:0:0:
384,192,182218,128,0,182375:0:0:0:0:
128,192,182218,128,0,182375:0:0:0:50:LR_Drum Rpd Fast .wav
42,192,182375,1,0,0:0:0:50:LR_Drum Kick Wet Fast.wav
298,192,182375,1,0,0:0:0:0:
128,192,182532,128,0,182689:0:0:0:50:LR_Drum Rpd Fast .wav
213,192,182532,128,0,182689:0:0:0:0:
384,192,182532,128,0,182689:0:0:0:0:
42,192,182689,1,0,0:0:0:50:LR_Drum Kick Wet Fast.wav
298,192,182768,1,0,0:0:0:50:LR_Drum Kick Wet Fast.wav
469,192,182846,1,0,0:0:0:0:
42,192,182846,1,0,0:0:0:50:LR_Drum Rpd Fast .wav
384,192,182846,1,0,0:0:0:0:
384,192,183003,128,0,183160:0:0:0:0:
298,192,183003,128,0,183160:0:0:0:0:
42,192,183003,128,4,183160:0:0:0:0:
469,192,183317,128,0,183474:0:0:0:50:LR_Drum Kick Wet Fast.wav
213,192,183317,128,0,183474:0:0:0:0:
128,192,183317,128,0,183474:0:0:0:0:
384,192,183474,1,0,0:0:0:50:LR_Drum Rpd Fast .wav
298,192,183474,1,0,0:0:0:0:
42,192,183474,1,0,0:0:0:0:
298,192,183631,128,0,183789:0:0:0:50:LR_Drum Kick Wet Fast.wav
384,192,183631,128,0,183789:0:0:0:0:
42,192,183631,128,4,183789:0:0:0:0:
128,192,183789,1,0,0:0:0:0:
213,192,183789,1,0,0:0:0:50:LR_Drum Rpd Fast .wav
469,192,183867,1,0,0:0:0:50:LR_Drum Rpd Fast .wav
213,192,183946,1,0,0:0:0:50:LR_Drum Rpd Fast .wav
469,192,184024,1,0,0:0:0:50:LR_Drum Rpd Fast .wav
384,192,184103,1,0,0:0:0:0:
42,192,184103,1,0,0:0:0:50:LR_Drum Kick Wet Fast.wav
128,192,184181,1,0,0:0:0:50:LR_Drum Kick Wet Fast.wav
469,192,184260,1,0,0:0:0:0:
213,192,184260,1,0,0:0:0:50:LR_Drum Kick Wet Fast.wav
384,192,184338,1,0,0:0:0:50:LR_Drum Kick Wet Fast.wav
298,192,184417,1,4,0:0:0:0:
128,192,184417,1,0,0:0:0:0:
42,192,184417,1,0,0:0:0:50:LR_Drum Kick Wet Fast.wav
469,192,184574,1,0,0:0:0:50:LR_Drum Kick Wet Fast.wav
213,192,184731,1,0,0:0:0:0:
384,192,184731,1,0,0:0:0:0:
128,192,184731,1,0,0:0:0:50:LR_Drum Rpd Fast .wav
42,192,184888,1,0,0:0:0:50:LR_Drum Kick Wet Fast.wav
469,192,184888,1,0,0:0:0:0:
298,192,185045,1,0,0:0:0:0:
128,192,185045,1,0,0:0:0:50:LR_Drum Kick Wet Fast.wav
213,192,185202,1,0,0:0:0:50:LR_Drum Kick Wet Fast.wav
384,192,185202,1,0,0:0:0:0:
42,192,185359,1,0,0:0:0:50:LR_Drum Rpd Fast .wav
469,192,185359,1,0,0:0:0:0:
298,192,185359,1,0,0:0:0:0:
128,192,185516,1,0,0:0:0:50:LR_Drum Kick Wet Fast.wav
213,192,185516,1,0,0:0:0:0:
298,192,185595,1,0,0:0:0:50:LR_Drum Kick Wet Fast.wav
384,192,185673,1,0,0:0:0:50:LR_Drum Kick Wet Fast.wav
469,192,185673,1,0,0:0:0:0:
128,192,185830,1,0,0:0:0:0:
42,192,185830,1,0,0:0:0:50:LR_Drum Kick Wet Fast.wav
469,192,185987,1,0,0:0:0:0:
384,192,185987,1,0,0:0:0:0:
213,192,185987,1,0,0:0:0:50:LR_Drum Rpd Fast .wav
128,192,186145,1,0,0:0:0:50:LR_Drum Kick Wet Fast.wav
298,192,186145,1,0,0:0:0:0:
42,192,186302,1,0,0:0:0:50:LR_Drum Kick Wet Fast.wav
213,192,186302,1,0,0:0:0:0:
128,192,186459,1,0,0:0:0:50:LR_Drum Kick Wet Fast.wav
298,192,186459,1,0,0:0:0:0:
213,192,186616,1,0,0:0:0:50:LR_Drum Rpd Fast .wav
384,192,186616,1,0,0:0:0:0:
469,192,186616,1,0,0:0:0:0:
42,192,186773,1,0,0:0:0:50:LR_Drum Kick Wet Fast.wav
128,192,186773,1,0,0:0:0:0:
298,192,186930,1,0,0:0:0:50:LR_Drum Kick Wet Fast.wav
384,192,186930,1,0,0:0:0:0:
213,192,187087,1,0,0:0:0:50:LR_Drum Kick Wet Fast.wav
469,192,187087,1,0,0:0:0:0:
128,192,187244,1,0,0:0:0:0:
384,192,187244,1,0,0:0:0:0:
42,192,187244,1,0,0:0:0:50:LR_Drum Rpd Fast .wav
469,192,187401,1,0,0:0:0:0:
213,192,187401,1,0,0:0:0:50:LR_Drum Kick Wet Fast.wav
42,192,187558,1,0,0:0:0:50:LR_Drum Rpd Fast .wav
384,192,187558,1,0,0:0:0:0:
128,192,187558,1,0,0:0:0:0:
298,192,187715,1,0,0:0:0:50:LR_Drum Kick Wet Fast.wav
469,192,187715,1,0,0:0:0:0:
42,192,187872,1,0,0:0:0:50:LR_Drum Kick Wet Fast.wav
213,192,187872,1,0,0:0:0:0:
298,192,188029,1,0,0:0:0:50:LR_Drum Kick Wet Fast.wav
384,192,188029,1,0,0:0:0:0:
213,192,188108,1,0,0:0:0:50:LR_Drum Kick Wet Fast.wav
42,192,188186,1,0,0:0:0:0:
128,192,188186,1,0,0:0:0:50:LR_Drum Kick Wet Fast.wav
469,192,188344,1,0,0:0:0:0:
384,192,188344,1,0,0:0:0:0:
298,192,188344,1,0,0:0:0:50:LR_Drum Rpd Fast .wav
42,192,188501,1,0,0:0:0:50:LR_Drum Kick Wet Fast.wav
128,192,188501,1,0,0:0:0:0:
42,192,188658,1,0,0:0:0:50:LR_Drum Kick Wet Fast.wav
128,192,188658,1,0,0:0:0:0:
298,192,188815,1,0,0:0:0:50:LR_Drum Rpd Fast .wav
384,192,188815,1,0,0:0:0:0:
469,192,188815,1,0,0:0:0:0:
128,192,188972,1,0,0:0:0:50:LR_Drum Kick Wet Fast.wav
213,192,188972,1,0,0:0:0:0:
42,192,189129,1,0,0:0:0:50:LR_Drum Rpd Fast .wav
298,192,189129,1,0,0:0:0:0:
469,192,189129,1,0,0:0:0:0:
213,192,189286,1,0,0:0:0:50:LR_Drum Kick Wet Fast.wav
384,192,189286,1,0,0:0:0:0:
128,192,189443,1,0,0:0:0:50:LR_Drum Kick Wet Fast.wav
298,192,189443,1,0,0:0:0:0:
469,192,189443,1,4,0:0:0:0:
42,192,189600,1,0,0:0:0:50:LR_Drum Kick Wet Fast.wav
384,192,189600,1,0,0:0:0:0:
213,192,189757,1,0,0:0:0:50:LR_Drum Rpd Fast .wav
298,192,189757,1,0,0:0:0:0:
469,192,189757,1,0,0:0:0:0:
128,192,189914,1,0,0:0:0:50:LR_Drum Kick Wet Fast.wav
384,192,189914,1,0,0:0:0:0:
42,192,190071,1,0,0:0:0:50:LR_Drum Kick Wet Fast.wav
298,192,190071,1,0,0:0:0:0:
213,192,190228,1,0,0:0:0:50:LR_Drum Kick Wet Fast.wav
469,192,190228,1,0,0:0:0:0:
128,192,190385,1,0,0:0:0:50:LR_Drum Rpd Fast .wav
384,192,190385,1,0,0:0:0:0:
298,192,190385,1,0,0:0:0:0:
42,192,190542,1,0,0:0:0:50:LR_Drum Kick Wet Fast.wav
213,192,190542,1,0,0:0:0:0:
298,192,190621,1,0,0:0:0:50:LR_Drum Kick Wet Fast.wav
384,192,190700,1,0,0:0:0:50:LR_Drum Kick Wet Fast.wav
469,192,190700,1,0,0:0:0:0:
128,192,190857,1,0,0:0:0:50:LR_Drum Kick Wet Fast.wav
213,192,190857,1,0,0:0:0:0:
42,192,191014,1,0,0:0:0:50:LR_Drum Rpd Fast .wav
298,192,191014,1,0,0:0:0:0:
469,192,191014,1,0,0:0:0:0:
128,192,191171,1,0,0:0:0:50:LR_Drum Kick Wet Fast.wav
213,192,191171,1,0,0:0:0:0:
298,192,191328,1,0,0:0:0:50:LR_Drum Kick Wet Fast.wav
384,192,191328,1,0,0:0:0:0:
42,192,191485,1,0,0:0:0:50:LR_Drum Kick Wet Fast.wav
213,192,191485,1,0,0:0:0:0:
298,192,191642,1,0,0:0:0:0:
469,192,191642,1,0,0:0:0:0:
128,192,191642,1,0,0:0:0:50:LR_Drum Rpd Fast .wav
42,192,191799,1,0,0:0:0:50:LR_Drum Kick Wet Fast.wav
213,192,191799,1,0,0:0:0:0:
128,192,191956,1,0,0:0:0:50:LR_Drum Kick Wet Fast.wav
298,192,191956,1,0,0:0:0:0:
384,192,191956,1,0,0:0:0:0:
128,192,192113,1,0,0:0:0:50:LR_Drum Kick Wet Fast.wav
384,192,192113,1,0,0:0:0:0:
213,192,192270,1,0,0:0:0:0:
469,192,192270,1,0,0:0:0:0:
42,192,192270,1,0,0:0:0:50:LR_Drum Rpd Fast .wav
128,192,192427,1,0,0:0:0:50:LR_Drum Kick Wet Fast.wav
384,192,192427,1,0,0:0:0:0:
42,192,192584,1,0,0:0:0:50:LR_Drum Rpd Fast .wav
213,192,192584,1,0,0:0:0:0:
469,192,192584,1,0,0:0:0:0:
128,192,192741,1,0,0:0:0:50:LR_Drum Kick Wet Fast.wav
384,192,192741,1,0,0:0:0:0:
128,192,192898,1,0,0:0:0:50:LR_Drum Kick Wet Fast.wav
384,192,192898,1,0,0:0:0:0:
42,192,193056,1,0,0:0:0:50:LR_Drum Kick Wet Fast.wav
213,192,193056,1,0,0:0:0:0:
298,192,193213,1,0,0:0:0:50:LR_Drum Kick Wet Fast.wav
469,192,193213,1,4,0:0:0:0:
213,192,193291,1,0,0:0:0:50:LR_Drum Rpd Fast .wav
128,192,193370,1,0,0:0:0:50:LR_Drum Rpd Fast .wav
42,192,193448,1,0,0:0:0:50:LR_Drum Rpd Fast .wav
384,192,193527,1,0,0:0:0:50:LR_Drum Kick Wet Fast.wav
469,192,193527,1,0,0:0:0:0:
298,192,193605,1,0,0:0:0:50:LR_Drum Rpd Fast .wav
42,192,193684,1,0,0:0:0:0:
128,192,193762,1,0,0:0:0:50:LR_Drum Kick Wet Fast.wav
213,192,193841,1,0,0:0:0:50:LR_Drum Kick Wet Fast.wav
469,192,193841,1,0,0:0:0:50:LR_Drum Rpd Fast .wav
384,192,193919,1,0,0:0:0:50:LR_Drum Rpd Fast .wav
298,192,193998,1,0,0:0:0:50:LR_Drum Rpd Fast .wav
213,192,194077,1,0,0:0:0:50:LR_Drum Rpd Fast .wav
42,192,194155,1,0,0:0:0:0:
128,192,194155,1,0,0:0:0:50:LR_Drum Kick Wet Fast.wav
384,192,194234,1,0,0:0:0:50:LR_Drum Kick Wet Fast.wav
128,192,194312,1,0,0:0:0:50:LR_Drum Kick Wet Fast.wav
213,192,194312,1,0,0:0:0:0:
469,192,194391,1,0,0:0:0:50:LR_Drum Kick Wet Fast.wav
213,192,194469,1,0,0:0:0:50:LR_Drum Kick Wet Fast.wav
298,192,194469,1,4,0:0:0:0:
42,192,194469,1,0,0:0:0:0:
384,192,194626,1,0,0:0:0:50:LR_Drum Kick Wet Fast.wav
298,192,194705,1,0,0:0:0:50:LR_Drum Kick Wet Fast.wav
213,192,194783,1,0,0:0:0:0:
42,192,194783,1,0,0:0:0:50:LR_Drum Rpd Fast .wav
469,192,194783,1,0,0:0:0:0:
298,192,194940,1,0,0:0:0:50:LR_Drum Kick Wet Fast.wav
213,192,195019,1,0,0:0:0:50:LR_Drum Kick Wet Fast.wav
128,192,195097,1,0,0:0:0:0:
384,192,195097,1,0,0:0:0:0:
42,192,195097,1,0,0:0:0:50:LR_Drum Rpd Fast .wav
213,192,195255,1,0,0:0:0:50:LR_Drum Kick Wet Fast.wav
298,192,195333,1,0,0:0:0:50:LR_Drum Kick Wet Fast.wav
384,192,195412,1,0,0:0:0:0:
469,192,195412,1,0,0:0:0:0:
128,192,195412,1,0,0:0:0:50:LR_Drum Rpd Fast .wav
42,192,195569,1,0,0:0:0:50:LR_Drum Kick Wet Fast.wav
128,192,195647,1,0,0:0:0:50:LR_Drum Kick Wet Fast.wav
213,192,195726,1,0,0:0:0:50:LR_Drum Rpd Fast .wav
298,192,195726,1,0,0:0:0:0:
469,192,195726,1,0,0:0:0:0:
128,192,195883,1,0,0:0:0:50:LR_Drum Kick Wet Fast.wav
213,192,195961,1,0,0:0:0:50:LR_Drum Kick Wet Fast.wav
298,192,196040,1,0,0:0:0:0:
384,192,196040,1,0,0:0:0:0:
42,192,196040,1,0,0:0:0:50:LR_Drum Rpd Fast .wav
213,192,196197,1,0,0:0:0:50:LR_Drum Kick Wet Fast.wav
128,192,196275,1,0,0:0:0:50:LR_Drum Kick Wet Fast.wav
384,192,196354,1,0,0:0:0:0:
42,192,196354,1,0,0:0:0:50:LR_Drum Rpd Fast .wav
469,192,196354,1,0,0:0:0:0:
298,192,196511,1,0,0:0:0:50:LR_Drum Kick Wet Fast.wav
213,192,196590,1,0,0:0:0:50:LR_Drum Kick Wet Fast.wav
128,192,196668,1,0,0:0:0:0:
384,192,196668,1,0,0:0:0:0:
42,192,196668,1,0,0:0:0:50:LR_Drum Rpd Fast .wav
469,192,196825,1,0,0:0:0:50:LR_Drum Kick Wet Fast.wav
298,192,196904,1,0,0:0:0:50:LR_Drum Kick Wet Fast.wav
128,192,196982,1,0,0:0:0:50:LR_Drum Rpd Fast .wav
384,192,196982,1,0,0:0:0:0:
213,192,196982,1,0,0:0:0:0:
42,192,197139,1,0,0:0:0:50:LR_Drum Kick Wet Fast.wav
213,192,197218,1,0,0:0:0:50:LR_Drum Kick Wet Fast.wav
298,192,197296,1,0,0:0:0:0:
469,192,197296,1,0,0:0:0:0:
128,192,197296,1,0,0:0:0:50:LR_Drum Rpd Fast .wav
213,192,197453,1,0,0:0:0:50:LR_Drum Kick Wet Fast.wav
384,192,197532,1,0,0:0:0:50:LR_Drum Kick Wet Fast.wav
128,192,197611,1,0,0:0:0:0:
298,192,197611,1,0,0:0:0:0:
42,192,197611,1,0,0:0:0:50:LR_Drum Rpd Fast .wav
384,192,197768,1,0,0:0:0:50:LR_Drum Kick Wet Fast.wav
213,192,197846,1,0,0:0:0:50:LR_Drum Kick Wet Fast.wav
298,192,197925,1,0,0:0:0:0:
469,192,197925,1,0,0:0:0:0:
128,192,197925,1,0,0:0:0:50:LR_Drum Rpd Fast .wav
42,192,198082,1,0,0:0:0:50:LR_Drum Kick Wet Fast.wav
128,192,198160,1,0,0:0:0:50:LR_Drum Kick Wet Fast.wav
213,192,198239,1,0,0:0:0:50:LR_Drum Rpd Fast .wav
384,192,198239,1,0,0:0:0:0:
469,192,198239,1,4,0:0:0:0:
384,192,198396,1,0,0:0:0:0:
469,192,198396,1,4,0:0:0:0:
213,192,198396,1,0,0:0:0:50:LR_Drum Rpd Fast .wav
298,192,198710,1,0,0:0:0:50:LR_Drum Kick Wet Fast.wav
384,192,198710,1,0,0:0:0:0:
213,192,198789,1,0,0:0:0:50:LR_Drum Kick Wet Fast.wav
128,192,198867,1,0,0:0:0:0:
42,192,198867,1,0,0:0:0:50:LR_Drum Rpd Fast .wav
469,192,198867,1,4,0:0:0:0:
42,192,199024,1,0,0:0:0:50:LR_Drum Rpd Fast .wav
128,192,199024,1,0,0:0:0:0:
469,192,199024,1,4,0:0:0:0:
384,192,199338,1,0,0:0:0:50:LR_Drum Kick Wet Fast.wav
298,192,199417,1,0,0:0:0:50:LR_Drum Kick Wet Fast.wav
213,192,199495,1,0,0:0:0:0:
42,192,199495,1,0,0:0:0:50:LR_Drum Rpd Fast .wav
469,192,199495,1,4,0:0:0:0:
128,192,199652,1,0,0:0:0:50:LR_Drum Kick Wet Fast.wav
213,192,199731,1,0,0:0:0:50:LR_Drum Kick Wet Fast.wav
42,192,199809,1,0,0:0:0:50:LR_Drum Rpd Fast .wav
298,192,199809,1,0,0:0:0:0:
384,192,199809,1,0,0:0:0:0:
469,192,199967,1,0,0:0:0:50:LR_Drum Kick Wet Fast.wav
384,192,200045,1,0,0:0:0:50:LR_Drum Kick Wet Fast.wav
128,192,200124,1,0,0:0:0:0:
298,192,200124,1,0,0:0:0:0:
42,192,200124,1,0,0:0:0:50:LR_Drum Rpd Fast .wav
213,192,200281,1,0,0:0:0:50:LR_Drum Kick Wet Fast.wav
298,192,200359,1,0,0:0:0:50:LR_Drum Kick Wet Fast.wav
384,192,200438,1,0,0:0:0:0:
469,192,200438,1,0,0:0:0:0:
128,192,200438,1,0,0:0:0:50:LR_Drum Rpd Fast .wav
42,192,200595,1,0,0:0:0:50:LR_Drum Kick Wet Fast.wav
128,192,200673,1,0,0:0:0:50:LR_Drum Kick Wet Fast.wav
213,192,200752,1,0,0:0:0:50:LR_Drum Rpd Fast .wav
469,192,200752,1,0,0:0:0:0:
298,192,200752,1,0,0:0:0:0:
128,192,200909,1,0,0:0:0:50:LR_Drum Kick Wet Fast.wav
384,192,200987,1,0,0:0:0:50:LR_Drum Kick Wet Fast.wav
42,192,201066,1,0,0:0:0:50:LR_Drum Rpd Fast .wav
213,192,201066,1,0,0:0:0:0:
469,192,201066,1,0,0:0:0:0:
298,192,201223,1,0,0:0:0:50:LR_Drum Kick Wet Fast.wav
128,192,201302,1,0,0:0:0:50:LR_Drum Kick Wet Fast.wav
213,192,201380,1,0,0:0:0:0:
384,192,201380,1,0,0:0:0:0:
42,192,201380,1,0,0:0:0:50:LR_Drum Rpd Fast .wav
469,192,201537,1,0,0:0:0:50:LR_Drum Kick Wet Fast.wav
298,192,201616,1,0,0:0:0:50:LR_Drum Kick Wet Fast.wav
128,192,201694,1,0,0:0:0:0:
384,192,201694,1,0,0:0:0:0:
42,192,201694,1,0,0:0:0:50:LR_Drum Rpd Fast .wav
213,192,201851,1,0,0:0:0:50:LR_Drum Kick Wet Fast.wav
298,192,201930,1,0,0:0:0:50:LR_Drum Kick Wet Fast.wav
384,192,202008,1,0,0:0:0:0:
469,192,202008,1,0,0:0:0:0:
128,192,202008,1,0,0:0:0:50:LR_Drum Rpd Fast .wav
213,192,202166,1,0,0:0:0:50:LR_Drum Kick Wet Fast.wav
128,192,202244,1,0,0:0:0:50:LR_Drum Kick Wet Fast.wav
42,192,202323,1,0,0:0:0:50:LR_Drum Rpd Fast .wav
298,192,202323,1,0,0:0:0:0:
384,192,202323,1,0,0:0:0:0:
213,192,202480,1,0,0:0:0:50:LR_Drum Kick Wet Fast.wav
298,192,202558,1,0,0:0:0:50:LR_Drum Kick Wet Fast.wav
384,192,202637,1,0,0:0:0:0:
469,192,202637,1,0,0:0:0:0:
128,192,202637,1,0,0:0:0:50:LR_Drum Rpd Fast .wav
213,192,202794,1,0,0:0:0:50:LR_Drum Kick Wet Fast.wav
128,192,202872,1,0,0:0:0:50:LR_Drum Kick Wet Fast.wav
42,192,202951,1,0,0:0:0:50:LR_Drum Rpd Fast .wav
298,192,202951,1,0,0:0:0:0:
384,192,202951,1,0,0:0:0:0:
213,192,203108,1,0,0:0:0:50:LR_Drum Kick Wet Fast.wav
384,192,203186,1,0,0:0:0:50:LR_Drum Kick Wet Fast.wav
128,192,203265,1,0,0:0:0:50:LR_Drum Rpd Fast .wav
298,192,203265,1,0,0:0:0:0:
469,192,203265,1,4,0:0:0:0:
128,192,203422,1,0,0:0:0:50:LR_Drum Rpd Fast .wav
298,192,203422,1,0,0:0:0:0:
469,192,203422,1,4,0:0:0:0:
128,192,203736,1,0,0:0:0:50:LR_Drum Kick Wet Fast.wav
298,192,203815,1,0,0:0:0:50:LR_Drum Kick Wet Fast.wav
384,192,203893,1,0,0:0:0:0:
469,192,203893,1,0,0:0:0:0:
42,192,203893,1,0,0:0:0:50:LR_Drum Rpd Fast .wav
128,192,204050,1,0,0:0:0:50:LR_Drum Kick Wet Fast.wav
298,192,204050,1,0,0:0:0:0:
42,192,204207,1,0,0:0:0:50:LR_Drum Rpd Fast .wav
384,192,204207,1,0,0:0:0:0:
469,192,204207,1,0,0:0:0:0:
298,192,204286,1,0,0:0:0:50:LR_Drum Rpd Fast .wav
213,192,204364,1,0,0:0:0:0:
128,192,204364,1,0,0:0:0:50:LR_Drum Rpd Fast .wav
469,192,204443,1,0,0:0:0:50:LR_Drum Rpd Fast .wav
384,192,204522,1,4,0:0:0:0:
298,192,204522,1,0,0:0:0:50:LR_Drum Kick Wet Fast.wav
42,192,204522,128,0,205778:0:0:0:0:
298,192,204836,1,0,0:0:0:50:LR_Drum Kick Wet Fast.wav
384,192,204836,1,0,0:0:0:0:
298,192,205150,1,0,0:0:0:50:LR_Drum Kick Wet Fast.wav
384,192,205150,1,0,0:0:0:0:
298,192,205464,1,0,0:0:0:50:LR_Drum Kick Wet Fast.wav
384,192,205464,1,0,0:0:0:0:
213,192,205621,1,0,0:0:0:0:
469,192,205621,1,0,0:0:0:0:
128,192,205621,1,0,0:0:0:50:LR_Drum Rpd Fast .wav
384,192,205778,128,4,207035:0:0:0:0:
298,192,205778,1,0,0:0:0:50:LR_Drum Kick Wet Fast.wav
128,192,205778,1,0,0:0:0:0:
128,192,206092,1,0,0:0:0:50:LR_Drum Kick Wet Fast.wav
298,192,206092,1,0,0:0:0:0:
128,192,206406,1,0,0:0:0:50:LR_Drum Kick Wet Fast.wav
298,192,206406,1,0,0:0:0:0:
42,192,206563,1,0,0:0:0:50:LR_Drum Rpd Fast .wav
213,192,206563,1,0,0:0:0:0:
469,192,206563,1,0,0:0:0:0:
298,192,206642,1,0,0:0:0:50:LR_Drum Rpd Fast .wav
128,192,206720,1,0,0:0:0:0:
42,192,206720,1,0,0:0:0:50:LR_Drum Kick Wet Fast.wav
213,192,206878,1,0,0:0:0:50:LR_Drum Rpd Fast .wav
298,192,206956,1,0,0:0:0:50:LR_Drum Rpd Fast .wav
128,192,207035,128,0,208291:0:0:0:50:LR_Drum Kick Wet Fast.wav
469,192,207035,1,4,0:0:0:0:
42,192,207035,1,0,0:0:0:0:
213,192,207349,1,0,0:0:0:50:LR_Drum Kick Wet Fast.wav
469,192,207349,1,0,0:0:0:0:
213,192,207663,1,0,0:0:0:50:LR_Drum Kick Wet Fast.wav
469,192,207663,1,0,0:0:0:0:
213,192,207977,1,0,0:0:0:50:LR_Drum Kick Wet Fast.wav
469,192,207977,1,0,0:0:0:0:
42,192,208134,1,0,0:0:0:50:LR_Drum Rpd Fast .wav
384,192,208134,1,0,0:0:0:0:
298,192,208134,1,0,0:0:0:0:
469,192,208291,128,4,209548:0:0:0:0:
213,192,208291,1,0,0:0:0:50:LR_Drum Kick Wet Fast.wav
42,192,208605,1,0,0:0:0:50:LR_Drum Kick Wet Fast.wav
298,192,208605,1,0,0:0:0:0:
42,192,208919,1,0,0:0:0:50:LR_Drum Kick Wet Fast.wav
298,192,208919,1,0,0:0:0:0:
42,192,209234,1,0,0:0:0:50:LR_Drum Kick Wet Fast.wav
298,192,209234,1,0,0:0:0:0:
128,192,209548,1,0,0:0:0:50:LR_Drum Kick Wet Fast.wav
213,192,209548,1,0,0:0:0:0:
384,192,209548,1,4,0:0:0:0:
42,192,209626,1,0,0:0:0:50:LR_Drum Kick Wet Fast.wav
298,192,209626,1,0,0:0:0:0:
213,192,209705,1,0,0:0:0:50:LR_Drum Kick Wet Fast.wav
469,192,209705,1,0,0:0:0:0:
128,192,209783,1,0,0:0:0:50:LR_Drum Kick Wet Fast.wav
384,192,209783,1,0,0:0:0:0:
42,192,209862,1,0,0:0:0:50:LR_Drum Rpd Fast .wav
298,192,209862,1,0,0:0:0:0:
213,192,209940,1,0,0:0:0:50:LR_Drum Kick Wet Fast.wav
469,192,209940,1,0,0:0:0:0:
128,192,210019,1,0,0:0:0:50:LR_Drum Kick Wet Fast.wav
384,192,210019,1,0,0:0:0:0:
42,192,210097,1,0,0:0:0:50:LR_Drum Kick Wet Fast.wav
298,192,210097,1,0,0:0:0:0:
213,192,210176,1,0,0:0:0:50:LR_Drum Kick Wet Fast.wav
469,192,210176,1,0,0:0:0:0:
42,192,210333,1,0,0:0:0:50:LR_Drum Kick Wet Fast.wav
298,192,210333,1,0,0:0:0:0:
128,192,210490,1,0,0:0:0:50:LR_Drum Rpd Fast .wav
213,192,210490,1,0,0:0:0:0:
469,192,210490,1,0,0:0:0:0:
42,192,210647,1,0,0:0:0:50:LR_Drum Kick Wet Fast.wav
298,192,210647,1,0,0:0:0:0:
42,192,210804,1,0,0:0:0:50:LR_Drum Kick Wet Fast.wav
298,192,210804,1,0,0:0:0:0:
128,192,210883,1,0,0:0:0:50:LR_Drum Kick Wet Fast.wav
384,192,210883,1,0,0:0:0:0:
213,192,210961,1,0,0:0:0:50:LR_Drum Kick Wet Fast.wav
469,192,210961,1,0,0:0:0:0:
298,192,211040,1,0,0:0:0:0:
42,192,211040,1,0,0:0:0:50:LR_Drum Kick Wet Fast.wav
128,192,211118,1,0,0:0:0:50:LR_Drum Rpd Fast .wav
384,192,211118,1,0,0:0:0:0:
213,192,211197,1,0,0:0:0:50:LR_Drum Kick Wet Fast.wav
469,192,211197,1,0,0:0:0:0:
298,192,211275,1,0,0:0:0:0:
42,192,211275,1,0,0:0:0:50:LR_Drum Kick Wet Fast.wav
384,192,211354,1,0,0:0:0:0:
128,192,211354,1,0,0:0:0:50:LR_Drum Kick Wet Fast.wav
469,192,211433,1,0,0:0:0:0:
213,192,211433,1,0,0:0:0:50:LR_Drum Kick Wet Fast.wav
42,192,211590,1,0,0:0:0:50:LR_Drum Kick Wet Fast.wav
298,192,211590,1,0,0:0:0:0:
128,192,211747,1,0,0:0:0:50:LR_Drum Rpd Fast .wav
213,192,211747,1,0,0:0:0:0:
384,192,211747,1,0,0:0:0:0:
42,192,211904,1,0,0:0:0:50:LR_Drum Kick Wet Fast.wav
298,192,211904,1,0,0:0:0:0:
128,192,212061,1,0,0:0:0:50:LR_Drum Rpd Fast .wav
213,192,212061,1,0,0:0:0:0:
384,192,212139,1,0,0:0:0:50:LR_Drum Rpd Fast .wav
469,192,212139,1,0,0:0:0:0:
42,192,212218,1,0,0:0:0:50:LR_Drum Rpd Fast .wav
128,192,212218,1,0,0:0:0:0:
298,192,212296,1,0,0:0:0:50:LR_Drum Rpd Fast .wav
384,192,212296,1,0,0:0:0:0:
128,192,212375,1,0,0:0:0:50:LR_Drum Rpd Fast .wav
213,192,212375,1,0,0:0:0:0:
384,192,212453,1,0,0:0:0:50:LR_Drum Rpd Fast .wav
469,192,212453,1,0,0:0:0:0:
42,192,212532,1,0,0:0:0:50:LR_Drum Rpd Fast .wav
128,192,212532,1,0,0:0:0:0:
298,192,212611,1,0,0:0:0:50:LR_Drum Rpd Fast .wav
384,192,212611,1,0,0:0:0:0:
213,192,212689,1,0,0:0:0:0:
42,192,212689,1,0,0:0:0:50:LR_Drum Rpd Fast .wav
469,192,212689,1,0,0:0:0:0:
128,192,213003,1,0,0:0:0:0:
384,192,213003,1,0,0:0:0:0:
42,192,213003,1,0,0:0:0:0:
298,192,213317,1,0,0:0:0:50:LR_Drum Kick Wet Fast.wav
469,192,213317,1,0,0:0:0:0:
42,192,213396,1,0,0:0:0:0:
213,192,213396,1,0,0:0:0:50:LR_Drum Kick Wet Fast.wav
298,192,213474,1,0,0:0:0:50:LR_Drum Kick Wet Fast.wav
469,192,213474,1,0,0:0:0:0:
42,192,213553,1,0,0:0:0:0:
213,192,213553,1,0,0:0:0:50:LR_Drum Kick Wet Fast.wav
298,192,213631,1,0,0:0:0:50:LR_Drum Kick Wet Fast.wav
469,192,213631,1,0,0:0:0:0:
42,192,213710,1,0,0:0:0:0:
213,192,213710,1,0,0:0:0:50:LR_Drum Kick Wet Fast.wav
298,192,213789,1,0,0:0:0:50:LR_Drum Kick Wet Fast.wav
469,192,213789,1,0,0:0:0:0:
213,192,213867,1,0,0:0:0:50:LR_Drum Kick Wet Fast.wav
42,192,213867,1,0,0:0:0:0:
384,192,213946,1,0,0:0:0:0:
128,192,213946,1,0,0:0:0:50:LR_Drum Rpd Fast .wav
469,192,213946,1,4,0:0:0:0:
42,192,214574,1,0,0:0:0:0:
298,192,214574,1,0,0:0:0:50:LR_Drum Kick Wet Fast.wav
469,192,214574,1,4,0:0:0:50:LR_Drum Kick Wet Fast.wav
298,192,214731,1,0,0:0:0:50:LR_Drum Kick Wet Fast.wav
469,192,214731,1,0,0:0:0:0:
469,192,214888,1,0,0:0:0:0:
298,192,214888,1,0,0:0:0:50:LR_Drum Kick Wet Fast.wav
128,192,214888,1,0,0:0:0:0:
298,192,215045,1,0,0:0:0:50:LR_Drum Kick Wet Fast.wav
469,192,215045,1,0,0:0:0:0:
298,192,215202,1,0,0:0:0:0:
469,192,215202,1,0,0:0:0:0:
42,192,215202,1,0,0:0:0:50:LR_Drum Rpd Fast .wav
298,192,215359,1,0,0:0:0:50:LR_Drum Kick Wet Fast.wav
469,192,215359,1,0,0:0:0:0:
298,192,215516,1,0,0:0:0:50:LR_Drum Kick Wet Fast.wav
469,192,215516,1,0,0:0:0:0:
213,192,215516,1,0,0:0:0:0:
298,192,215673,1,0,0:0:0:50:LR_Drum Kick Wet Fast.wav
469,192,215673,1,0,0:0:0:0:
42,192,215673,1,0,0:0:0:0:
128,192,215752,1,0,0:0:0:50:LR_Drum Kick Wet Fast.wav
298,192,215830,1,0,0:0:0:50:LR_Drum Kick Wet Fast.wav
469,192,215830,1,0,0:0:0:0:
384,192,215830,1,0,0:0:0:0:
42,192,215987,1,0,0:0:0:50:LR_Drum Kick Wet Fast.wav
128,192,215987,1,0,0:0:0:0:
42,192,216145,1,0,0:0:0:50:LR_Drum Kick Wet Fast.wav
128,192,216145,1,0,0:0:0:0:
384,192,216145,1,0,0:0:0:0:
42,192,216302,1,0,0:0:0:50:LR_Drum Kick Wet Fast.wav
128,192,216302,1,0,0:0:0:0:
42,192,216459,1,0,0:0:0:0:
128,192,216459,1,0,0:0:0:0:
298,192,216459,1,0,0:0:0:50:LR_Drum Rpd Fast .wav
42,192,216616,1,0,0:0:0:50:LR_Drum Kick Wet Fast.wav
128,192,216616,1,0,0:0:0:0:
42,192,216773,1,0,0:0:0:50:LR_Drum Kick Wet Fast.wav
128,192,216773,1,0,0:0:0:0:
469,192,216773,1,0,0:0:0:0:
42,192,216930,1,0,0:0:0:50:LR_Drum Kick Wet Fast.wav
128,192,216930,1,0,0:0:0:0:
42,192,217087,1,0,0:0:0:50:LR_Drum Kick Wet Fast.wav
128,192,217087,1,0,0:0:0:0:
213,192,217087,1,0,0:0:0:0:
298,192,217244,1,0,0:0:0:50:LR_Drum Kick Wet Fast.wav
384,192,217244,1,0,0:0:0:0:
298,192,217401,1,0,0:0:0:50:LR_Drum Kick Wet Fast.wav
384,192,217401,1,0,0:0:0:0:
128,192,217401,1,0,0:0:0:0:
298,192,217558,1,0,0:0:0:50:LR_Drum Kick Wet Fast.wav
384,192,217558,1,0,0:0:0:0:
298,192,217715,1,0,0:0:0:0:
384,192,217715,1,0,0:0:0:0:
42,192,217715,1,0,0:0:0:50:LR_Drum Rpd Fast .wav
298,192,217872,1,0,0:0:0:50:LR_Drum Kick Wet Fast.wav
384,192,217872,1,0,0:0:0:0:
298,192,218029,1,0,0:0:0:50:LR_Drum Kick Wet Fast.wav
384,192,218029,1,0,0:0:0:0:
128,192,218029,1,0,0:0:0:0:
298,192,218186,1,0,0:0:0:50:LR_Drum Kick Wet Fast.wav
384,192,218186,1,0,0:0:0:0:
213,192,218186,1,0,0:0:0:0:
128,192,218265,1,0,0:0:0:50:LR_Drum Kick Wet Fast.wav
298,192,218344,1,0,0:0:0:50:LR_Drum Kick Wet Fast.wav
384,192,218344,1,0,0:0:0:0:
42,192,218344,1,0,0:0:0:0:
128,192,218501,1,0,0:0:0:50:LR_Drum Kick Wet Fast.wav
213,192,218501,1,0,0:0:0:0:
128,192,218658,1,0,0:0:0:50:LR_Drum Kick Wet Fast.wav
213,192,218658,1,0,0:0:0:0:
128,192,218815,1,0,0:0:0:50:LR_Drum Kick Wet Fast.wav
213,192,218815,1,0,0:0:0:0:
213,192,218972,1,0,0:0:0:0:
469,192,218972,1,0,0:0:0:0:
42,192,218972,1,0,0:0:0:50:LR_Drum Rpd Fast .wav
384,192,219129,1,0,0:0:0:0:
128,192,219129,1,0,0:0:0:50:LR_Drum Kick Wet Fast.wav
213,192,219286,1,0,0:0:0:0:
469,192,219286,1,0,0:0:0:0:
42,192,219286,1,0,0:0:0:50:LR_Drum Rpd Fast .wav
128,192,219443,1,0,0:0:0:50:LR_Drum Kick Wet Fast.wav
384,192,219443,1,0,0:0:0:0:
213,192,219600,1,0,0:0:0:50:LR_Drum Kick Wet Fast.wav
469,192,219600,1,4,0:0:0:0:
298,192,219600,1,0,0:0:0:0:
42,192,219757,1,0,0:0:0:50:LR_Drum Kick Wet Fast.wav
128,192,219757,1,0,0:0:0:0:
42,192,219914,1,0,0:0:0:50:LR_Drum Kick Wet Fast.wav
128,192,219914,1,0,0:0:0:0:
384,192,219914,1,0,0:0:0:0:
42,192,220071,1,0,0:0:0:50:LR_Drum Kick Wet Fast.wav
128,192,220071,1,0,0:0:0:0:
42,192,220228,1,0,0:0:0:0:
128,192,220228,1,0,0:0:0:0:
298,192,220228,1,0,0:0:0:50:LR_Drum Rpd Fast .wav
42,192,220385,1,0,0:0:0:50:LR_Drum Kick Wet Fast.wav
128,192,220385,1,0,0:0:0:0:
42,192,220542,1,0,0:0:0:50:LR_Drum Kick Wet Fast.wav
128,192,220542,1,0,0:0:0:0:
469,192,220542,1,0,0:0:0:0:
42,192,220700,1,0,0:0:0:50:LR_Drum Kick Wet Fast.wav
128,192,220700,1,0,0:0:0:0:
384,192,220700,1,0,0:0:0:0:
298,192,220778,1,0,0:0:0:50:LR_Drum Kick Wet Fast.wav
42,192,220857,1,0,0:0:0:50:LR_Drum Kick Wet Fast.wav
128,192,220857,1,0,0:0:0:0:
213,192,220857,1,0,0:0:0:0:
384,192,221014,1,0,0:0:0:50:LR_Drum Kick Wet Fast.wav
469,192,221014,1,0,0:0:0:0:
384,192,221171,1,0,0:0:0:50:LR_Drum Kick Wet Fast.wav
469,192,221171,1,0,0:0:0:0:
128,192,221171,1,0,0:0:0:0:
384,192,221328,1,0,0:0:0:50:LR_Drum Kick Wet Fast.wav
469,192,221328,1,0,0:0:0:0:
384,192,221485,1,0,0:0:0:0:
469,192,221485,1,0,0:0:0:0:
213,192,221485,1,0,0:0:0:50:LR_Drum Rpd Fast .wav
384,192,221642,1,0,0:0:0:50:LR_Drum Kick Wet Fast.wav
469,192,221642,1,0,0:0:0:0:
384,192,221799,1,0,0:0:0:50:LR_Drum Kick Wet Fast.wav
469,192,221799,1,0,0:0:0:0:
42,192,221799,1,0,0:0:0:0:
384,192,221956,1,0,0:0:0:50:LR_Drum Kick Wet Fast.wav
469,192,221956,1,0,0:0:0:0:
384,192,222113,1,0,0:0:0:50:LR_Drum Kick Wet Fast.wav
469,192,222113,1,4,0:0:0:0:
128,192,222113,1,0,0:0:0:50:LR_Drum Kick Wet Fast.wav
213,192,222270,1,0,0:0:0:0:
42,192,222270,1,0,0:0:0:50:LR_Drum Kick Wet Fast.wav
298,192,222427,1,0,0:0:0:50:LR_Drum Kick Wet Fast.wav
469,192,222427,1,0,0:0:0:0:
128,192,222584,1,0,0:0:0:50:LR_Drum Kick Wet Fast.wav
384,192,222584,1,0,0:0:0:0:
469,192,222741,1,0,0:0:0:0:
213,192,222741,1,0,0:0:0:0:
42,192,222741,1,0,0:0:0:50:LR_Drum Rpd Fast .wav
298,192,222898,1,0,0:0:0:50:LR_Drum Kick Wet Fast.wav
384,192,222898,1,0,0:0:0:0:
128,192,223056,1,0,0:0:0:50:LR_Drum Kick Wet Fast.wav
213,192,223056,1,0,0:0:0:0:
469,192,223213,1,0,0:0:0:50:LR_Drum Kick Wet Fast.wav
384,192,223291,1,0,0:0:0:50:LR_Drum Kick Wet Fast.wav
298,192,223370,1,0,0:0:0:0:
128,192,223370,1,0,0:0:0:0:
42,192,223370,1,0,0:0:0:50:LR_Drum Rpd Fast .wav
213,192,223527,1,0,0:0:0:50:LR_Drum Kick Wet Fast.wav
298,192,223605,1,0,0:0:0:50:LR_Drum Kick Wet Fast.wav
469,192,223684,1,0,0:0:0:0:
384,192,223684,1,0,0:0:0:50:LR_Drum Rpd Fast .wav
42,192,223762,1,0,0:0:0:50:LR_Drum Rpd Fast .wav
213,192,223841,1,0,0:0:0:0:
128,192,223841,1,0,0:0:0:50:LR_Drum Kick Wet Fast.wav
469,192,223919,1,0,0:0:0:50:LR_Drum Kick Wet Fast.wav
384,192,223998,1,0,0:0:0:0:
298,192,223998,1,0,0:0:0:0:
42,192,223998,1,0,0:0:0:50:LR_Drum Rpd Fast .wav
213,192,224155,1,0,0:0:0:50:LR_Drum Kick Wet Fast.wav
128,192,224234,1,0,0:0:0:50:LR_Drum Kick Wet Fast.wav
42,192,224312,1,0,0:0:0:50:LR_Drum Kick Wet Fast.wav
384,192,224312,1,0,0:0:0:0:
298,192,224391,1,0,0:0:0:50:LR_Drum Kick Wet Fast.wav
128,192,224469,1,0,0:0:0:50:LR_Drum Kick Wet Fast.wav
213,192,224469,1,0,0:0:0:0:
469,192,224548,1,0,0:0:0:50:LR_Drum Kick Wet Fast.wav
213,192,224626,1,0,0:0:0:0:
384,192,224626,1,4,0:0:0:0:
42,192,224626,1,0,0:0:0:50:LR_Drum Kick Wet Fast.wav
298,192,224783,1,0,0:0:0:50:LR_Drum Kick Wet Fast.wav
469,192,224940,1,0,0:0:0:0:
384,192,224940,1,0,0:0:0:0:
128,192,224940,1,0,0:0:0:50:LR_Drum Rpd Fast .wav
42,192,225097,1,0,0:0:0:50:LR_Drum Kick Wet Fast.wav
298,192,225097,1,0,0:0:0:0:
213,192,225176,1,0,0:0:0:50:LR_Drum Kick Wet Fast.wav
128,192,225255,1,0,0:0:0:50:LR_Drum Kick Wet Fast.wav
384,192,225255,1,0,0:0:0:0:
42,192,225412,1,0,0:0:0:50:LR_Drum Kick Wet Fast.wav
298,192,225412,1,0,0:0:0:0:
469,192,225569,1,0,0:0:0:0:
384,192,225569,1,0,0:0:0:0:
213,192,225569,1,0,0:0:0:50:LR_Drum Rpd Fast .wav
128,192,225726,1,0,0:0:0:0:
42,192,225726,1,0,0:0:0:50:LR_Drum Kick Wet Fast.wav
213,192,225804,1,0,0:0:0:50:LR_Drum Kick Wet Fast.wav
298,192,225883,1,0,0:0:0:50:LR_Drum Kick Wet Fast.wav
469,192,225883,1,0,0:0:0:0:
213,192,226040,1,0,0:0:0:0:
42,192,226040,1,0,0:0:0:50:LR_Drum Kick Wet Fast.wav
384,192,226197,1,0,0:0:0:0:
298,192,226197,1,0,0:0:0:0:
128,192,226197,1,0,0:0:0:50:LR_Drum Rpd Fast .wav
42,192,226354,1,0,0:0:0:50:LR_Drum Kick Wet Fast.wav
213,192,226354,1,0,0:0:0:0:
128,192,226511,1,0,0:0:0:50:LR_Drum Kick Wet Fast.wav
298,192,226511,1,0,0:0:0:0:
42,192,226668,1,0,0:0:0:50:LR_Drum Kick Wet Fast.wav
213,192,226668,1,0,0:0:0:0:
384,192,226825,1,0,0:0:0:0:
469,192,226825,1,0,0:0:0:0:
128,192,226825,1,0,0:0:0:50:LR_Drum Rpd Fast .wav
298,192,226982,1,0,0:0:0:0:
42,192,226982,1,0,0:0:0:50:LR_Drum Kick Wet Fast.wav
213,192,227139,1,0,0:0:0:50:LR_Drum Kick Wet Fast.wav
469,192,227139,1,0,0:0:0:0:
128,192,227296,1,0,0:0:0:50:LR_Drum Kick Wet Fast.wav
384,192,227296,1,0,0:0:0:0:
298,192,227453,1,0,0:0:0:0:
213,192,227453,1,0,0:0:0:0:
42,192,227453,1,0,0:0:0:50:LR_Drum Rpd Fast .wav
469,192,227611,1,0,0:0:0:0:
384,192,227611,1,0,0:0:0:50:LR_Drum Kick Wet Fast.wav
213,192,227768,1,0,0:0:0:0:
298,192,227768,1,0,0:0:0:0:
42,192,227768,1,0,0:0:0:50:LR_Drum Rpd Fast .wav
384,192,227925,1,0,0:0:0:50:LR_Drum Kick Wet Fast.wav
469,192,227925,1,0,0:0:0:0:
298,192,228003,1,0,0:0:0:50:LR_Drum Kick Wet Fast.wav
213,192,228082,1,0,0:0:0:0:
128,192,228082,1,0,0:0:0:50:LR_Drum Kick Wet Fast.wav
469,192,228239,1,0,0:0:0:0:
213,192,228239,1,0,0:0:0:50:LR_Drum Kick Wet Fast.wav
384,192,228317,1,0,0:0:0:0:
128,192,228317,1,0,0:0:0:50:LR_Drum Kick Wet Fast.wav
298,192,228396,1,0,0:0:0:0:
42,192,228396,1,0,0:0:0:50:LR_Drum Kick Wet Fast.wav
213,192,228553,1,0,0:0:0:0:
469,192,228553,1,0,0:0:0:0:
128,192,228553,1,0,0:0:0:50:LR_Drum Rpd Fast .wav
42,192,228710,1,0,0:0:0:50:LR_Drum Kick Wet Fast.wav
298,192,228710,1,0,0:0:0:0:
298,192,228867,1,0,0:0:0:0:
42,192,228867,1,0,0:0:0:50:LR_Drum Kick Wet Fast.wav
213,192,229024,1,0,0:0:0:0:
469,192,229024,1,0,0:0:0:0:
128,192,229024,1,0,0:0:0:50:LR_Drum Rpd Fast .wav
384,192,229181,1,0,0:0:0:0:
298,192,229181,1,0,0:0:0:50:LR_Drum Kick Wet Fast.wav
213,192,229338,1,0,0:0:0:0:
469,192,229338,1,0,0:0:0:0:
128,192,229338,1,0,0:0:0:50:LR_Drum Rpd Fast .wav
42,192,229495,1,0,0:0:0:50:LR_Drum Kick Wet Fast.wav
384,192,229495,1,0,0:0:0:0:
128,192,229652,1,0,0:0:0:50:LR_Drum Kick Wet Fast.wav
298,192,229652,1,0,0:0:0:0:
469,192,229652,1,4,0:0:0:0:
42,192,229809,1,0,0:0:0:50:LR_Drum Kick Wet Fast.wav
213,192,229809,1,0,0:0:0:0:
384,192,229967,1,0,0:0:0:0:
298,192,229967,1,0,0:0:0:0:
128,192,229967,1,0,0:0:0:50:LR_Drum Rpd Fast .wav
213,192,230124,1,0,0:0:0:50:LR_Drum Kick Wet Fast.wav
469,192,230124,1,0,0:0:0:0:
42,192,230281,1,0,0:0:0:50:LR_Drum Kick Wet Fast.wav
298,192,230281,1,0,0:0:0:0:
128,192,230438,1,0,0:0:0:50:LR_Drum Kick Wet Fast.wav
384,192,230438,1,0,0:0:0:0:
298,192,230595,1,0,0:0:0:0:
469,192,230595,1,0,0:0:0:0:
213,192,230595,1,0,0:0:0:50:LR_Drum Rpd Fast .wav
42,192,230752,1,0,0:0:0:50:LR_Drum Kick Wet Fast.wav
128,192,230752,1,0,0:0:0:0:
213,192,230830,1,0,0:0:0:50:LR_Drum Kick Wet Fast.wav
298,192,230909,1,0,0:0:0:50:LR_Drum Kick Wet Fast.wav
384,192,230909,1,0,0:0:0:0:
128,192,231066,1,0,0:0:0:0:
42,192,231066,1,0,0:0:0:50:LR_Drum Kick Wet Fast.wav
384,192,231223,1,0,0:0:0:0:
469,192,231223,1,0,0:0:0:0:
298,192,231223,1,0,0:0:0:50:LR_Drum Rpd Fast .wav
213,192,231380,1,0,0:0:0:0:
128,192,231380,1,0,0:0:0:50:LR_Drum Kick Wet Fast.wav
469,192,231537,1,0,0:0:0:0:
384,192,231537,1,0,0:0:0:50:LR_Drum Kick Wet Fast.wav
298,192,231694,1,0,0:0:0:0:
213,192,231694,1,0,0:0:0:50:LR_Drum Kick Wet Fast.wav
128,192,231851,1,0,0:0:0:0:
469,192,231851,1,0,0:0:0:0:
42,192,231851,1,0,0:0:0:50:LR_Drum Rpd Fast .wav
384,192,232008,1,0,0:0:0:0:
213,192,232008,1,0,0:0:0:50:LR_Drum Kick Wet Fast.wav
42,192,232166,1,0,0:0:0:50:LR_Drum Kick Wet Fast.wav
469,192,232166,1,4,0:0:0:0:
128,192,232166,1,0,0:0:0:0:
384,192,232323,1,0,0:0:0:50:LR_Drum Kick Wet Fast.wav
298,192,232401,1,0,0:0:0:50:LR_Drum Kick Wet Fast.wav
213,192,232480,1,0,0:0:0:0:
469,192,232480,1,0,0:0:0:0:
128,192,232480,1,0,0:0:0:50:LR_Drum Rpd Fast .wav
42,192,232637,1,0,0:0:0:50:LR_Drum Kick Wet Fast.wav
384,192,232637,1,0,0:0:0:0:
213,192,232794,1,0,0:0:0:0:
469,192,232794,1,0,0:0:0:0:
128,192,232794,1,0,0:0:0:50:LR_Drum Rpd Fast .wav
298,192,232951,1,0,0:0:0:50:LR_Drum Kick Wet Fast.wav
384,192,233108,1,0,0:0:0:0:
213,192,233108,1,0,0:0:0:0:
42,192,233108,1,0,0:0:0:50:LR_Drum Rpd Fast .wav
128,192,233265,1,0,0:0:0:50:LR_Drum Kick Wet Fast.wav
298,192,233344,1,0,0:0:0:50:LR_Drum Kick Wet Fast.wav
469,192,233422,1,0,0:0:0:0:
213,192,233422,1,0,0:0:0:0:
42,192,233422,1,0,0:0:0:50:LR_Drum Rpd Fast .wav
384,192,233501,1,0,0:0:0:50:LR_Drum Rpd Fast .wav
128,192,233579,1,0,0:0:0:50:LR_Drum Rpd Fast .wav
213,192,233658,1,0,0:0:0:50:LR_Drum Rpd Fast .wav
298,192,233736,1,0,0:0:0:50:LR_Drum Kick Wet Fast.wav
469,192,233736,1,0,0:0:0:0:
42,192,233815,1,0,0:0:0:50:LR_Drum Kick Wet Fast.wav
128,192,233893,1,0,0:0:0:50:LR_Drum Kick Wet Fast.wav
384,192,233972,1,0,0:0:0:50:LR_Drum Kick Wet Fast.wav
298,192,234050,1,0,0:0:0:0:
213,192,234050,1,0,0:0:0:50:LR_Drum Rpd Fast .wav
128,192,234129,1,0,0:0:0:50:LR_Drum Rpd Fast .wav
42,192,234207,1,0,0:0:0:50:LR_Drum Rpd Fast .wav
469,192,234286,1,0,0:0:0:50:LR_Drum Rpd Fast .wav
384,192,234364,1,0,0:0:0:0:
298,192,234364,1,0,0:0:0:50:LR_Drum Kick Wet Fast.wav
128,192,234443,1,0,0:0:0:50:LR_Drum Kick Wet Fast.wav
469,192,234522,1,0,0:0:0:50:LR_Drum Kick Wet Fast.wav
213,192,234600,1,0,0:0:0:50:LR_Drum Kick Wet Fast.wav
384,192,234679,128,4,237192:0:0:0:0:
128,192,234679,128,0,237192:0:0:0:0:
42,192,234679,1,4,0:0:0:50:LR_Drum Kick Wet Fast.wav
298,192,237192,128,0,239548:0:0:0:50:LR_Drum Rpd Fast .wav
213,192,237192,128,0,239548:0:0:0:0:
469,192,237192,1,4,0:0:0:0:
42,192,238919,1,0,0:0:0:50:LR_Drum Kick Wet Fast.wav
469,192,238998,1,0,0:0:0:50:LR_Drum Kick Wet Fast.wav
384,192,239077,1,0,0:0:0:0:
128,192,239077,1,0,0:0:0:50:LR_Drum Rpd Fast .wav
384,192,239312,1,0,0:0:0:0:
128,192,239312,1,0,0:0:0:50:LR_Drum Rpd Fast .wav
384,192,239548,1,0,0:0:0:0:
128,192,239548,1,0,0:0:0:50:LR_Drum Rpd Fast .wav
42,192,240333,128,0,247244:0:0:0:50:LR_Drum Rpd Fast .wav
469,192,240333,128,0,247244:0:0:0:0:
213,192,240333,128,0,247244:0:0:0:50:LR_Drum Kick Wet Fast.wav
298,192,240333,128,4,247244:0:0:0:0:
128,192,240333,1,0,0:0:0:0:
384,192,240333,1,0,0:0:0:0:
