osu file format v14

[General]
AudioFilename: audio.mp3
AudioLeadIn: 0
PreviewTime: 172920
Countdown: 0
SampleSet: Soft
StackLeniency: 0.7
Mode: 0
LetterboxInBreaks: 0
WidescreenStoryboard: 1

[Editor]
Bookmarks: 77190,80055,98763,99269,99606,99774,99943,100111,100617,100954,101291,101965,102471,103819,104156,131123,149999,151347,152696,163482,198538
DistanceSpacing: 0.9
BeatDivisor: 4
GridSize: 16
TimelineZoom: 3.699998

[Metadata]
Title:When Innocence Is Just A Mask
TitleUnicode:When Innocence Is Just A Mask
Artist:Foreground Eclipse
ArtistUnicode:Foreground Eclipse
Creator:Tuffiii
Version:HS
Source:
Tags:
BeatmapID:2164628
BeatmapSetID:1033469

[Difficulty]
HPDrainRate:6
CircleSize:4
OverallDifficulty:9
ApproachRate:9.4
SliderMultiplier:1.8
SliderTickRate:1

[Events]
//Background and Video events
0,0,"18583207_p0.jpg",0,0
//Break Periods
//Storyboard Layer 0 (Background)
//Storyboard Layer 1 (Fail)
//Storyboard Layer 2 (Pass)
//Storyboard Layer 3 (Foreground)
//Storyboard Layer 4 (Overlay)
//Storyboard Sound Samples

[TimingPoints]
23258,337.078651685393,4,2,2,100,1,0
25954,-86.9565217391304,4,2,3,100,0,0
26123,-86.9565217391304,4,2,2,100,0,0
28566,-90.9090909090909,4,2,3,100,0,0
28735,-90.9090909090909,4,2,2,100,0,0
31263,-90.9090909090909,4,2,3,100,0,0
31432,-90.9090909090909,4,2,2,100,0,0
32949,-90.9090909090909,4,2,3,100,0,0
33117,-90.9090909090909,4,2,2,100,0,0
33623,-90.9090909090909,4,2,3,100,0,0
33791,-90.9090909090909,4,2,2,100,0,0
33960,-86.9565217391304,4,2,2,100,0,0
42050,-86.9565217391304,4,2,3,100,0,0
42302,-86.9565217391304,4,2,2,100,0,0
44409,-86.9565217391304,4,2,3,100,0,0
44578,-86.9565217391304,4,2,2,100,0,0
44831,-105.263157894737,4,2,2,100,0,0
50224,-105.263157894737,4,2,2,100,0,0
51572,-83.3333333333333,4,2,2,100,0,0
54606,-90.9090909090909,4,2,2,100,0,0
56038,-83.3333333333333,4,2,2,100,0,0
64971,-83.3333333333333,4,2,2,100,0,0
77190,-250,4,2,2,100,0,0
77359,-76.9230769230769,4,2,2,100,0,0
79887,-142.857142857143,4,2,2,100,0,0
81909,-222.222222222221,4,2,2,100,0,0
82583,-76.9230769230769,4,2,2,100,0,0
86544,-166.666666666667,4,2,2,100,0,0
87977,-76.9230769230769,4,2,2,100,0,1
90336,-71.4285714285714,4,2,2,100,0,1
93370,-76.9230769230769,4,2,2,100,0,1
98763,-83.3333333333333,4,2,2,100,0,1
100111,-80,4,2,2,100,0,1
100617,-86.9565217391304,4,2,2,100,0,1
100954,-83.3333333333333,4,2,2,100,0,1
101291,-76.9230769230769,4,2,2,100,0,1
101965,-71.4285714285714,4,2,2,100,0,1
102471,-74.0740740740741,4,2,2,100,0,1
102555,-100,4,2,2,100,0,1
102977,-71.4285714285714,4,2,2,100,0,1
104156,-76.9230769230769,4,2,2,100,0,1
109550,-90.9090909090909,4,2,2,100,0,0
120336,-117.647058823529,4,2,2,100,0,0
131123,-111.111111111111,4,2,2,100,0,0
136516,-100,4,2,2,100,0,0
139128,-111.111111111111,4,2,2,100,0,0
141825,-111.111111111111,4,2,2,100,0,0
142920,-99.9999999999999,4,2,2,100,0,0
149999,-83.3333333333333,4,2,2,100,0,0
152696,-125,4,2,2,100,0,0
163482,-95.2380952380952,4,2,2,100,0,0
168791,-111.111111111111,4,2,2,100,0,0
171488,-100,4,2,2,100,0,0
172920,-76.9230769230769,4,2,2,100,0,1
173595,-166.666666666667,4,2,2,100,0,1
174269,-76.9230769230769,4,2,2,100,0,1
176965,-71.4285714285714,4,2,2,100,0,1
179662,-76.9230769230769,4,2,2,100,0,1
185055,-83.3333333333333,4,2,2,100,0,1
185392,-80,4,2,2,100,0,1
186066,-76.9230769230769,4,2,2,100,0,1
186404,-74.0740740740741,4,2,2,100,0,1
186909,-80,4,2,2,100,0,1
187752,-68.9655172413793,4,2,2,100,0,1
188426,-74.0740740740741,4,2,2,100,0,1
189100,-68.9655172413793,4,2,2,100,0,1
190111,-71.4285714285714,4,2,2,100,0,1
190449,-76.9230769230769,4,2,2,100,0,1
195842,-90.9090909090909,4,2,2,100,0,0

[Colours]
Combo1 : 105,1,95
Combo2 : 154,123,213
Combo3 : 211,211,211
Combo4 : 225,0,0
Combo5 : 147,0,0

[HitObjects]
464,160,23258,5,8,0:0:0:0:
464,96,23258,1,4,0:0:0:0:
464,32,23595,1,2,0:0:0:0:
464,160,23932,1,8,0:0:0:0:
464,32,24016,1,2,0:0:0:0:
464,160,24100,1,8,0:0:0:0:
464,32,24437,1,2,0:0:0:0:
464,32,24606,1,2,0:0:0:0:
464,160,24774,1,8,0:0:0:0:
464,32,24943,1,2,0:0:0:0:
464,32,25112,1,2,0:0:0:0:
464,160,25280,1,8,0:0:0:0:
464,32,25449,1,2,0:0:0:0:
464,160,25617,1,8,0:0:0:0:
464,160,25701,1,8,0:0:0:0:
464,160,25786,1,8,0:0:0:0:
464,160,25870,1,8,0:0:0:0:
464,160,25954,1,8,0:0:0:0:
368,96,25954,1,4,0:0:0:0:
448,16,26291,1,8,0:0:0:0:
464,32,26628,1,2,0:0:0:0:
464,32,26797,1,2,0:0:0:0:
464,160,26965,1,8,0:0:0:0:
464,32,27134,1,2,0:0:0:0:
464,32,27302,1,2,0:0:0:0:
464,160,27640,1,8,0:0:0:0:
464,32,27977,1,2,0:0:0:0:
464,32,28145,1,2,0:0:0:0:
464,160,28314,1,8,0:0:0:0:
464,32,28482,1,2,0:0:0:0:
368,96,28651,1,4,0:0:0:0:
464,32,28988,1,2,0:0:0:0:
464,32,29156,1,2,0:0:0:0:
464,160,29325,1,8,0:0:0:0:
464,32,29493,1,2,0:0:0:0:
464,32,29831,1,2,0:0:0:0:
464,32,29999,1,2,0:0:0:0:
464,160,30168,1,8,0:0:0:0:
464,160,30252,1,8,0:0:0:0:
464,32,30336,1,2,0:0:0:0:
464,32,30505,1,2,0:0:0:0:
464,160,30673,1,8,0:0:0:0:
464,32,30842,1,2,0:0:0:0:
464,160,31010,1,8,0:0:0:0:
464,32,31179,1,2,0:0:0:0:
368,96,31347,1,4,0:0:0:0:
464,32,31684,1,2,0:0:0:0:
464,32,31853,1,2,0:0:0:0:
464,160,32022,1,8,0:0:0:0:
464,160,32106,1,8,0:0:0:0:
464,32,32190,1,2,0:0:0:0:
464,32,32527,1,2,0:0:0:0:
464,32,32864,1,2,0:0:0:0:
464,32,32949,1,2,0:0:0:0:
368,96,33033,1,4,0:0:0:0:
464,160,33033,1,8,0:0:0:0:
464,32,33201,1,2,0:0:0:0:
464,32,33286,1,2,0:0:0:0:
464,160,33370,1,8,0:0:0:0:
464,160,33454,1,8,0:0:0:0:
464,32,33538,1,2,0:0:0:0:
464,32,33623,1,2,0:0:0:0:
368,96,33707,1,4,0:0:0:0:
464,32,33875,1,2,0:0:0:0:
464,32,34044,1,2,0:0:0:0:
464,160,34381,1,8,0:0:0:0:
464,32,34718,1,2,0:0:0:0:
464,160,35055,1,8,0:0:0:0:
464,32,35392,1,2,0:0:0:0:
464,32,35477,1,2,0:0:0:0:
464,32,35561,1,2,0:0:0:0:
464,32,35645,1,2,0:0:0:0:
464,160,35729,1,8,0:0:0:0:
464,32,36066,1,2,0:0:0:0:
464,32,36151,1,2,0:0:0:0:
464,32,36235,1,2,0:0:0:0:
464,32,36319,1,2,0:0:0:0:
464,160,36404,1,8,0:0:0:0:
464,32,36741,1,2,0:0:0:0:
464,160,37078,1,8,0:0:0:0:
464,32,37415,1,2,0:0:0:0:
464,160,37752,1,8,0:0:0:0:
464,32,38089,1,2,0:0:0:0:
464,32,38173,1,2,0:0:0:0:
464,32,38258,1,2,0:0:0:0:
464,32,38342,1,2,0:0:0:0:
464,32,38426,1,8,0:0:0:0:
464,32,38763,1,2,0:0:0:0:
464,32,38847,1,2,0:0:0:0:
464,32,38932,1,2,0:0:0:0:
464,32,39016,1,2,0:0:0:0:
464,32,39100,1,8,0:0:0:0:
464,96,39437,1,4,0:0:0:0:
464,32,39774,1,2,0:0:0:0:
464,32,39943,1,2,0:0:0:0:
464,32,40111,1,8,0:0:0:0:
464,32,40280,1,2,0:0:0:0:
464,32,40617,1,2,0:0:0:0:
464,32,40786,1,2,0:0:0:0:
464,32,40954,1,8,0:0:0:0:
464,32,41123,1,2,0:0:0:0:
464,32,41291,1,2,0:0:0:0:
464,32,41460,1,8,0:0:0:0:
464,32,41544,1,8,0:0:0:0:
464,32,41628,1,2,0:0:0:0:
464,32,41797,1,8,0:0:0:0:
464,32,41965,1,2,0:0:0:0:
368,96,42134,1,4,0:0:0:0:
464,32,42471,1,2,0:0:0:0:
464,32,42640,1,2,0:0:0:0:
464,160,42808,1,8,0:0:0:0:
464,160,42892,1,8,0:0:0:0:
464,32,42977,1,2,0:0:0:0:
464,32,43314,1,2,0:0:0:0:
464,160,43651,1,8,0:0:0:0:
464,32,43819,1,2,0:0:0:0:
464,32,43988,1,2,0:0:0:0:
464,32,44156,1,2,0:0:0:0:
464,32,44325,1,2,0:0:0:0:
464,32,44409,1,2,0:0:0:0:
464,160,44493,1,12,0:0:0:0:
464,32,44662,1,2,0:0:0:0:
464,32,44831,1,6,0:0:0:0:
