osu file format v14

[General]
AudioFilename: audio.mp3
AudioLeadIn: 0
PreviewTime: 56939
Countdown: 0
SampleSet: Normal
StackLeniency: 0.2
Mode: 3
LetterboxInBreaks: 0
SpecialStyle: 0
WidescreenStoryboard: 1

[Editor]
Bookmarks: 42659
DistanceSpacing: 0.9
BeatDivisor: 4
GridSize: 8
TimelineZoom: 1.9

[Metadata]
Title:We cannot get out of here forever
TitleUnicode:We cannot get out of here forever
Artist:Foreground Eclipse
ArtistUnicode:Foreground Eclipse
Creator:Reus
Version:True Administrator
Source:東方神霊廟 ~ Ten Desires.
Tags:touhou shinreibyou ゆよゆっぺ めらみ てと seated with liquor draw the emotional comiket 83 toyosatomimi no miko shotoku legend
BeatmapID:1260085
BeatmapSetID:595839

[Difficulty]
HPDrainRate:8
CircleSize:4
OverallDifficulty:8
ApproachRate:5
SliderMultiplier:1.4
SliderTickRate:1

[Events]
//Background and Video events
0,0,"730be8db-2366-4fde-ad23-fc6b0cd29d26.png",0,0
//Break Periods
//Storyboard Layer 0 (Background)
//Storyboard Layer 1 (Fail)
//Storyboard Layer 2 (Pass)
//Storyboard Layer 3 (Foreground)
//Storyboard Sound Samples

[TimingPoints]
253,333.333333333333,4,1,0,50,1,0

[HitObjects]
64,192,1586,5,0,0:0:0:0:
192,192,1586,1,0,0:0:0:0:
64,192,1919,1,0,0:0:0:0:
192,192,1919,1,0,0:0:0:0:
320,192,2252,1,0,0:0:0:0:
448,192,2252,1,0,0:0:0:0:
320,192,2586,1,0,0:0:0:0:
448,192,2586,1,0,0:0:0:0:
64,192,2919,1,0,0:0:0:0:
192,192,2919,1,0,0:0:0:0:
320,192,2919,1,0,0:0:0:0:
448,192,2919,1,0,0:0:0:0:
192,192,3752,1,0,0:0:0:0:
448,192,3752,1,0,0:0:0:0:
320,192,3836,1,0,0:0:0:0:
64,192,3919,1,0,0:0:0:0:
448,192,3919,1,0,0:0:0:0:
192,192,4086,1,0,0:0:0:0:
320,192,4086,1,0,0:0:0:0:
64,192,4252,1,0,0:0:0:0:
320,192,4252,1,0,0:0:0:0:
448,192,4419,1,0,0:0:0:0:
192,192,4419,1,0,0:0:0:0:
64,192,4586,1,0,0:0:0:0:
192,192,4586,1,0,0:0:0:0:
320,192,4586,1,0,0:0:0:0:
320,192,4752,1,0,0:0:0:0:
64,192,4752,1,0,0:0:0:0:
192,192,4919,1,0,0:0:0:0:
64,192,5086,1,0,0:0:0:0:
320,192,5086,1,0,0:0:0:0:
192,192,5169,1,0,0:0:0:0:
64,192,5252,1,0,0:0:0:0:
320,192,5252,1,0,0:0:0:0:
448,192,5252,1,0,0:0:0:0:
320,192,5419,1,0,0:0:0:0:
64,192,5419,1,0,0:0:0:0:
448,192,5586,1,0,0:0:0:0:
192,192,5752,1,0,0:0:0:0:
64,192,5919,1,0,0:0:0:0:
320,192,5919,1,0,0:0:0:0:
448,192,5919,1,0,0:0:0:0:
320,192,6086,1,0,0:0:0:0:
64,192,6252,1,0,0:0:0:0:
448,192,6252,1,0,0:0:0:0:
448,192,6419,1,0,0:0:0:0:
320,192,6419,1,0,0:0:0:0:
192,192,6502,1,0,0:0:0:0:
448,192,6586,1,0,0:0:0:0:
64,192,6586,1,0,0:0:0:0:
320,192,6586,1,0,0:0:0:0:
192,192,6752,1,0,0:0:0:0:
320,192,6919,1,0,0:0:0:0:
64,192,6919,1,0,0:0:0:0:
448,192,7086,1,0,0:0:0:0:
192,192,7086,1,0,0:0:0:0:
320,192,7252,1,0,0:0:0:0:
64,192,7252,1,0,0:0:0:0:
448,192,7252,1,0,0:0:0:0:
64,192,7419,1,0,0:0:0:0:
448,192,7419,1,0,0:0:0:0:
320,192,7586,1,0,0:0:0:0:
192,192,7752,1,0,0:0:0:0:
64,192,7752,1,0,0:0:0:0:
320,192,7836,1,0,0:0:0:0:
192,192,7919,1,0,0:0:0:0:
64,192,7919,1,0,0:0:0:0:
448,192,7919,1,0,0:0:0:0:
320,192,8086,1,0,0:0:0:0:
448,192,8086,1,0,0:0:0:0:
192,192,8252,1,0,0:0:0:0:
448,192,8419,1,0,0:0:0:0:
192,192,8586,1,0,0:0:0:0:
64,192,8586,1,0,0:0:0:0:
320,192,8586,1,0,0:0:0:0:
320,192,8752,1,0,0:0:0:0:
64,192,8919,1,0,0:0:0:0:
192,192,8919,1,0,0:0:0:0:
320,192,9086,1,0,0:0:0:0:
448,192,9086,1,0,0:0:0:0:
192,192,9169,1,0,0:0:0:0:
448,192,9252,1,0,0:0:0:0:
320,192,9252,1,0,0:0:0:0:
64,192,9252,1,0,0:0:0:0:
192,192,9336,1,0,0:0:0:0:
320,192,9419,1,0,0:0:0:0:
192,192,9502,1,0,0:0:0:0:
448,192,9586,1,0,0:0:0:0:
320,192,9586,1,0,0:0:0:0:
64,192,9586,1,0,0:0:0:0:
64,192,9752,128,0,9919:0:0:0:0:
448,192,9919,1,0,0:0:0:0:
320,192,9919,1,0,0:0:0:0:
192,192,9919,1,0,0:0:0:0:
320,192,10086,128,0,10252:0:0:0:0:
64,192,10252,1,0,0:0:0:0:
448,192,10252,1,0,0:0:0:0:
192,192,10419,128,0,10586:0:0:0:0:
448,192,10586,1,0,0:0:0:0:
320,192,10586,1,0,0:0:0:0:
64,192,10586,1,0,0:0:0:0:
448,192,10752,128,0,10919:0:0:0:0:
320,192,10919,1,0,0:0:0:0:
64,192,10919,1,0,0:0:0:0:
64,192,11086,128,0,11252:0:0:0:0:
448,192,11252,1,0,0:0:0:0:
320,192,11252,1,0,0:0:0:0:
192,192,11252,1,0,0:0:0:0:
320,192,11419,128,0,11586:0:0:0:0:
448,192,11586,1,0,0:0:0:0:
64,192,11586,1,0,0:0:0:0:
192,192,11752,128,0,11919:0:0:0:0:
448,192,11919,1,0,0:0:0:0:
64,192,11919,1,0,0:0:0:0:
320,192,11919,1,0,0:0:0:0:
448,192,12086,128,0,12252:0:0:0:0:
64,192,12252,1,0,0:0:0:0:
192,192,12252,1,0,0:0:0:0:
64,192,12419,128,0,12586:0:0:0:0:
320,192,12586,1,0,0:0:0:0:
192,192,12586,1,0,0:0:0:0:
448,192,12586,1,0,0:0:0:0:
320,192,12752,128,0,12919:0:0:0:0:
192,192,12919,1,0,0:0:0:0:
448,192,12919,1,0,0:0:0:0:
192,192,13086,128,0,13252:0:0:0:0:
320,192,13252,1,0,0:0:0:0:
64,192,13252,1,0,0:0:0:0:
448,192,13252,1,0,0:0:0:0:
448,192,13419,128,0,13586:0:0:0:0:
64,192,13586,1,0,0:0:0:0:
320,192,13586,1,0,0:0:0:0:
64,192,13752,128,0,13919:0:0:0:0:
192,192,13919,1,0,0:0:0:0:
320,192,13919,1,0,0:0:0:0:
448,192,13919,1,0,0:0:0:0:
192,192,14086,128,0,14252:0:0:0:0:
448,192,14252,1,0,0:0:0:0:
320,192,14252,1,0,0:0:0:0:
192,192,14336,1,0,0:0:0:0:
64,192,14336,1,0,0:0:0:0:
320,192,14419,1,0,0:0:0:0:
448,192,14419,1,0,0:0:0:0:
64,192,14502,1,0,0:0:0:0:
192,192,14502,1,0,0:0:0:0:
320,192,14586,1,0,0:0:0:0:
448,192,14586,1,0,0:0:0:0:
64,192,14669,1,0,0:0:0:0:
192,192,14669,1,0,0:0:0:0:
320,192,14752,1,0,0:0:0:0:
448,192,14752,1,0,0:0:0:0:
64,192,14836,1,0,0:0:0:0:
192,192,14836,1,0,0:0:0:0:
448,192,14919,1,0,0:0:0:0:
320,192,15002,1,0,0:0:0:0:
192,192,15086,1,0,0:0:0:0:
320,192,15169,1,0,0:0:0:0:
64,192,15252,1,0,0:0:0:0:
448,192,15252,1,0,0:0:0:0:
192,192,15336,1,0,0:0:0:0:
320,192,15419,1,0,0:0:0:0:
448,192,15502,1,0,0:0:0:0:
320,192,15586,1,0,0:0:0:0:
192,192,15669,1,0,0:0:0:0:
64,192,15752,1,0,0:0:0:0:
192,192,15836,1,0,0:0:0:0:
448,192,15919,1,0,0:0:0:0:
320,192,15919,1,0,0:0:0:0:
192,192,16002,1,0,0:0:0:0:
64,192,16086,1,0,0:0:0:0:
192,192,16169,1,0,0:0:0:0:
320,192,16252,1,0,0:0:0:0:
448,192,16336,1,0,0:0:0:0:
320,192,16419,1,0,0:0:0:0:
192,192,16502,1,0,0:0:0:0:
64,192,16586,1,0,0:0:0:0:
448,192,16586,1,0,0:0:0:0:
320,192,16669,1,0,0:0:0:0:
192,192,16752,1,0,0:0:0:0:
64,192,16836,1,0,0:0:0:0:
192,192,16919,1,0,0:0:0:0:
320,192,17002,1,0,0:0:0:0:
448,192,17086,1,0,0:0:0:0:
320,192,17169,1,0,0:0:0:0:
64,192,17252,1,0,0:0:0:0:
192,192,17252,1,0,0:0:0:0:
320,192,17336,1,0,0:0:0:0:
192,192,17419,1,0,0:0:0:0:
64,192,17502,1,0,0:0:0:0:
192,192,17586,1,0,0:0:0:0:
320,192,17669,1,0,0:0:0:0:
448,192,17752,1,0,0:0:0:0:
320,192,17836,1,0,0:0:0:0:
64,192,17919,1,0,0:0:0:0:
448,192,17919,1,0,0:0:0:0:
192,192,18002,1,0,0:0:0:0:
320,192,18086,1,0,0:0:0:0:
192,192,18169,1,0,0:0:0:0:
64,192,18252,1,0,0:0:0:0:
192,192,18336,1,0,0:0:0:0:
320,192,18419,1,0,0:0:0:0:
448,192,18502,1,0,0:0:0:0:
192,192,18586,1,0,0:0:0:0:
320,192,18586,1,0,0:0:0:0:
64,192,18669,1,0,0:0:0:0:
192,192,18752,1,0,0:0:0:0:
320,192,18836,1,0,0:0:0:0:
448,192,18919,1,0,0:0:0:0:
320,192,19002,1,0,0:0:0:0:
192,192,19086,1,0,0:0:0:0:
320,192,19169,1,0,0:0:0:0:
448,192,19252,1,0,0:0:0:0:
64,192,19252,1,0,0:0:0:0:
192,192,19336,1,0,0:0:0:0:
320,192,19419,1,0,0:0:0:0:
192,192,19502,1,0,0:0:0:0:
64,192,19586,1,0,0:0:0:0:
448,192,19586,1,0,0:0:0:0:
192,192,19669,1,0,0:0:0:0:
320,192,19752,1,0,0:0:0:0:
448,192,19836,1,0,0:0:0:0:
192,192,19919,1,0,0:0:0:0:
64,192,19919,1,0,0:0:0:0:
448,192,20002,1,0,0:0:0:0:
320,192,20002,1,0,0:0:0:0:
192,192,20086,1,0,0:0:0:0:
64,192,20086,1,0,0:0:0:0:
320,192,20169,1,0,0:0:0:0:
448,192,20169,1,0,0:0:0:0:
64,192,20252,1,0,0:0:0:0:
192,192,20252,1,0,0:0:0:0:
448,192,20419,128,0,20586:0:0:0:0:
64,192,20586,1,0,0:0:0:0:
320,192,20586,1,0,0:0:0:0:
192,192,20586,1,0,0:0:0:0:
192,192,20752,128,0,20919:0:0:0:0:
64,192,20919,1,0,0:0:0:0:
320,192,20919,1,0,0:0:0:0:
320,192,21086,128,0,21252:0:0:0:0:
64,192,21252,1,0,0:0:0:0:
192,192,21252,1,0,0:0:0:0:
448,192,21252,1,0,0:0:0:0:
64,192,21419,128,0,21586:0:0:0:0:
192,192,21586,1,0,0:0:0:0:
448,192,21586,1,0,0:0:0:0:
448,192,21752,128,0,21919:0:0:0:0:
192,192,21919,1,0,0:0:0:0:
64,192,21919,1,0,0:0:0:0:
320,192,21919,1,0,0:0:0:0:
192,192,22086,128,0,22252:0:0:0:0:
320,192,22252,1,0,0:0:0:0:
448,192,22252,1,0,0:0:0:0:
320,192,22419,128,0,22586:0:0:0:0:
192,192,22586,1,0,0:0:0:0:
64,192,22586,1,0,0:0:0:0:
448,192,22586,1,0,0:0:0:0:
64,192,22752,128,0,22919:0:0:0:0:
320,192,22919,1,0,0:0:0:0:
448,192,22919,1,0,0:0:0:0:
448,192,23086,128,0,23252:0:0:0:0:
320,192,23252,1,0,0:0:0:0:
64,192,23252,1,0,0:0:0:0:
192,192,23252,1,0,0:0:0:0:
192,192,23419,128,0,23586:0:0:0:0:
320,192,23586,1,0,0:0:0:0:
448,192,23586,1,0,0:0:0:0:
320,192,23752,128,0,23919:0:0:0:0:
64,192,23919,1,0,0:0:0:0:
192,192,23919,1,0,0:0:0:0:
448,192,23919,1,0,0:0:0:0:
64,192,24086,128,0,24252:0:0:0:0:
320,192,24252,1,0,0:0:0:0:
448,192,24252,1,0,0:0:0:0:
448,192,24419,128,0,24586:0:0:0:0:
192,192,24586,1,0,0:0:0:0:
320,192,24586,1,0,0:0:0:0:
64,192,24586,1,0,0:0:0:0:
192,192,24752,1,0,0:0:0:0:
320,192,24836,1,0,0:0:0:0:
192,192,24919,1,0,0:0:0:0:
448,192,24919,1,0,0:0:0:0:
320,192,25002,1,0,0:0:0:0:
192,192,25086,1,0,0:0:0:0:
64,192,25169,1,0,0:0:0:0:
448,192,25252,1,0,0:0:0:0:
192,192,25252,1,0,0:0:0:0:
64,192,25336,1,0,0:0:0:0:
320,192,25336,1,0,0:0:0:0:
448,192,25419,1,0,0:0:0:0:
192,192,25419,1,0,0:0:0:0:
64,192,25502,1,0,0:0:0:0:
320,192,25502,1,0,0:0:0:0:
192,192,25586,1,0,0:0:0:0:
448,192,25586,1,0,0:0:0:0:
192,192,25752,1,0,0:0:0:0:
320,192,25752,1,0,0:0:0:0:
64,192,26086,1,0,0:0:0:0:
448,192,26086,1,0,0:0:0:0:
192,192,26169,1,0,0:0:0:0:
320,192,26252,1,0,0:0:0:0:
448,192,26252,1,0,0:0:0:0:
64,192,26252,1,0,0:0:0:0:
192,192,26419,1,0,0:0:0:0:
320,192,26419,1,0,0:0:0:0:
192,192,26586,1,0,0:0:0:0:
320,192,26586,1,0,0:0:0:0:
448,192,26919,1,0,0:0:0:0:
320,192,26919,1,0,0:0:0:0:
64,192,26919,1,0,0:0:0:0:
448,192,27086,1,0,0:0:0:0:
64,192,27086,1,0,0:0:0:0:
192,192,27086,1,0,0:0:0:0:
192,192,27419,1,0,0:0:0:0:
64,192,27419,1,0,0:0:0:0:
320,192,27502,1,0,0:0:0:0:
64,192,27586,1,0,0:0:0:0:
192,192,27586,1,0,0:0:0:0:
448,192,27586,1,0,0:0:0:0:
192,192,27752,1,0,0:0:0:0:
320,192,27752,1,0,0:0:0:0:
448,192,27919,1,0,0:0:0:0:
320,192,27919,1,0,0:0:0:0:
64,192,27919,1,0,0:0:0:0:
320,192,28252,1,0,0:0:0:0:
448,192,28252,1,0,0:0:0:0:
192,192,28252,1,0,0:0:0:0:
64,192,28419,1,0,0:0:0:0:
320,192,28419,1,0,0:0:0:0:
448,192,28419,1,0,0:0:0:0:
320,192,28586,1,0,0:0:0:0:
64,192,28752,1,0,0:0:0:0:
448,192,28752,1,0,0:0:0:0:
320,192,28836,1,0,0:0:0:0:
192,192,28919,1,0,0:0:0:0:
64,192,28919,1,0,0:0:0:0:
448,192,28919,1,0,0:0:0:0:
448,192,29086,1,0,0:0:0:0:
192,192,29086,1,0,0:0:0:0:
320,192,29252,1,0,0:0:0:0:
192,192,29252,1,0,0:0:0:0:
320,192,29586,1,0,0:0:0:0:
64,192,29586,1,0,0:0:0:0:
320,192,29752,1,0,0:0:0:0:
448,192,29752,1,0,0:0:0:0:
64,192,30086,1,0,0:0:0:0:
448,192,30086,1,0,0:0:0:0:
192,192,30169,1,0,0:0:0:0:
320,192,30252,1,0,0:0:0:0:
448,192,30252,1,0,0:0:0:0:
64,192,30252,1,0,0:0:0:0:
192,192,30419,1,0,0:0:0:0:
320,192,30419,1,0,0:0:0:0:
64,192,30586,1,0,0:0:0:0:
448,192,30586,1,0,0:0:0:0:
320,192,30586,1,0,0:0:0:0:
64,192,30919,1,0,0:0:0:0:
320,192,30919,1,0,0:0:0:0:
448,192,30919,1,0,0:0:0:0:
192,192,31086,1,0,0:0:0:0:
320,192,31086,1,0,0:0:0:0:
448,192,31419,1,0,0:0:0:0:
320,192,31419,1,0,0:0:0:0:
192,192,31502,1,0,0:0:0:0:
64,192,31586,1,0,0:0:0:0:
448,192,31586,1,0,0:0:0:0:
320,192,31586,1,0,0:0:0:0:
192,192,31752,1,0,0:0:0:0:
320,192,31752,1,0,0:0:0:0:
64,192,31919,1,0,0:0:0:0:
448,192,31919,1,0,0:0:0:0:
448,192,32252,1,0,0:0:0:0:
192,192,32252,1,0,0:0:0:0:
64,192,32419,1,0,0:0:0:0:
320,192,32419,1,0,0:0:0:0:
320,192,32752,1,0,0:0:0:0:
64,192,32919,1,0,0:0:0:0:
192,192,32919,1,0,0:0:0:0:
448,192,32919,1,0,0:0:0:0:
192,192,33086,1,0,0:0:0:0:
64,192,33252,1,0,0:0:0:0:
320,192,33252,1,0,0:0:0:0:
448,192,33252,1,0,0:0:0:0:
448,192,33586,1,0,0:0:0:0:
64,192,33586,1,0,0:0:0:0:
192,192,33586,1,0,0:0:0:0:
64,192,33752,1,0,0:0:0:0:
192,192,33752,1,0,0:0:0:0:
448,192,33752,1,0,0:0:0:0:
64,192,34086,1,0,0:0:0:0:
320,192,34086,1,0,0:0:0:0:
192,192,34169,1,0,0:0:0:0:
448,192,34252,1,0,0:0:0:0:
320,192,34252,1,0,0:0:0:0:
64,192,34252,1,0,0:0:0:0:
192,192,34419,1,0,0:0:0:0:
320,192,34419,1,0,0:0:0:0:
64,192,34586,1,0,0:0:0:0:
192,192,34586,1,0,0:0:0:0:
320,192,34586,1,0,0:0:0:0:
448,192,34919,128,0,35086:0:0:0:0:
320,192,34919,128,0,35086:0:0:0:0:
192,192,35086,128,0,35252:0:0:0:0:
64,192,35086,128,0,35252:0:0:0:0:
320,192,35252,128,0,35419:0:0:0:0:
448,192,35252,128,0,35419:0:0:0:0:
64,192,35419,128,0,35586:0:0:0:0:
192,192,35419,128,0,35586:0:0:0:0:
448,192,35586,1,0,0:0:0:0:
320,192,35586,1,0,0:0:0:0:
64,192,35669,1,0,0:0:0:0:
192,192,35669,1,0,0:0:0:0:
320,192,35752,1,0,0:0:0:0:
448,192,35752,1,0,0:0:0:0:
64,192,35836,1,0,0:0:0:0:
192,192,35836,1,0,0:0:0:0:
320,192,35919,128,0,36252:0:0:0:0:
448,192,35919,128,0,36252:0:0:0:0:
64,192,36252,1,0,0:0:0:0:
192,192,36252,1,0,0:0:0:0:
64,192,36419,1,0,0:0:0:0:
320,192,36419,128,0,36586:0:0:0:0:
192,192,36586,1,0,0:0:0:0:
448,192,36586,1,0,0:0:0:0:
64,192,36586,128,0,37586:0:0:0:0:
320,192,36752,1,0,0:0:0:0:
448,192,36919,1,0,0:0:0:0:
192,192,36919,1,0,0:0:0:0:
320,192,37086,1,0,0:0:0:0:
192,192,37252,1,0,0:0:0:0:
448,192,37252,1,0,0:0:0:0:
320,192,37252,1,0,0:0:0:0:
320,192,37419,1,0,0:0:0:0:
320,192,37586,128,0,38919:0:0:0:0:
192,192,37586,1,0,0:0:0:0:
64,192,37752,1,0,0:0:0:0:
64,192,37919,1,0,0:0:0:0:
192,192,37919,1,0,0:0:0:0:
448,192,37919,1,0,0:0:0:0:
192,192,38086,1,0,0:0:0:0:
64,192,38252,1,0,0:0:0:0:
192,192,38252,1,0,0:0:0:0:
448,192,38419,1,0,0:0:0:0:
64,192,38586,1,0,0:0:0:0:
192,192,38586,1,0,0:0:0:0:
448,192,38586,1,0,0:0:0:0:
192,192,38752,1,0,0:0:0:0:
64,192,38919,128,0,39252:0:0:0:0:
448,192,38919,1,0,0:0:0:0:
320,192,39086,1,0,0:0:0:0:
192,192,39252,1,0,0:0:0:0:
320,192,39252,1,0,0:0:0:0:
448,192,39252,1,0,0:0:0:0:
64,192,39419,1,0,0:0:0:0:
192,192,39419,1,0,0:0:0:0:
320,192,39502,1,0,0:0:0:0:
448,192,39502,1,0,0:0:0:0:
64,192,39586,1,0,0:0:0:0:
448,192,39586,1,0,0:0:0:0:
192,192,39586,1,0,0:0:0:0:
320,192,39752,1,0,0:0:0:0:
448,192,39919,1,0,0:0:0:0:
192,192,39919,128,0,40086:0:0:0:0:
320,192,39919,1,0,0:0:0:0:
448,192,40086,1,0,0:0:0:0:
192,192,40252,1,0,0:0:0:0:
320,192,40252,128,0,40419:0:0:0:0:
192,192,40419,1,0,0:0:0:0:
64,192,40586,1,0,0:0:0:0:
320,192,40586,128,0,40752:0:0:0:0:
192,192,40586,1,0,0:0:0:0:
448,192,40752,1,0,0:0:0:0:
192,192,40919,1,0,0:0:0:0:
320,192,40919,128,0,41086:0:0:0:0:
192,192,41086,1,0,0:0:0:0:
320,192,41252,1,0,0:0:0:0:
448,192,41252,1,0,0:0:0:0:
192,192,41252,128,0,41419:0:0:0:0:
320,192,41419,1,0,0:0:0:0:
64,192,41586,1,0,0:0:0:0:
192,192,41586,1,0,0:0:0:0:
448,192,41586,1,0,0:0:0:0:
320,192,41752,128,0,42086:0:0:0:0:
64,192,41919,1,0,0:0:0:0:
192,192,41919,1,0,0:0:0:0:
448,192,41919,1,0,0:0:0:0:
448,192,42086,128,0,42419:0:0:0:0:
192,192,42252,1,0,0:0:0:0:
320,192,42252,1,0,0:0:0:0:
64,192,42419,128,0,42752:0:0:0:0:
192,192,42586,1,0,0:0:0:0:
320,192,42586,1,0,0:0:0:0:
448,192,42586,1,0,0:0:0:0:
192,192,42752,128,0,43086:0:0:0:0:
320,192,42919,1,0,0:0:0:0:
448,192,42919,1,0,0:0:0:0:
320,192,43086,128,0,43419:0:0:0:0:
64,192,43252,1,0,0:0:0:0:
192,192,43252,1,0,0:0:0:0:
448,192,43252,1,0,0:0:0:0:
448,192,43419,128,0,43752:0:0:0:0:
192,192,43586,1,0,0:0:0:0:
320,192,43586,1,0,0:0:0:0:
192,192,43752,128,0,44086:0:0:0:0:
64,192,43919,1,0,0:0:0:0:
320,192,43919,1,0,0:0:0:0:
448,192,43919,1,0,0:0:0:0:
64,192,44252,128,0,44502:0:0:0:0:
448,192,44252,128,0,44502:0:0:0:0:
320,192,44586,128,0,44836:0:0:0:0:
192,192,44586,128,0,44836:0:0:0:0:
448,192,44586,128,0,44836:0:0:0:0:
448,192,44919,128,0,45002:0:0:0:0:
64,192,44919,128,0,45002:0:0:0:0:
64,192,45086,1,0,0:0:0:0:
448,192,45086,1,0,0:0:0:0:
192,192,45252,1,0,0:0:0:0:
320,192,45252,1,0,0:0:0:0:
448,192,45252,1,0,0:0:0:0:
64,192,45419,1,0,0:0:0:0:
320,192,45419,1,0,0:0:0:0:
192,192,45752,1,0,0:0:0:0:
320,192,45752,1,0,0:0:0:0:
320,192,45919,1,0,0:0:0:0:
448,192,45919,1,0,0:0:0:0:
192,192,46002,1,0,0:0:0:0:
64,192,46002,1,0,0:0:0:0:
448,192,46086,1,0,0:0:0:0:
320,192,46086,1,0,0:0:0:0:
192,192,46169,1,0,0:0:0:0:
64,192,46169,1,0,0:0:0:0:
448,192,46252,1,0,0:0:0:0:
320,192,46252,1,0,0:0:0:0:
192,192,46336,1,0,0:0:0:0:
64,192,46336,1,0,0:0:0:0:
320,192,46419,1,0,0:0:0:0:
448,192,46419,1,0,0:0:0:0:
192,192,46502,1,0,0:0:0:0:
64,192,46502,1,0,0:0:0:0:
192,192,46586,1,0,0:0:0:0:
64,192,46586,1,0,0:0:0:0:
192,192,46669,1,0,0:0:0:0:
64,192,46669,1,0,0:0:0:0:
448,192,46752,1,0,0:0:0:0:
320,192,46752,1,0,0:0:0:0:
448,192,46836,1,0,0:0:0:0:
320,192,46836,1,0,0:0:0:0:
320,192,46919,1,0,0:0:0:0:
448,192,46919,1,0,0:0:0:0:
448,192,47086,1,0,0:0:0:0:
192,192,47252,1,0,0:0:0:0:
320,192,47252,1,0,0:0:0:0:
64,192,47252,1,0,0:0:0:0:
64,192,47419,1,0,0:0:0:0:
320,192,47586,1,0,0:0:0:0:
64,192,47586,1,0,0:0:0:0:
192,192,47752,1,0,0:0:0:0:
64,192,47919,1,0,0:0:0:0:
448,192,47919,1,0,0:0:0:0:
320,192,47919,1,0,0:0:0:0:
192,192,48086,1,0,0:0:0:0:
320,192,48252,1,0,0:0:0:0:
448,192,48252,1,0,0:0:0:0:
448,192,48419,1,0,0:0:0:0:
64,192,48586,1,0,0:0:0:0:
192,192,48586,1,0,0:0:0:0:
448,192,48586,1,0,0:0:0:0:
320,192,48752,1,0,0:0:0:0:
64,192,48919,1,0,0:0:0:0:
192,192,48919,1,0,0:0:0:0:
192,192,49086,1,0,0:0:0:0:
320,192,49252,1,0,0:0:0:0:
448,192,49252,1,0,0:0:0:0:
64,192,49336,1,0,0:0:0:0:
192,192,49336,1,0,0:0:0:0:
320,192,49419,1,0,0:0:0:0:
448,192,49419,1,0,0:0:0:0:
64,192,49502,1,0,0:0:0:0:
192,192,49502,1,0,0:0:0:0:
448,192,49586,1,0,0:0:0:0:
320,192,49586,1,0,0:0:0:0:
64,192,49586,1,0,0:0:0:0:
64,192,49808,1,0,0:0:0:0:
320,192,49808,1,0,0:0:0:0:
448,192,49808,1,0,0:0:0:0:
192,192,50030,1,0,0:0:0:0:
320,192,50030,1,0,0:0:0:0:
320,192,50252,1,0,0:0:0:0:
64,192,50252,1,0,0:0:0:0:
448,192,50252,1,0,0:0:0:0:
64,192,50475,1,0,0:0:0:0:
448,192,50475,1,0,0:0:0:0:
192,192,50697,1,0,0:0:0:0:
448,192,50697,1,0,0:0:0:0:
448,192,50919,1,0,0:0:0:0:
192,192,50919,1,0,0:0:0:0:
64,192,51141,1,0,0:0:0:0:
192,192,51141,1,0,0:0:0:0:
448,192,51141,1,0,0:0:0:0:
64,192,51364,1,0,0:0:0:0:
192,192,51364,1,0,0:0:0:0:
320,192,51364,1,0,0:0:0:0:
320,192,51586,1,0,0:0:0:0:
448,192,51586,1,0,0:0:0:0:
64,192,51669,1,0,0:0:0:0:
192,192,51669,1,0,0:0:0:0:
320,192,51752,1,0,0:0:0:0:
448,192,51752,1,0,0:0:0:0:
192,192,51836,1,0,0:0:0:0:
64,192,51836,1,0,0:0:0:0:
448,192,51919,1,0,0:0:0:0:
320,192,51919,1,0,0:0:0:0:
64,192,52086,1,0,0:0:0:0:
192,192,52086,1,0,0:0:0:0:
448,192,52086,1,0,0:0:0:0:
64,192,52252,128,0,52586:0:0:0:0:
192,192,52252,128,0,52586:0:0:0:0:
448,192,52252,1,0,0:0:0:0:
320,192,52586,1,0,0:0:0:0:
448,192,52586,1,0,0:0:0:0:
64,192,52752,128,0,52919:0:0:0:0:
192,192,52919,1,0,0:0:0:0:
320,192,52919,1,0,0:0:0:0:
192,192,53086,128,0,53252:0:0:0:0:
448,192,53252,1,0,0:0:0:0:
320,192,53252,1,0,0:0:0:0:
64,192,53419,1,0,0:0:0:0:
192,192,53419,1,0,0:0:0:0:
448,192,53419,1,0,0:0:0:0:
448,192,53586,128,0,53919:0:0:0:0:
320,192,53586,128,0,53919:0:0:0:0:
64,192,53586,1,0,0:0:0:0:
64,192,53919,1,0,0:0:0:0:
192,192,53919,1,0,0:0:0:0:
448,192,54086,128,0,54252:0:0:0:0:
192,192,54252,1,0,0:0:0:0:
320,192,54252,1,0,0:0:0:0:
192,192,54419,128,0,54586:0:0:0:0:
320,192,54586,1,0,0:0:0:0:
448,192,54586,1,0,0:0:0:0:
64,192,54752,1,0,0:0:0:0:
192,192,54752,1,0,0:0:0:0:
320,192,54752,1,0,0:0:0:0:
64,192,54919,128,0,55252:0:0:0:0:
448,192,54919,128,0,55252:0:0:0:0:
320,192,54919,1,0,0:0:0:0:
192,192,55252,1,0,0:0:0:0:
320,192,55252,1,0,0:0:0:0:
192,192,55419,128,0,55586:0:0:0:0:
320,192,55419,128,0,55586:0:0:0:0:
64,192,55586,1,0,0:0:0:0:
448,192,55586,1,0,0:0:0:0:
64,192,55752,128,0,55919:0:0:0:0:
448,192,55752,128,0,55919:0:0:0:0:
192,192,55919,1,0,0:0:0:0:
320,192,55919,1,0,0:0:0:0:
64,192,56086,1,0,0:0:0:0:
448,192,56086,1,0,0:0:0:0:
192,192,56086,1,0,0:0:0:0:
320,192,56169,1,0,0:0:0:0:
64,192,56252,1,0,0:0:0:0:
448,192,56252,1,0,0:0:0:0:
448,192,56419,1,0,0:0:0:0:
192,192,56502,1,0,0:0:0:0:
320,192,56502,1,0,0:0:0:0:
64,192,56586,1,0,0:0:0:0:
448,192,56752,1,0,0:0:0:0:
64,192,56752,1,0,0:0:0:0:
192,192,56836,1,0,0:0:0:0:
64,192,56919,1,0,0:0:0:0:
448,192,56919,1,0,0:0:0:0:
320,192,56919,1,0,0:0:0:0:
192,192,57086,1,0,0:0:0:0:
320,192,57086,1,0,0:0:0:0:
64,192,57252,1,0,0:0:0:0:
192,192,57252,1,0,0:0:0:0:
320,192,57252,1,0,0:0:0:0:
448,192,57252,1,0,0:0:0:0:
320,192,57586,1,0,0:0:0:0:
448,192,57586,1,0,0:0:0:0:
64,192,57752,1,0,0:0:0:0:
192,192,57752,1,0,0:0:0:0:
320,192,57919,1,0,0:0:0:0:
448,192,57919,1,0,0:0:0:0:
64,192,57919,1,0,0:0:0:0:
192,192,58086,1,0,0:0:0:0:
64,192,58252,1,0,0:0:0:0:
448,192,58252,1,0,0:0:0:0:
192,192,58419,1,0,0:0:0:0:
320,192,58586,1,0,0:0:0:0:
448,192,58586,1,0,0:0:0:0:
64,192,58586,1,0,0:0:0:0:
320,192,58752,1,0,0:0:0:0:
192,192,58919,1,0,0:0:0:0:
448,192,58919,1,0,0:0:0:0:
320,192,59086,1,0,0:0:0:0:
320,192,59252,1,0,0:0:0:0:
448,192,59252,1,0,0:0:0:0:
64,192,59252,1,0,0:0:0:0:
64,192,59419,1,0,0:0:0:0:
192,192,59586,1,0,0:0:0:0:
448,192,59586,1,0,0:0:0:0:
320,192,59752,1,0,0:0:0:0:
192,192,59919,1,0,0:0:0:0:
320,192,59919,1,0,0:0:0:0:
64,192,59919,1,0,0:0:0:0:
448,192,60086,1,0,0:0:0:0:
192,192,60252,1,0,0:0:0:0:
320,192,60252,1,0,0:0:0:0:
64,192,60419,1,0,0:0:0:0:
320,192,60586,1,0,0:0:0:0:
448,192,60586,1,0,0:0:0:0:
64,192,60586,1,0,0:0:0:0:
192,192,60752,1,0,0:0:0:0:
64,192,60919,1,0,0:0:0:0:
320,192,60919,1,0,0:0:0:0:
192,192,61086,1,0,0:0:0:0:
448,192,61252,1,0,0:0:0:0:
320,192,61252,1,0,0:0:0:0:
64,192,61252,1,0,0:0:0:0:
64,192,61419,1,0,0:0:0:0:
192,192,61586,1,0,0:0:0:0:
320,192,61586,1,0,0:0:0:0:
448,192,61752,1,0,0:0:0:0:
192,192,61919,1,0,0:0:0:0:
320,192,61919,1,0,0:0:0:0:
64,192,61919,1,0,0:0:0:0:
320,192,62086,1,0,0:0:0:0:
192,192,62252,1,0,0:0:0:0:
448,192,62252,1,0,0:0:0:0:
64,192,62419,1,0,0:0:0:0:
320,192,62586,1,0,0:0:0:0:
448,192,62586,1,0,0:0:0:0:
192,192,62586,1,0,0:0:0:0:
448,192,62752,1,0,0:0:0:0:
64,192,62919,1,0,0:0:0:0:
320,192,62919,1,0,0:0:0:0:
192,192,63086,1,0,0:0:0:0:
320,192,63252,1,0,0:0:0:0:
448,192,63252,1,0,0:0:0:0:
192,192,63252,1,0,0:0:0:0:
64,192,63419,1,0,0:0:0:0:
192,192,63586,1,0,0:0:0:0:
320,192,63586,1,0,0:0:0:0:
448,192,63752,1,0,0:0:0:0:
192,192,63919,1,0,0:0:0:0:
448,192,63919,1,0,0:0:0:0:
64,192,63919,1,0,0:0:0:0:
448,192,64086,1,0,0:0:0:0:
192,192,64252,1,0,0:0:0:0:
320,192,64252,1,0,0:0:0:0:
64,192,64419,1,0,0:0:0:0:
320,192,64586,1,0,0:0:0:0:
448,192,64586,1,0,0:0:0:0:
64,192,64586,1,0,0:0:0:0:
192,192,64752,1,0,0:0:0:0:
192,192,64919,1,0,0:0:0:0:
320,192,64919,1,0,0:0:0:0:
448,192,65086,1,0,0:0:0:0:
320,192,65252,1,0,0:0:0:0:
448,192,65252,1,0,0:0:0:0:
64,192,65252,1,0,0:0:0:0:
320,192,65419,1,0,0:0:0:0:
192,192,65586,1,0,0:0:0:0:
448,192,65586,1,0,0:0:0:0:
320,192,65752,1,0,0:0:0:0:
64,192,65919,1,0,0:0:0:0:
448,192,65919,1,0,0:0:0:0:
320,192,65919,1,0,0:0:0:0:
192,192,66086,1,0,0:0:0:0:
64,192,66252,1,0,0:0:0:0:
448,192,66252,1,0,0:0:0:0:
320,192,66419,1,0,0:0:0:0:
320,192,66586,1,0,0:0:0:0:
64,192,66586,1,0,0:0:0:0:
192,192,66586,1,0,0:0:0:0:
192,192,66752,1,0,0:0:0:0:
448,192,66919,1,0,0:0:0:0:
320,192,66919,1,0,0:0:0:0:
192,192,67002,1,0,0:0:0:0:
64,192,67002,1,0,0:0:0:0:
448,192,67086,1,0,0:0:0:0:
320,192,67086,1,0,0:0:0:0:
192,192,67169,1,0,0:0:0:0:
64,192,67169,1,0,0:0:0:0:
320,192,67252,1,0,0:0:0:0:
448,192,67252,1,0,0:0:0:0:
192,192,67336,1,0,0:0:0:0:
64,192,67336,1,0,0:0:0:0:
448,192,67419,1,0,0:0:0:0:
320,192,67419,1,0,0:0:0:0:
64,192,67502,1,0,0:0:0:0:
192,192,67502,1,0,0:0:0:0:
320,192,67586,1,0,0:0:0:0:
448,192,67586,1,0,0:0:0:0:
64,192,67669,1,0,0:0:0:0:
192,192,67669,1,0,0:0:0:0:
448,192,67752,1,0,0:0:0:0:
320,192,67752,1,0,0:0:0:0:
64,192,67836,1,0,0:0:0:0:
192,192,67836,1,0,0:0:0:0:
448,192,67919,1,0,0:0:0:0:
320,192,67919,1,0,0:0:0:0:
64,192,68002,1,0,0:0:0:0:
192,192,68002,1,0,0:0:0:0:
448,192,68086,1,0,0:0:0:0:
320,192,68086,1,0,0:0:0:0:
64,192,68169,1,0,0:0:0:0:
192,192,68169,1,0,0:0:0:0:
320,192,68252,1,0,0:0:0:0:
64,192,68252,1,0,0:0:0:0:
448,192,68252,1,0,0:0:0:0:
320,192,68419,1,0,0:0:0:0:
64,192,68586,1,0,0:0:0:0:
192,192,68586,1,0,0:0:0:0:
448,192,68586,1,0,0:0:0:0:
320,192,68752,1,0,0:0:0:0:
64,192,68919,1,0,0:0:0:0:
448,192,68919,1,0,0:0:0:0:
192,192,69086,1,0,0:0:0:0:
448,192,69086,1,0,0:0:0:0:
320,192,69252,1,0,0:0:0:0:
448,192,69252,1,0,0:0:0:0:
192,192,69252,1,0,0:0:0:0:
320,192,69419,1,0,0:0:0:0:
64,192,69586,1,0,0:0:0:0:
192,192,69586,1,0,0:0:0:0:
448,192,69669,1,0,0:0:0:0:
320,192,69669,1,0,0:0:0:0:
64,192,69752,1,0,0:0:0:0:
192,192,69752,1,0,0:0:0:0:
448,192,69836,1,0,0:0:0:0:
320,192,69836,1,0,0:0:0:0:
448,192,69919,1,0,0:0:0:0:
64,192,69919,1,0,0:0:0:0:
192,192,69919,1,0,0:0:0:0:
192,192,70086,1,0,0:0:0:0:
448,192,70252,1,0,0:0:0:0:
320,192,70252,1,0,0:0:0:0:
192,192,70336,1,0,0:0:0:0:
64,192,70336,1,0,0:0:0:0:
448,192,70419,1,0,0:0:0:0:
320,192,70419,1,0,0:0:0:0:
192,192,70502,1,0,0:0:0:0:
64,192,70502,1,0,0:0:0:0:
64,192,70586,1,0,0:0:0:0:
320,192,70586,1,0,0:0:0:0:
448,192,70586,1,0,0:0:0:0:
448,192,70752,1,0,0:0:0:0:
64,192,70919,1,0,0:0:0:0:
192,192,70919,1,0,0:0:0:0:
64,192,71086,1,0,0:0:0:0:
320,192,71086,1,0,0:0:0:0:
448,192,71252,1,0,0:0:0:0:
192,192,71252,1,0,0:0:0:0:
64,192,71252,1,0,0:0:0:0:
320,192,71419,1,0,0:0:0:0:
64,192,71586,1,0,0:0:0:0:
448,192,71586,1,0,0:0:0:0:
64,192,71752,1,0,0:0:0:0:
320,192,71752,1,0,0:0:0:0:
64,192,71919,1,0,0:0:0:0:
192,192,71919,1,0,0:0:0:0:
448,192,71919,1,0,0:0:0:0:
192,192,72086,1,0,0:0:0:0:
64,192,72252,1,0,0:0:0:0:
320,192,72252,1,0,0:0:0:0:
448,192,72252,1,0,0:0:0:0:
192,192,72252,1,0,0:0:0:0:
192,192,72419,1,0,0:0:0:0:
448,192,72419,1,0,0:0:0:0:
64,192,72586,1,0,0:0:0:0:
192,192,72586,1,0,0:0:0:0:
320,192,72586,1,0,0:0:0:0:
448,192,72586,1,0,0:0:0:0:
64,192,72752,1,0,0:0:0:0:
320,192,72752,1,0,0:0:0:0:
64,192,72919,1,0,0:0:0:0:
192,192,72919,1,0,0:0:0:0:
448,192,72919,1,0,0:0:0:0:
320,192,72919,1,0,0:0:0:0:
320,192,73086,1,0,0:0:0:0:
448,192,73086,1,0,0:0:0:0:
448,192,73252,1,0,0:0:0:0:
64,192,73252,1,0,0:0:0:0:
192,192,73252,1,0,0:0:0:0:
320,192,73252,1,0,0:0:0:0:
64,192,73419,1,0,0:0:0:0:
64,192,73586,128,0,73669:0:0:0:0:
320,192,73669,128,0,73752:0:0:0:0:
192,192,73752,128,0,73836:0:0:0:0:
448,192,73836,128,0,73919:0:0:0:0:
64,192,73919,128,0,74002:0:0:0:0:
192,192,74002,128,0,74086:0:0:0:0:
320,192,74086,128,0,74169:0:0:0:0:
448,192,74169,128,0,74252:0:0:0:0:
64,192,74252,1,0,0:0:0:0:
192,192,74252,1,0,0:0:0:0:
64,192,74419,1,0,0:0:0:0:
192,192,74419,1,0,0:0:0:0:
320,192,74419,1,0,0:0:0:0:
448,192,74752,1,0,0:0:0:0:
320,192,74752,1,0,0:0:0:0:
64,192,74836,1,0,0:0:0:0:
192,192,74836,1,0,0:0:0:0:
64,192,74919,1,0,0:0:0:0:
320,192,74919,1,0,0:0:0:0:
448,192,74919,1,0,0:0:0:0:
192,192,75086,1,0,0:0:0:0:
64,192,75252,1,0,0:0:0:0:
320,192,75252,1,0,0:0:0:0:
64,192,75419,1,0,0:0:0:0:
320,192,75419,1,0,0:0:0:0:
448,192,75419,1,0,0:0:0:0:
192,192,75586,1,0,0:0:0:0:
64,192,75752,1,0,0:0:0:0:
448,192,75752,1,0,0:0:0:0:
320,192,75752,1,0,0:0:0:0:
320,192,75919,1,0,0:0:0:0:
448,192,75919,1,0,0:0:0:0:
64,192,75919,1,0,0:0:0:0:
320,192,76086,1,0,0:0:0:0:
448,192,76252,1,0,0:0:0:0:
320,192,76336,1,0,0:0:0:0:
192,192,76419,1,0,0:0:0:0:
64,192,76502,1,0,0:0:0:0:
192,192,76586,1,0,0:0:0:0:
320,192,76669,1,0,0:0:0:0:
448,192,76752,1,0,0:0:0:0:
320,192,76836,1,0,0:0:0:0:
192,192,76919,1,0,0:0:0:0:
64,192,77002,1,0,0:0:0:0:
192,192,77086,1,0,0:0:0:0:
320,192,77169,1,0,0:0:0:0:
448,192,77252,1,0,0:0:0:0:
320,192,77336,1,0,0:0:0:0:
192,192,77419,1,0,0:0:0:0:
64,192,77502,1,0,0:0:0:0:
448,192,77586,1,0,0:0:0:0:
192,192,77586,1,0,0:0:0:0:
320,192,77586,1,0,0:0:0:0:
64,192,77669,1,0,0:0:0:0:
192,192,77752,1,0,0:0:0:0:
320,192,77836,1,0,0:0:0:0:
64,192,77919,1,0,0:0:0:0:
192,192,77919,1,0,0:0:0:0:
448,192,77919,1,0,0:0:0:0:
320,192,78002,1,0,0:0:0:0:
192,192,78086,1,0,0:0:0:0:
64,192,78169,1,0,0:0:0:0:
448,192,78252,1,0,0:0:0:0:
320,192,78252,1,0,0:0:0:0:
192,192,78252,1,0,0:0:0:0:
64,192,78336,1,0,0:0:0:0:
192,192,78419,1,0,0:0:0:0:
320,192,78502,1,0,0:0:0:0:
192,192,78586,1,0,0:0:0:0:
64,192,78586,1,0,0:0:0:0:
448,192,78586,1,0,0:0:0:0:
320,192,78669,1,0,0:0:0:0:
64,192,78752,1,0,0:0:0:0:
448,192,78752,1,0,0:0:0:0:
64,192,78919,128,0,79002:0:0:0:0:
320,192,78919,128,0,79002:0:0:0:0:
448,192,78919,128,0,79002:0:0:0:0:
64,192,79086,128,0,79252:0:0:0:0:
320,192,79086,128,0,79252:0:0:0:0:
448,192,79086,128,0,79252:0:0:0:0:
64,192,79419,1,0,0:0:0:0:
320,192,79419,1,0,0:0:0:0:
192,192,79502,1,0,0:0:0:0:
64,192,79586,1,0,0:0:0:0:
320,192,79586,1,0,0:0:0:0:
448,192,79586,1,0,0:0:0:0:
64,192,79752,1,0,0:0:0:0:
320,192,79752,1,0,0:0:0:0:
448,192,79752,1,0,0:0:0:0:
192,192,79919,1,0,0:0:0:0:
64,192,80086,1,0,0:0:0:0:
448,192,80086,1,0,0:0:0:0:
192,192,80086,1,0,0:0:0:0:
64,192,80252,128,0,80336:0:0:0:0:
192,192,80252,128,0,80336:0:0:0:0:
320,192,80252,128,0,80336:0:0:0:0:
64,192,80419,128,0,80586:0:0:0:0:
192,192,80419,128,0,80586:0:0:0:0:
320,192,80419,128,0,80586:0:0:0:0:
448,192,80752,1,0,0:0:0:0:
320,192,80752,1,0,0:0:0:0:
192,192,80836,1,0,0:0:0:0:
64,192,80919,1,0,0:0:0:0:
448,192,80919,1,0,0:0:0:0:
320,192,80919,1,0,0:0:0:0:
192,192,81086,1,0,0:0:0:0:
448,192,81086,1,0,0:0:0:0:
64,192,81252,1,0,0:0:0:0:
320,192,81252,1,0,0:0:0:0:
448,192,81252,1,0,0:0:0:0:
64,192,81419,1,0,0:0:0:0:
320,192,81419,1,0,0:0:0:0:
64,192,81586,128,0,81669:0:0:0:0:
192,192,81586,128,0,81669:0:0:0:0:
448,192,81586,128,0,81669:0:0:0:0:
448,192,81752,128,0,81919:0:0:0:0:
192,192,81752,128,0,81919:0:0:0:0:
64,192,81752,128,0,81919:0:0:0:0:
64,192,82086,1,0,0:0:0:0:
448,192,82086,1,0,0:0:0:0:
192,192,82169,1,0,0:0:0:0:
320,192,82169,1,0,0:0:0:0:
64,192,82252,1,0,0:0:0:0:
448,192,82252,1,0,0:0:0:0:
64,192,82419,1,0,0:0:0:0:
192,192,82586,1,0,0:0:0:0:
448,192,82586,1,0,0:0:0:0:
64,192,82752,1,0,0:0:0:0:
192,192,82752,1,0,0:0:0:0:
448,192,82836,1,0,0:0:0:0:
320,192,82836,1,0,0:0:0:0:
320,192,82919,128,0,83169:0:0:0:0:
448,192,82919,128,0,83169:0:0:0:0:
64,192,83169,1,0,0:0:0:0:
192,192,83169,1,0,0:0:0:0:
64,192,83252,128,0,83502:0:0:0:0:
192,192,83252,128,0,83502:0:0:0:0:
64,192,83586,1,0,0:0:0:0:
192,192,83586,1,0,0:0:0:0:
448,192,83669,1,0,0:0:0:0:
320,192,83669,1,0,0:0:0:0:
64,192,83752,1,0,0:0:0:0:
192,192,83752,1,0,0:0:0:0:
320,192,83836,1,0,0:0:0:0:
64,192,83919,1,0,0:0:0:0:
192,192,83919,1,0,0:0:0:0:
448,192,83919,1,0,0:0:0:0:
320,192,84002,1,0,0:0:0:0:
64,192,84086,1,0,0:0:0:0:
448,192,84086,1,0,0:0:0:0:
192,192,84169,1,0,0:0:0:0:
320,192,84252,1,0,0:0:0:0:
64,192,84252,1,0,0:0:0:0:
448,192,84252,128,0,85586:0:0:0:0:
64,192,84919,1,0,0:0:0:0:
192,192,84919,1,0,0:0:0:0:
320,192,84919,1,0,0:0:0:0:
192,192,85586,1,0,0:0:0:0:
320,192,85586,1,0,0:0:0:0:
64,192,85586,128,0,85752:0:0:0:0:
192,192,85752,128,0,85919:0:0:0:0:
320,192,85919,128,0,86086:0:0:0:0:
192,192,86086,128,0,86252:0:0:0:0:
64,192,86252,1,0,0:0:0:0:
320,192,86252,1,0,0:0:0:0:
448,192,86252,128,0,86419:0:0:0:0:
64,192,86419,128,0,86586:0:0:0:0:
192,192,86586,128,0,86919:0:0:0:0:
64,192,86919,1,0,0:0:0:0:
320,192,86919,1,0,0:0:0:0:
448,192,87002,1,0,0:0:0:0:
320,192,87086,1,0,0:0:0:0:
192,192,87169,1,0,0:0:0:0:
64,192,87252,1,0,0:0:0:0:
320,192,87252,1,0,0:0:0:0:
448,192,87252,1,0,0:0:0:0:
192,192,87336,1,0,0:0:0:0:
320,192,87419,1,0,0:0:0:0:
448,192,87502,1,0,0:0:0:0:
64,192,87586,1,0,0:0:0:0:
192,192,87669,1,0,0:0:0:0:
320,192,87752,1,0,0:0:0:0:
448,192,87836,1,0,0:0:0:0:
64,192,87919,1,0,0:0:0:0:
192,192,87919,1,0,0:0:0:0:
320,192,87919,1,0,0:0:0:0:
448,192,88002,1,0,0:0:0:0:
320,192,88086,1,0,0:0:0:0:
192,192,88169,1,0,0:0:0:0:
64,192,88252,1,0,0:0:0:0:
192,192,88336,1,0,0:0:0:0:
320,192,88419,1,0,0:0:0:0:
448,192,88502,1,0,0:0:0:0:
64,192,88586,1,0,0:0:0:0:
320,192,88586,1,0,0:0:0:0:
192,192,88586,1,0,0:0:0:0:
448,192,88669,1,0,0:0:0:0:
320,192,88752,1,0,0:0:0:0:
192,192,88836,1,0,0:0:0:0:
64,192,88919,1,0,0:0:0:0:
448,192,89002,1,0,0:0:0:0:
320,192,89086,1,0,0:0:0:0:
192,192,89169,1,0,0:0:0:0:
448,192,89252,1,0,0:0:0:0:
320,192,89252,1,0,0:0:0:0:
64,192,89252,1,0,0:0:0:0:
192,192,89336,1,0,0:0:0:0:
320,192,89419,1,0,0:0:0:0:
448,192,89502,1,0,0:0:0:0:
64,192,89586,1,0,0:0:0:0:
192,192,89669,1,0,0:0:0:0:
320,192,89752,1,0,0:0:0:0:
448,192,89836,1,0,0:0:0:0:
64,192,89919,1,0,0:0:0:0:
320,192,89919,1,0,0:0:0:0:
192,192,89919,1,0,0:0:0:0:
448,192,90002,1,0,0:0:0:0:
320,192,90086,1,0,0:0:0:0:
192,192,90169,1,0,0:0:0:0:
64,192,90252,1,0,0:0:0:0:
192,192,90336,1,0,0:0:0:0:
320,192,90419,1,0,0:0:0:0:
448,192,90502,1,0,0:0:0:0:
192,192,90586,1,0,0:0:0:0:
64,192,90586,1,0,0:0:0:0:
320,192,90586,1,0,0:0:0:0:
448,192,90669,1,0,0:0:0:0:
320,192,90752,1,0,0:0:0:0:
192,192,90836,1,0,0:0:0:0:
64,192,90919,1,0,0:0:0:0:
448,192,91002,1,0,0:0:0:0:
320,192,91086,1,0,0:0:0:0:
192,192,91169,1,0,0:0:0:0:
448,192,91252,1,0,0:0:0:0:
320,192,91252,1,0,0:0:0:0:
64,192,91252,1,0,0:0:0:0:
192,192,91336,1,0,0:0:0:0:
320,192,91419,1,0,0:0:0:0:
448,192,91502,1,0,0:0:0:0:
320,192,91586,1,0,0:0:0:0:
192,192,91669,1,0,0:0:0:0:
64,192,91752,1,0,0:0:0:0:
320,192,91836,1,0,0:0:0:0:
448,192,91836,1,0,0:0:0:0:
64,192,91919,1,0,0:0:0:0:
192,192,91919,1,0,0:0:0:0:
320,192,92002,1,0,0:0:0:0:
448,192,92002,1,0,0:0:0:0:
64,192,92086,1,0,0:0:0:0:
192,192,92086,1,0,0:0:0:0:
320,192,92169,1,0,0:0:0:0:
448,192,92169,1,0,0:0:0:0:
64,192,92252,128,0,92419:0:0:0:0:
192,192,92252,128,0,92419:0:0:0:0:
320,192,92419,128,0,92586:0:0:0:0:
448,192,92419,128,0,92586:0:0:0:0:
192,192,92586,1,0,0:0:0:0:
64,192,92586,1,0,0:0:0:0:
448,192,92752,128,0,93002:0:0:0:0:
64,192,92752,128,0,93002:0:0:0:0:
192,192,92752,128,0,93002:0:0:0:0:
320,192,92919,1,0,0:0:0:0:
192,192,93086,1,0,0:0:0:0:
448,192,93086,1,0,0:0:0:0:
64,192,93086,1,0,0:0:0:0:
64,192,93252,1,0,0:0:0:0:
320,192,93252,1,0,0:0:0:0:
448,192,93252,1,0,0:0:0:0:
64,192,93419,128,0,93669:0:0:0:0:
448,192,93419,128,0,93669:0:0:0:0:
320,192,93419,128,0,93669:0:0:0:0:
192,192,93586,1,0,0:0:0:0:
320,192,93752,1,0,0:0:0:0:
64,192,93752,1,0,0:0:0:0:
448,192,93752,1,0,0:0:0:0:
448,192,93919,1,0,0:0:0:0:
320,192,93919,1,0,0:0:0:0:
64,192,94002,1,0,0:0:0:0:
448,192,94086,1,0,0:0:0:0:
320,192,94086,1,0,0:0:0:0:
192,192,94169,1,0,0:0:0:0:
320,192,94252,1,0,0:0:0:0:
448,192,94252,1,0,0:0:0:0:
64,192,94336,1,0,0:0:0:0:
192,192,94419,1,0,0:0:0:0:
320,192,94419,1,0,0:0:0:0:
448,192,94502,1,0,0:0:0:0:
192,192,94586,1,0,0:0:0:0:
64,192,94586,1,0,0:0:0:0:
320,192,94669,1,0,0:0:0:0:
192,192,94752,1,0,0:0:0:0:
64,192,94752,1,0,0:0:0:0:
64,192,94919,128,0,95002:0:0:0:0:
192,192,94919,128,0,95002:0:0:0:0:
448,192,94919,128,0,95002:0:0:0:0:
64,192,95086,128,0,95169:0:0:0:0:
192,192,95086,128,0,95169:0:0:0:0:
448,192,95086,128,0,95169:0:0:0:0:
64,192,95252,1,0,0:0:0:0:
192,192,95252,1,0,0:0:0:0:
448,192,95252,1,0,0:0:0:0:
320,192,95419,128,0,95669:0:0:0:0:
64,192,95419,128,0,95669:0:0:0:0:
192,192,95419,128,0,95669:0:0:0:0:
448,192,95586,1,0,0:0:0:0:
64,192,95752,1,0,0:0:0:0:
192,192,95752,1,0,0:0:0:0:
320,192,95752,1,0,0:0:0:0:
64,192,95919,1,0,0:0:0:0:
320,192,95919,1,0,0:0:0:0:
448,192,95919,1,0,0:0:0:0:
64,192,96086,128,0,96336:0:0:0:0:
448,192,96086,128,0,96336:0:0:0:0:
192,192,96086,128,0,96336:0:0:0:0:
320,192,96252,1,0,0:0:0:0:
448,192,96419,1,0,0:0:0:0:
192,192,96419,1,0,0:0:0:0:
64,192,96419,1,0,0:0:0:0:
320,192,96586,1,0,0:0:0:0:
192,192,96586,1,0,0:0:0:0:
64,192,96586,1,0,0:0:0:0:
448,192,96669,1,0,0:0:0:0:
320,192,96752,1,0,0:0:0:0:
64,192,96752,1,0,0:0:0:0:
192,192,96836,1,0,0:0:0:0:
320,192,96919,1,0,0:0:0:0:
448,192,96919,1,0,0:0:0:0:
64,192,97002,1,0,0:0:0:0:
192,192,97002,1,0,0:0:0:0:
448,192,97086,1,0,0:0:0:0:
320,192,97086,1,0,0:0:0:0:
192,192,97169,1,0,0:0:0:0:
64,192,97169,1,0,0:0:0:0:
320,192,97252,1,0,0:0:0:0:
448,192,97252,1,0,0:0:0:0:
64,192,97252,1,0,0:0:0:0:
64,192,97419,1,0,0:0:0:0:
192,192,97419,1,0,0:0:0:0:
448,192,97419,1,0,0:0:0:0:
320,192,97586,128,0,98002:0:0:0:0:
448,192,97586,128,0,98002:0:0:0:0:
192,192,98002,128,0,98919:0:0:0:0:
64,192,98002,1,0,0:0:0:0:
320,192,98197,1,0,0:0:0:0:
320,192,98586,1,0,0:0:0:0:
320,192,98919,128,0,99169:0:0:0:0:
64,192,98919,1,0,0:0:0:0:
448,192,98919,1,0,0:0:0:0:
448,192,99169,1,0,0:0:0:0:
192,192,99169,1,0,0:0:0:0:
64,192,99169,128,0,99752:0:0:0:0:
192,192,99419,1,0,0:0:0:0:
448,192,99419,1,0,0:0:0:0:
448,192,99669,1,0,0:0:0:0:
192,192,99752,128,0,102919:0:0:0:0:
448,192,99836,1,0,0:0:0:0:
320,192,99836,1,0,0:0:0:0:
320,192,100252,1,0,0:0:0:0:
448,192,100336,1,0,0:0:0:0:
320,192,100419,1,0,0:0:0:0:
64,192,100419,1,0,0:0:0:0:
64,192,100586,1,0,0:0:0:0:
448,192,100669,1,0,0:0:0:0:
64,192,100752,1,0,0:0:0:0:
448,192,100919,1,0,0:0:0:0:
64,192,101002,1,0,0:0:0:0:
320,192,101086,1,0,0:0:0:0:
448,192,101169,1,0,0:0:0:0:
64,192,101252,1,0,0:0:0:0:
448,192,101336,1,0,0:0:0:0:
320,192,101419,1,0,0:0:0:0:
448,192,101502,1,0,0:0:0:0:
320,192,101586,1,0,0:0:0:0:
64,192,101836,1,0,0:0:0:0:
320,192,101836,1,0,0:0:0:0:
64,192,102002,1,0,0:0:0:0:
448,192,102002,1,0,0:0:0:0:
320,192,102419,1,0,0:0:0:0:
448,192,102919,128,0,104252:0:0:0:0:
64,192,102919,1,0,0:0:0:0:
320,192,103030,1,0,0:0:0:0:
192,192,103030,1,0,0:0:0:0:
64,192,103141,1,0,0:0:0:0:
192,192,103141,1,0,0:0:0:0:
64,192,104252,1,0,0:0:0:0:
320,192,104252,1,0,0:0:0:0:
192,192,104252,128,0,105252:0:0:0:0:
448,192,105308,1,0,0:0:0:0:
320,192,105308,1,0,0:0:0:0:
192,192,105419,1,0,0:0:0:0:
320,192,105419,1,0,0:0:0:0:
192,192,105502,1,0,0:0:0:0:
64,192,105502,1,0,0:0:0:0:
