osu file format v14

[General]
AudioFilename: audio.ogg
AudioLeadIn: 0
PreviewTime: 201583
Countdown: 0
SampleSet: Drum
StackLeniency: 0.4
Mode: 0
LetterboxInBreaks: 0
WidescreenStoryboard: 1

[Editor]
Bookmarks: 19000,34999,50999,72333,93667,109667,128333,160333,176333,192333,207000,224333,245666
DistanceSpacing: 0.5
BeatDivisor: 4
GridSize: 16
TimelineZoom: 2.3

[Metadata]
Title:Wandering, Never Wondering (There Exists A Shade)
TitleUnicode:Wandering, Never Wondering (There Exists A Shade)
Artist:Foreground Eclipse
ArtistUnicode:Foreground Eclipse
Creator:GYGY
Version:Lunatic Collab
Source:東方地霊殿 ~ Subterranean Animism.
Tags:Anxient bongo Kowari Xevia merami meramipop teto japanese melodic metal video game ZUN 東方project touhou chireiden th11 SA koishi komeiji ラストリモート 東方地霊殿 4th album extra stage theme last remote Stories That Last Through The Sleepless Nights c85 comiket 85 FGE FE
BeatmapID:3823211
BeatmapSetID:1785945

[Difficulty]
HPDrainRate:4
CircleSize:4
OverallDifficulty:7.5
ApproachRate:8
SliderMultiplier:1.4
SliderTickRate:1

[Events]
//Background and Video events
0,0,"cc6ba5ef3e546dba8d1cc6eb71792f653f6bea13 (2).jpg",0,0
//Break Periods
//Storyboard Layer 0 (Background)
//Storyboard Layer 1 (Fail)
//Storyboard Layer 2 (Pass)
//Storyboard Layer 3 (Foreground)
//Storyboard Layer 4 (Overlay)
//Storyboard Sound Samples

[TimingPoints]
834,333.333333333333,4,3,1,45,1,0
834,-100,4,3,1,45,0,0
1000,-111.111111111111,4,3,1,45,0,0
1167,-111.111111111111,4,3,35,45,0,0
1833,-111.111111111111,4,3,1,45,0,0
3000,333.333333333333,3,3,3,45,1,0
3000,-125,3,3,3,45,0,0
3583,-125,3,3,3,5,0,0
3666,-125,3,3,3,45,0,0
5582,-125,3,3,3,5,0,0
5666,-125,3,3,3,45,0,0
7582,-125,3,3,3,5,0,0
7666,-125,3,3,3,45,0,0
9582,-125,3,3,3,5,0,0
9666,-125,3,3,3,45,0,0
10333,-111.111111111111,3,3,3,55,0,0
10666,-100,3,3,3,65,0,0
10999,-83.3333333333333,3,3,5,75,0,0
11333,-83.3333333333333,3,3,13,75,0,0
11666,-83.3333333333333,3,3,24,75,0,0
11999,-83.3333333333333,3,3,6,75,0,0
12333,-83.3333333333333,3,3,13,75,0,0
12666,-83.3333333333333,3,3,24,75,0,0
12999,-83.3333333333333,3,3,6,75,0,0
13333,-83.3333333333333,3,3,13,75,0,0
13666,-83.3333333333333,3,3,24,75,0,0
13999,-83.3333333333333,3,3,6,75,0,0
14333,-83.3333333333333,3,3,13,75,0,0
14666,-83.3333333333333,3,3,24,75,0,0
14999,-76.9230769230769,3,3,5,75,0,0
15333,-83.3333333333333,3,3,13,75,0,0
15666,-83.3333333333333,3,3,24,75,0,0
15999,-83.3333333333333,3,3,6,75,0,0
16333,-83.3333333333333,3,3,13,75,0,0
16666,-83.3333333333333,3,3,24,75,0,0
16999,-83.3333333333333,3,3,13,75,0,0
17333,-83.3333333333333,3,3,24,75,0,0
17666,-83.3333333333333,3,3,6,75,0,0
18666,-100,3,3,5,75,0,0
18999,-83.3333333333333,3,3,2,60,0,0
19083,-83.3333333333333,3,3,1,60,0,0
19248,-83.3333333333333,3,3,2,60,0,0
19333,-83.3333333333333,3,3,1,60,0,0
22999,-83.3333333333333,3,3,2,60,0,0
23083,-83.3333333333333,3,3,1,60,0,0
26999,-83.3333333333333,3,3,2,60,0,0
27083,-83.3333333333333,3,3,1,60,0,0
30999,-83.3333333333333,3,3,2,60,0,0
31083,-83.3333333333333,3,3,1,60,0,0
35000,333.333333333333,4,3,5,65,1,0
35000,-100,4,3,5,65,0,0
35083,-100,4,3,13,65,0,0
35333,-100,4,3,5,65,0,0
35416,-100,4,3,13,65,0,0
35666,-100,4,3,5,65,0,0
35749,-100,4,3,13,65,0,0
36000,-100,4,3,5,65,0,0
36083,-100,4,3,13,65,0,0
36166,-100,4,3,2,65,0,0
36250,-100,4,3,13,65,0,0
36333,-100,4,3,24,65,0,0
36416,-100,4,3,35,65,0,0
36666,-100,4,3,5,65,0,0
36832,-100,4,3,2,65,0,0
37000,-100,4,3,5,65,0,0
37166,-100,4,3,13,65,0,0
37333,-100,4,3,5,65,0,0
37750,-100,4,3,13,65,0,0
38000,-100,4,3,5,65,0,0
38083,-100,4,3,13,65,0,0
38333,-100,4,3,5,65,0,0
38416,-100,4,3,13,65,0,0
38666,-100,4,3,5,65,0,0
38749,-100,4,3,13,65,0,0
38999,-100,4,3,2,65,0,0
39416,-100,4,3,13,65,0,0
39666,-100,4,3,5,65,0,0
39749,-100,4,3,13,65,0,0
39999,-100,4,3,1,65,0,0
40333,-100,4,3,5,65,0,0
40416,-100,4,3,13,65,0,0
40666,-100,4,3,5,65,0,0
40749,-100,4,3,13,65,0,0
40999,-100,4,3,5,65,0,0
41082,-100,4,3,13,65,0,0
41333,-100,4,3,5,65,0,0
41416,-100,4,3,13,65,0,0
41499,-100,4,3,2,65,0,0
41583,-100,4,3,13,65,0,0
41666,-100,4,3,24,65,0,0
41749,-100,4,3,35,65,0,0
41999,-100,4,3,5,65,0,0
42083,-100,4,3,2,65,0,0
42249,-100,4,3,5,65,0,0
42499,-100,4,3,35,65,0,0
42999,-100,4,3,5,65,0,0
43083,-100,4,3,13,65,0,0
43333,-100,4,3,5,65,0,0
43417,-100,4,3,13,65,0,0
43666,-100,4,3,5,65,0,0
43750,-100,4,3,13,65,0,0
43999,-100,4,3,5,65,0,0
44083,-100,4,3,13,65,0,0
44333,-100,4,3,5,65,0,0
44417,-100,4,3,13,65,0,0
44999,-100,4,3,24,65,0,0
45333,-100,4,3,35,65,0,0
45666,-142.857142857143,4,3,2,50,0,0
45749,-142.857142857143,4,3,1,50,0,0
48333,-100,4,3,2,50,0,0
48416,-100,4,3,1,50,0,0
49666,-142.857142857143,4,3,1,50,0,0
50999,-100,4,3,3,50,0,0
53333,-76.9230769230769,4,3,3,50,0,0
53666,-100,4,3,3,50,0,0
55999,-76.9230769230769,4,3,3,50,0,0
56333,-100,4,3,3,50,0,0
58666,-76.9230769230769,4,3,3,50,0,0
58999,-100,4,3,3,50,0,0
60999,-100,4,3,24,50,0,0
61166,-76.9230769230769,4,3,3,50,0,0
61666,-90.9090909090909,4,3,3,50,0,0
70333,-90.9090909090909,4,3,3,56,0,0
70583,-90.9090909090909,4,3,3,5,0,0
70666,-76.9230769230769,4,3,3,62,0,0
70915,-76.9230769230769,4,3,3,5,0,0
70999,-90.9090909090909,4,3,3,74,0,0
71666,-71.4285714285714,4,3,3,84,0,0
72333,-83.3333333333333,4,3,2,66,0,0
72416,-83.3333333333333,4,3,3,66,0,0
92333,-100,4,3,13,66,0,0
92666,-100,4,3,1,66,0,0
92999,-100,4,3,35,66,0,0
93333,-100,4,3,2,66,0,0
93667,333.333333333333,3,3,2,66,1,0
93667,-100,3,3,2,66,0,0
93751,-100,3,3,1,66,0,0
97667,-90.9090909090909,3,3,2,66,0,0
97751,-90.9090909090909,3,3,1,66,0,0
101333,-76.9230769230769,3,3,3,66,0,0
101666,-90.9090909090909,3,3,2,66,0,0
101751,-90.9090909090909,3,3,1,66,0,0
101832,-90.9090909090909,3,3,2,66,0,0
102000,-90.9090909090909,3,3,1,66,0,0
105666,-90.9090909090909,3,3,2,66,0,0
105750,-90.9090909090909,3,3,1,66,0,0
109111,-90.9090909090909,3,3,13,66,0,0
109333,-90.9090909090909,3,3,1,66,0,0
109444,-90.9090909090909,3,3,24,66,0,0
109667,333.333333333333,4,3,2,56,1,0
109667,-90.9090909090909,4,3,2,56,0,0
109750,-90.9090909090909,4,3,3,56,0,0
114333,-90.9090909090909,4,3,24,56,0,0
114667,-90.9090909090909,4,3,35,56,0,0
115000,-90.9090909090909,4,3,3,56,0,0
119000,-83.3333333333333,4,3,3,56,0,0
120333,-90.9090909090909,4,3,5,56,0,0
120416,-90.9090909090909,4,3,3,56,0,0
127333,-71.4285714285714,4,3,3,56,0,0
127666,-100,4,3,13,56,0,0
128000,-100,4,3,24,56,0,0
128333,-90.9090909090909,4,3,3,67,0,0
131000,-83.3333333333333,4,3,3,67,0,0
133000,-76.9230769230769,4,3,13,67,0,0
133333,-76.9230769230769,4,3,24,67,0,0
133666,-90.9090909090909,4,3,3,67,0,0
136333,-83.3333333333333,4,3,3,67,0,0
137666,-100,4,3,3,55,0,0
139000,-83.3333333333333,4,3,2,82,0,1
139083,-83.3333333333333,4,3,3,82,0,1
139249,-83.3333333333333,4,3,2,82,0,1
139333,-83.3333333333333,4,3,3,82,0,1
144333,-83.3333333333333,4,3,2,82,0,1
144416,-83.3333333333333,4,3,3,82,0,1
149333,-83.3333333333333,4,3,13,82,0,1
149666,-100,4,3,3,82,0,1
160000,-100,4,3,13,82,0,1
160166,-100,4,3,24,82,0,1
160333,333.333333333333,3,3,7,50,1,0
160333,-142.857142857143,4,3,7,50,0,0
168000,-250,4,3,3,65,0,0
168333,-100,4,3,3,70,0,0
169666,-100,4,3,13,70,0,0
170000,-100,4,3,24,70,0,0
170333,-100,4,3,6,70,0,0
171750,-100,4,3,13,70,0,0
171833,-100,4,3,24,70,0,0
171916,-100,4,3,35,70,0,0
172000,-100,4,3,6,70,0,0
172083,-100,4,3,13,70,0,0
172166,-100,4,3,24,70,0,0
172249,-100,4,3,35,70,0,0
172333,-71.4285714285714,4,3,5,70,0,0
173833,-100,4,3,13,70,0,0
174000,-100,4,3,24,70,0,0
174166,-100,4,3,35,70,0,0
174333,-100,4,3,5,70,0,0
174666,-66.6666666666667,4,3,5,70,0,0
176000,-100,4,3,35,70,0,0
176333,-100,4,3,7,70,0,0
178083,-100,4,3,13,70,0,0
178166,-100,4,3,24,70,0,0
178250,-100,4,3,35,70,0,0
178333,-100,4,3,7,70,0,0
179083,-100,4,3,13,70,0,0
179166,-100,4,3,24,70,0,0
179250,-100,4,3,35,70,0,0
179333,-100,4,3,7,70,0,0
180000,-100,4,3,35,70,0,0
180333,-100,4,3,7,70,0,0
181332,-90.9090909090909,4,3,7,70,0,0
182083,-90.9090909090909,4,3,13,70,0,0
182166,-90.9090909090909,4,3,24,70,0,0
182250,-90.9090909090909,4,3,35,70,0,0
182333,-90.9090909090909,4,3,7,70,0,0
183083,-90.9090909090909,4,3,13,70,0,0
183166,-90.9090909090909,4,3,24,70,0,0
183250,-90.9090909090909,4,3,35,70,0,0
183333,-90.9090909090909,4,3,7,70,0,0
184000,-90.9090909090909,4,3,35,70,0,0
184333,-90.9090909090909,4,3,6,60,0,0
192333,333.333333333333,4,3,7,67,1,0
192333,-83.3333333333333,4,3,7,67,0,0
196500,-100,4,3,6,67,0,0
197166,-100,4,3,2,67,0,0
197333,-100,4,3,13,67,0,0
197500,-100,4,3,24,67,0,0
197666,-90.9090909090909,4,3,6,67,0,0
201666,-125,4,3,6,67,0,0
202416,-100,4,3,13,67,0,0
202499,-100,4,3,24,67,0,0
202583,-100,4,3,35,67,0,0
202666,-100,4,3,7,67,0,0
203000,-100,4,3,8,67,0,0
206666,-100,4,3,1,67,0,0
206999,-142.857142857143,4,3,7,67,0,0
212332,-111.111111111111,4,3,7,67,0,0
213333,-90.9090909090909,4,3,13,67,0,0
213666,-83.3333333333333,4,3,2,82,0,0
213750,-83.3333333333333,4,3,3,82,0,0
213832,-83.3333333333333,4,3,2,82,0,0
213999,-83.3333333333333,4,3,3,82,0,0
223416,-100,4,3,13,82,0,0
223500,-100,4,3,24,82,0,0
223583,-100,4,3,35,82,0,0
223666,-100,4,3,7,82,0,0
224332,-142.857142857143,4,3,7,75,0,0
233666,-100,4,3,3,75,0,0
234666,-83.3333333333333,4,3,24,75,0,0
234750,-83.3333333333333,4,3,3,75,0,0
234999,-83.3333333333333,4,3,3,82,0,1
245332,-125,4,3,3,82,0,1
245500,-100,4,3,24,75,0,1
245666,333.333333333333,3,3,2,60,1,0
245666,-90.9090909090909,3,3,2,60,0,0
245749,-90.9090909090909,3,3,1,60,0,0
252666,-83.3333333333333,3,3,3,60,0,0
253666,-83.3333333333333,3,3,7,65,0,0
259666,-83.3333333333333,3,3,8,75,0,0
260665,-83.3333333333333,3,3,24,65,0,0
260999,-83.3333333333333,3,3,35,65,0,0
261332,-83.3333333333333,3,3,7,65,0,0
261665,-83.3333333333333,3,3,7,80,0,0
269666,-83.3333333333333,3,3,35,5,0,0

[Colours]
Combo1 : 205,205,205
Combo2 : 237,235,194
Combo3 : 198,255,119
Combo4 : 7,237,168

[HitObjects]
69,345,834,5,4,0:3:0:0:
69,345,917,1,4,0:3:0:0:
69,345,1000,2,0,L|51:265,1,62.9999980773926,8|4,0:3|0:3,0:0:0:0:
170,196,1333,2,0,P|151:244|125:249,1,62.9999980773926,8|4,0:3|0:3,0:0:0:0:
16,138,1667,2,0,P|58:155|72:189,1,62.9999980773926,8|4,0:3|0:3,0:0:0:0:
66,191,1917,1,4,0:3:0:0:
66,191,2000,1,8,0:3:0:0:
153,112,2167,6,0,L|164:61,2,31.4999990386963,4|4|10,0:3|0:3|0:3,0:0:0:0:
71,20,2500,1,4,0:3:0:0:
71,20,2583,1,4,0:3:0:0:
71,20,2667,1,4,0:3:0:0:
71,20,3000,70,0,B|108:79|171:59|168:54|164:48|198:4|267:26,1,196,6|0,3:3|0:3,0:0:0:0:
261,35,3666,1,4,0:3:0:0:
261,35,3999,5,4,0:3:0:0:
445,133,4666,1,4,0:3:0:0:
445,133,4999,70,0,P|439:175|313:185,1,196,6|0,0:3|0:3,0:0:0:0:
311,160,5666,1,4,0:3:0:0:
311,160,5999,5,4,0:3:0:0:
394,42,6666,1,4,0:3:0:0:
394,42,6999,70,0,P|375:144|371:258,1,196,2|0,0:3|0:3,0:0:0:0:
386,255,7666,1,4,0:3:0:0:
386,255,7999,5,4,0:3:0:0:
238,362,8666,1,4,0:3:0:0:
238,362,8999,70,0,B|195:317|144:338|147:342|148:348|102:378|44:327,1,196,2|0,0:3|0:3,0:0:0:0:
41,317,9666,1,4,0:3:0:0:
30,151,9999,6,0,L|100:140,1,56,2|0,0:3|0:0,0:0:0:0:
142,227,10333,2,0,L|206:258,1,62.9999980773926,2|0,0:3|0:0,0:0:0:0:
232,98,10666,2,0,L|298:58,1,70,2|0,0:3|0:0,0:0:0:0:
470,155,10999,69,14,0:3:0:0:
489,171,11083,1,8,0:3:0:0:
498,194,11166,1,8,0:3:0:0:
495,219,11249,1,8,0:3:0:0:
477,237,11333,2,0,L|425:214,3,41.9999987182618,12|8|8|8,0:3|0:3|0:3|0:3,0:0:0:0:
396,286,11666,2,0,L|344:309,3,41.9999987182618,12|8|8|8,0:3|0:3|0:3|0:3,0:0:0:0:
319,212,11999,5,14,0:3:0:0:
298,207,12083,1,8,0:3:0:0:
277,202,12166,1,8,0:3:0:0:
256,197,12249,1,8,0:3:0:0:
235,192,12333,2,0,L|221:136,3,41.9999987182618,4|8|8|8,0:3|0:3|0:3|0:3,0:0:0:0:
157,242,12666,2,0,L|143:186,3,41.9999987182618,12|8|8|8,0:3|0:3|0:3|0:3,0:0:0:0:
62,167,12999,69,14,0:3:0:0:
56,188,13083,1,8,0:3:0:0:
50,208,13166,1,8,0:3:0:0:
44,228,13249,1,8,0:3:0:0:
38,249,13333,2,0,L|54:313,3,41.9999987182618,12|8|8|8,0:3|0:3|0:3|0:3,0:0:0:0:
118,347,13666,1,12,0:3:0:0:
118,347,13749,1,8,0:3:0:0:
118,347,13833,2,0,L|176:337,1,41.9999987182618,8|8,0:3|0:3,0:0:0:0:
241,363,13999,6,0,L|249:306,3,41.9999987182618,14|8|8|8,0:3|0:3|0:3|0:3,0:0:0:0:
342,289,14333,2,0,L|336:247,3,41.9999987182618,12|8|8|8,0:3|0:3|0:3|0:3,0:0:0:0:
293,181,14666,2,0,L|301:124,3,41.9999987182618,12|12|12|8,0:3|0:3|0:3|0:3,0:0:0:0:
275,107,14999,70,0,L|438:67,1,136.499993751526,14|8,0:3|0:3,0:0:0:0:
480,94,15333,2,0,L|495:147,3,41.9999987182618,12|8|8|8,0:3|0:3|0:3|0:3,0:0:0:0:
433,193,15666,1,12,0:3:0:0:
433,193,15749,1,8,0:3:0:0:
433,193,15833,2,0,L|420:264,1,41.9999987182618,8|8,0:3|0:3,0:0:0:0:
459,344,15999,6,0,L|404:302,3,41.9999987182618,14|8|8|8,0:3|0:3|0:3|0:3,0:0:0:0:
336,339,16333,2,0,L|318:272,3,41.9999987182618,12|8|8|8,0:3|0:3|0:3|0:3,0:0:0:0:
249,241,16666,2,0,L|276:177,3,41.9999987182618,12|8|8|8,0:3|0:3|0:3|0:3,0:0:0:0:
327,125,16999,69,14,0:3:0:0:
326,99,17083,1,8,0:3:0:0:
317,75,17166,1,8,0:3:0:0:
300,56,17249,1,8,0:3:0:0:
277,43,17333,1,12,0:3:0:0:
252,37,17416,1,8,0:3:0:0:
227,39,17499,2,0,P|201:50|182:62,1,41.9999987182618,8|8,0:3|0:3,0:0:0:0:
101,113,17666,2,0,P|78:83|83:56,3,41.9999987182618,12|8|8|0,0:3|0:3|0:3|0:3,0:0:0:0:
193,155,17999,5,14,0:3:0:0:
193,155,18083,1,8,0:3:0:0:
193,155,18166,2,0,L|183:218,1,41.9999987182618,8|0,0:3|0:3,0:0:0:0:
102,327,18333,1,14,0:3:0:0:
102,327,18417,1,8,0:3:0:0:
102,327,18500,2,0,L|95:285,1,41.9999987182618,8|0,0:3|0:3,0:0:0:0:
26,185,18666,2,0,L|115:206,1,70,14|0,0:3|0:0,0:0:0:0:
206,330,18999,70,0,L|355:296,1,125.999996154785,6|0,0:3|0:3,0:0:0:0:
342,322,19333,2,0,L|366:235,1,83.9999974365235,8|4,1:3|0:0,0:0:0:0:
399,127,19666,1,0,1:3:0:0:
399,127,19833,1,4,1:3:0:0:
282,153,19999,2,0,L|200:174,1,83.9999974365235,12|4,1:3|0:3,3:0:0:0:
448,210,20333,2,0,P|490:179|501:128,1,83.9999974365235,4|4,1:3|0:3,0:0:0:0:
460,222,20666,2,0,P|502:191|513:140,1,83.9999974365235,8|0,1:3|1:3,0:0:0:0:
446,28,20999,6,0,B|417:5|384:28|384:28|357:47|307:31,1,125.999996154785,6|0,1:3|0:3,0:0:0:0:
300,24,21333,2,0,L|317:115,1,83.9999974365235,8|4,1:3|1:3,0:0:0:0:
179,161,21666,1,0,1:3:0:0:
179,161,21833,1,4,1:3:0:0:
116,83,21999,5,12,1:3:0:0:
274,140,22166,1,4,0:3:0:0:
144,248,22333,2,0,L|2:291,1,125.999996154785,4|0,1:3|0:0,0:0:0:0:
0,308,22666,2,0,P|41:320|80:363,1,83.9999974365235,12|4,1:3|0:3,0:0:0:0:
252,384,22999,6,0,B|276:251,1,125.999996154785,6|0,1:3|0:3,0:0:0:0:
279,233,23333,2,0,P|241:192|187:204,1,83.9999974365235,8|4,1:3|1:3,0:0:0:0:
141,290,23666,1,0,1:3:0:0:
141,290,23833,1,4,1:3:0:0:
84,172,23999,2,0,L|66:84,1,83.9999974365235,12|4,1:3|0:3,0:0:0:0:
190,74,24333,2,0,P|224:51|234:11,1,83.9999974365235,4|4,1:3|0:3,0:0:0:0:
217,92,24666,2,0,P|251:69|261:29,1,83.9999974365235,8|0,1:3|1:3,0:0:0:0:
215,190,24999,6,0,L|335:226,1,125.999996154785,4|0,1:3|0:3,0:0:0:0:
354,249,25333,2,0,L|333:156,1,83.9999974365235,8|4,1:3|1:3,0:0:0:0:
416,77,25666,1,0,1:3:0:0:
416,77,25833,1,4,1:3:0:0:
478,162,25999,1,4,1:3:0:0:
501,15,26166,1,4,0:3:0:0:
475,190,26333,2,0,L|452:323,1,125.999996154785,4|0,1:3|0:0,0:0:0:0:
477,332,26666,2,0,L|378:363,1,83.9999974365235,12|0,1:3|0:0,0:0:0:0:
254,215,26999,6,0,P|303:186|371:227,1,125.999996154785,6|0,1:3|0:3,0:0:0:0:
364,241,27333,2,0,P|335:287|289:298,1,83.9999974365235,8|4,1:3|1:3,0:0:0:0:
202,362,27666,1,0,1:3:0:0:
202,362,27833,1,4,1:3:0:0:
94,297,27999,2,0,P|58:278|40:241,1,83.9999974365235,12|4,1:3|0:3,0:0:0:0:
226,145,28333,2,0,L|205:254,1,83.9999974365235,12|4,1:3|0:3,0:0:0:0:
269,132,28666,2,0,L|248:241,1,83.9999974365235,12|0,1:3|1:3,0:0:0:0:
339,69,28999,6,0,P|296:35|218:55,1,125.999996154785,6|0,1:3|0:3,0:0:0:0:
208,25,29333,2,0,P|165:57|152:103,1,83.9999974365235,8|4,1:3|1:3,0:0:0:0:
75,169,29666,1,0,1:3:0:0:
75,169,29833,1,4,1:3:0:0:
46,71,29999,1,12,1:3:0:0:
174,192,30166,1,4,0:3:0:0:
5,242,30333,2,0,P|60:261|95:331,1,125.999996154785,4|0,1:3|0:0,0:0:0:0:
85,345,30666,2,0,P|46:359|5:355,1,83.9999974365235,12|4,1:3|0:3,0:0:0:0:
186,301,30999,6,0,L|325:332,1,125.999996154785,6|0,1:3|0:3,0:0:0:0:
329,305,31333,2,0,P|352:268|336:220,1,83.9999974365235,8|4,1:3|1:3,0:0:0:0:
269,132,31666,1,0,1:3:0:0:
269,132,31833,1,4,1:3:0:0:
154,157,31999,2,0,P|176:206|218:230,1,83.9999974365235,12|4,1:3|0:3,0:0:0:0:
207,51,32333,2,0,L|289:31,1,83.9999974365235,4|4,1:3|0:3,0:0:0:0:
217,20,32666,2,0,L|299:0,1,83.9999974365235,8|0,1:3|1:3,0:0:0:0:
470,10,32999,6,0,L|438:162,1,125.999996154785,6|0,1:3|0:3,0:0:0:0:
401,139,33333,2,0,L|435:220,1,83.9999974365235,8|4,1:3|1:3,0:0:0:0:
484,321,33666,1,0,1:3:0:0:
484,321,33833,1,4,1:3:0:0:
399,374,33999,1,12,1:3:0:0:
329,264,34166,1,4,0:3:0:0:
250,327,34333,2,0,B|201:334|201:334|157:305,1,83.9999974365235,4|4,1:3|0:3,0:0:0:0:
141,384,34666,2,0,L|108:241,1,125.999996154785,8|0,0:3|0:0,0:0:0:0:
110,234,35000,6,0,L|124:174,3,35,10|8|8|8,0:3|0:3|0:3|0:3,0:0:0:0:
56,159,35333,2,0,L|70:99,3,35,12|8|8|8,0:3|0:3|0:3|0:3,0:0:0:0:
2,84,35666,2,0,L|16:24,3,35,12|8|8|8,0:3|0:3|0:3|0:3,0:0:0:0:
79,8,36000,1,12,0:3:0:0:
110,7,36083,1,8,0:3:0:0:
133,13,36166,1,12,0:3:0:0:
148,27,36250,1,8,0:3:0:0:
155,42,36333,6,0,L|145:97,2,35,8|8|8,0:3|0:3|0:3,0:0:0:0:
213,120,36583,1,8,0:3:0:0:
224,126,36666,2,0,L|313:109,1,70,12|8,0:3|0:3,0:0:0:0:
338,50,36916,1,8,0:3:0:0:
346,57,37000,2,0,L|393:70,5,35,12|8|8|8|12|8,0:3|0:3|0:3|0:3|0:3|0:3,0:0:0:0:
398,135,37500,1,8,0:3:0:0:
420,145,37583,1,8,0:3:0:0:
444,145,37666,6,0,P|465:133|491:102,3,35,14|8|8|8,0:3|0:3|0:3|0:3,0:0:0:0:
429,225,38000,2,0,P|449:237|489:244,3,35,12|8|8|8,0:3|0:3|0:3|0:3,0:0:0:0:
352,252,38333,2,0,P|351:276|365:314,3,35,12|8|8|8,0:3|0:3|0:3|0:3,0:0:0:0:
302,192,38666,1,12,0:3:0:0:
302,192,38833,1,8,0:3:0:0:
221,264,38999,5,12,0:3:0:0:
214,281,39083,2,0,L|141:304,1,70,8|0,0:3|0:3,0:0:0:0:
124,305,39333,1,12,0:3:0:0:
117,297,39416,1,8,0:3:0:0:
110,289,39499,1,8,0:3:0:0:
103,280,39583,1,8,0:3:0:0:
96,272,39666,2,0,L|67:237,3,35,12|8|8|8,0:3|0:3|0:3|0:3,0:0:0:0:
123,184,39999,1,14,0:3:0:0:
47,117,40166,1,14,0:3:0:0:
136,39,40333,6,0,L|150:1,3,35,14|8|8|8,0:3|0:3|0:3|0:3,0:0:0:0:
204,76,40666,2,0,L|218:38,3,35,12|8|8|8,0:3|0:3|0:3|0:3,0:0:0:0:
272,113,40999,2,0,L|286:75,3,35,12|8|8|8,0:3|0:3|0:3|0:3,0:0:0:0:
352,42,41333,1,12,0:3:0:0:
352,42,41499,1,8,0:3:0:0:
433,95,41666,5,12,0:3:0:0:
446,106,41749,1,8,0:3:0:0:
454,121,41833,1,8,0:3:0:0:
455,138,41916,1,8,0:3:0:0:
449,154,41999,2,0,L|391:167,2,35,12|8|8,0:3|0:3|0:3,0:0:0:0:
356,211,42249,1,8,0:3:0:0:
346,225,42333,2,0,L|378:355,1,105,12|8,0:3|0:3,0:0:0:0:
364,344,42666,1,8,0:3:0:0:
350,347,42749,1,8,0:3:0:0:
336,350,42833,1,8,0:3:0:0:
322,353,42916,1,8,0:3:0:0:
308,356,42999,6,0,L|265:345,3,35,14|8|8|8,0:3|0:3|0:3|0:3,0:0:0:0:
246,274,43333,2,0,L|203:263,3,35,12|8|8|8,0:3|0:3|0:3|0:3,0:0:0:0:
145,310,43666,2,0,L|102:299,3,35,12|8|8|8,0:3|0:3|0:3|0:3,0:0:0:0:
83,228,43999,2,0,L|40:217,3,35,12|8|8|8,0:3|0:3|0:3|0:3,0:0:0:0:
21,147,44333,1,12,0:3:0:0:
17,122,44416,1,8,0:3:0:0:
27,100,44499,1,8,0:3:0:0:
47,85,44583,1,8,0:3:0:0:
70,80,44666,5,4,0:3:0:0:
78,85,44749,1,4,0:3:0:0:
86,90,44833,1,4,0:3:0:0:
94,95,44916,1,4,0:3:0:0:
102,100,44999,2,0,P|117:86|122:47,3,35,12|8|8|8,0:3|0:3|0:3|0:3,0:0:0:0:
202,47,45333,2,0,P|187:33|182:-6,3,35,8|8|8|8,0:3|0:3|0:3|0:3,0:0:0:0:
186,128,45666,6,0,L|342:113,1,146.999995513916,6|4,0:3|0:3,0:0:0:0:
460,102,46499,1,4,0:3:0:0:
320,283,46999,6,0,P|321:240|367:202,1,97.9999970092774,4|0,0:3|0:3,0:0:0:0:
435,222,47499,1,4,0:3:0:0:
430,372,47833,1,4,0:3:0:0:
481,303,47999,1,8,0:3:0:0:
422,380,48166,1,4,0:3:0:0:
329,327,48333,6,0,L|110:362,1,210,2|4,0:3|0:3,0:0:0:0:
11,300,49166,1,4,0:3:0:0:
120,156,49666,6,0,P|153:184|136:243,1,97.9999970092774,6|4,0:3|0:3,0:0:0:0:
92,290,50166,1,8,0:3:0:0:
35,126,50499,2,0,L|25:88,3,24.4999992523194,8|8|8|8,0:3|0:3|0:3|0:3,0:0:0:0:
63,33,50833,1,8,0:3:0:0:
63,33,50916,1,8,0:3:0:0:
63,33,50999,6,0,B|112:62|165:51|165:45|165:39|212:20|278:37,1,210,14|0,1:3|0:3,0:0:0:0:
382,51,51666,2,0,L|449:30,1,70,0|0,0:0|0:3,0:0:0:0:
412,73,51999,2,0,L|479:52,1,70,0|0,0:3|0:0,0:0:0:0:
330,128,52333,6,0,P|296:130|289:221,1,140,4|0,1:3|0:3,0:0:0:0:
371,267,52833,2,0,P|404:264|411:173,1,140,4|4,0:3|0:3,0:0:0:0:
292,313,53333,2,0,B|271:330|267:349|267:349|232:345|178:368,1,136.499993751526,8|0,0:3|0:0,0:0:0:0:
186,344,53666,6,0,P|154:319|191:225,1,140,4|0,1:3|0:0,0:0:0:0:
173,232,54166,1,4,0:3:0:0:
70,154,54333,2,0,L|44:274,2,105,0|0|0,1:3|1:3|1:3,0:0:0:0:
93,2,54999,6,0,L|17:27,2,70,4|0|0,1:3|0:0|0:0,0:0:0:0:
179,29,55499,2,0,P|202:68|134:145,1,140,4|4,0:3|0:3,0:0:0:0:
76,177,55999,2,0,B|119:163|151:172|151:176|151:178|200:191|226:166,1,136.499993751526,8|0,1:3|0:0,0:0:0:0:
237,135,56333,6,0,L|214:287,1,140,2|0,1:3|0:0,0:0:0:0:
349,366,56833,2,0,L|328:227,1,140,4|0,1:3|0:3,0:0:0:0:
374,172,57333,2,0,L|357:259,1,70,0|0,1:3|0:0,0:0:0:0:
247,300,57666,5,4,1:3:0:0:
464,237,57999,1,0,1:3:0:0:
484,121,58166,1,4,0:3:0:0:
401,20,58333,6,0,L|384:107,1,70,4|4,1:3|0:3,0:0:0:0:
459,112,58666,2,0,L|325:138,1,136.499993751526,8|0,1:3|0:3,0:0:0:0:
284,116,58999,2,0,P|249:87|170:133,1,140,4|0,1:3|0:0,0:0:0:0:
179,219,59499,2,0,P|214:248|293:202,1,140,4|0,0:3|0:3,0:0:0:0:
373,240,59999,2,0,P|346:286|314:308,1,70,0|0,0:3|0:3,0:0:0:0:
260,339,60333,5,4,0:3:0:0:
247,333,60666,5,0,0:0:0:0:
56,362,60833,1,2,0:3:0:0:
143,304,60999,1,8,0:3:0:0:
154,280,61082,1,8,0:3:0:0:
156,254,61165,1,8,0:3:0:0:
151,228,61249,1,8,0:3:0:0:
137,206,61333,2,0,L|35:237,1,90.9999958343508,8|0,1:3|1:3,0:0:0:0:
74,52,61666,6,0,L|196:88,1,115.50000352478,6|0,1:3|0:0,0:0:0:0:
222,74,61999,2,0,P|251:34|239:-9,1,77.0000023498536,4|0,0:3|0:3,0:0:0:0:
276,174,62333,6,0,L|398:137,1,115.50000352478,4|0,1:3|0:0,0:0:0:0:
424,152,62666,2,0,P|453:192|441:235,1,77.0000023498536,4|0,0:3|0:3,0:0:0:0:
504,359,62999,6,0,P|453:326|380:347,1,115.50000352478,4|0,1:3|0:0,0:0:0:0:
374,312,63333,2,0,P|326:338|277:320,1,77.0000023498536,4|0,0:3|0:0,0:0:0:0:
179,361,63666,2,0,P|212:338|241:335,3,38.5000011749268,4|0|4|4,0:3|0:0|1:3|0:3,0:0:0:0:
189,321,63999,2,0,L|173:236,1,77.0000023498536,4|0,0:3|0:3,0:0:0:0:
79,84,64333,5,4,1:3:0:0:
222,158,64499,1,0,1:3:0:0:
86,244,64666,2,0,L|5:235,1,77.0000023498536,4|0,1:3|1:3,0:0:0:0:
92,54,64999,5,4,1:3:0:0:
176,152,65166,1,0,1:3:0:0:
260,186,65333,1,4,1:3:0:0:
356,66,65500,1,0,1:3:0:0:
374,231,65666,6,0,L|391:329,1,77.0000023498536,4|0,1:3|0:3,0:0:0:0:
487,194,65999,2,0,L|500:118,1,77.0000023498536,4|0,1:3|0:3,0:0:0:0:
320,237,66333,2,0,P|334:251|351:260,3,38.5000011749268,4|0|0|0,1:3|0:0|0:0|0:3,0:0:0:0:
341,283,66666,2,0,L|358:381,1,77.0000023498536,4|0,1:3|1:3,0:0:0:0:
254,299,66999,5,6,1:3:0:0:
437,327,67166,2,0,L|512:340,2,77.0000023498536,0|4|0,1:3|1:3|1:3,0:0:0:0:
262,325,67666,6,0,L|108:369,1,154.000004699707,4|4,1:3|0:3,0:0:0:0:
38,314,68166,1,0,1:3:0:0:
163,242,68333,5,4,0:3:0:0:
111,141,68499,1,0,1:3:0:0:
150,54,68666,2,0,P|103:38|60:57,1,77.0000023498536,4|0,1:3|1:3,0:0:0:0:
226,156,68999,2,0,P|273:172|339:123,1,115.50000352478,4|0,1:3|0:3,0:0:0:0:
351,101,69333,2,0,L|363:11,1,77.0000023498536,4|0,1:3|0:0,0:0:0:0:
487,74,69666,6,0,L|512:227,1,154.000004699707,6|4,1:3|0:3,0:0:0:0:
462,295,70166,1,0,0:0:0:0:
343,382,70333,6,0,L|361:267,1,115.50000352478,6|0,0:3|0:3,0:0:0:0:
373,248,70666,2,0,B|400:223|371:212|353:187|348:269|332:280|290:273,1,136.499993751526,6|0,0:3|0:3,0:0:0:0:
262,244,70999,5,6,0:3:0:0:
196,178,71166,1,0,0:0:0:0:
220,89,71333,1,6,0:3:0:0:
309,65,71499,1,0,0:0:0:0:
375,130,71666,5,6,0:3:0:0:
351,220,71833,1,4,0:3:0:0:
481,280,71999,2,0,B|450:277|450:277|375:321|375:321|304:321,1,146.999995513916,12|0,0:3|0:3,0:0:0:0:
323,348,72333,6,0,B|265:344|240:315|240:315|203:335|150:328,1,167.999994873047,6|8,1:3|0:3,0:0:0:0:
8,122,72833,1,8,0:3:0:0:
8,122,72999,2,0,P|77:111|82:209,1,167.999994873047,4|4,1:3|0:3,0:0:0:0:
20,235,73499,1,8,0:3:0:0:
113,306,73666,5,0,1:3:0:0:
113,306,73833,1,4,0:3:0:0:
29,365,73999,2,0,L|116:188,1,167.999994873047,8|4,0:3|0:3,0:0:0:0:
239,189,74499,1,4,0:3:0:0:
239,189,74666,1,8,1:3:0:0:
164,37,74833,1,4,1:3:0:0:
81,144,74999,6,0,L|220:98,1,125.999996154785,4|0,1:3|0:0,0:0:0:0:
226,85,75333,2,0,P|286:107|307:144,1,83.9999974365235,8|8,0:3|0:3,0:0:0:0:
459,235,75666,2,0,B|473:181|473:181|482:170|482:170|501:104,2,125.999996154785,4|0|8,1:3|1:3|1:3,0:0:0:0:
372,0,76333,6,0,L|387:161,1,125.999996154785,0|0,1:3|0:0,0:0:0:0:
370,150,76666,2,0,L|347:249,1,83.9999974365235,8|0,0:3|0:0,0:0:0:0:
388,372,76999,1,4,0:3:0:0:
473,333,77166,1,4,0:3:0:0:
386,384,77333,1,8,1:3:0:0:
471,345,77500,1,4,1:3:0:0:
280,254,77666,6,0,P|220:273|194:341,1,125.999996154785,2|0,0:3|0:0,0:0:0:0:
201,346,77999,1,8,0:3:0:0:
100,378,78166,1,8,0:3:0:0:
100,378,78249,1,8,0:3:0:0:
100,378,78333,1,4,0:3:0:0:
130,276,78499,1,4,0:3:0:0:
12,182,78666,2,0,L|38:313,1,125.999996154785,0|0,1:3|0:0,0:0:0:0:
47,320,78999,6,0,P|80:291|135:293,1,83.9999974365235,0|4,1:3|0:3,0:0:0:0:
206,192,79333,2,0,P|172:163|117:165,1,83.9999974365235,8|0,0:3|0:3,0:0:0:0:
92,8,79666,1,4,1:3:0:0:
92,8,79833,1,4,0:3:0:0:
0,110,79999,2,0,L|147:71,1,125.999996154785,8|0,1:3|0:3,0:0:0:0:
148,61,80333,5,4,0:3:0:0:
235,3,80499,1,4,0:3:0:0:
339,144,80666,2,0,P|266:160|226:88,1,167.999994873047,8|4,0:3|0:3,0:0:0:0:
482,13,81166,2,0,L|437:192,1,167.999994873047,4|8,0:3|0:3,0:0:0:0:
273,288,81666,5,4,0:3:0:0:
345,208,81833,1,4,0:3:0:0:
512,325,81999,2,0,P|433:301|312:283,1,167.999994873047,8|4,0:3|0:3,0:0:0:0:
178,376,82499,1,4,0:3:0:0:
178,376,82666,1,8,1:3:0:0:
280,335,82833,1,0,1:3:0:0:
101,287,82999,6,0,L|81:150,1,125.999996154785,6|0,1:3|0:0,0:0:0:0:
69,156,83333,1,8,0:3:0:0:
170,18,83499,1,8,0:3:0:0:
170,18,83583,1,8,0:3:0:0:
170,18,83666,2,0,P|244:16|249:110,1,167.999994873047,4|0,1:3|2:3,0:0:0:0:
155,144,84166,1,8,0:3:0:0:
243,243,84333,5,4,1:3:0:0:
243,243,84499,1,4,0:3:0:0:
155,228,84666,2,0,L|331:180,1,167.999994873047,8|4,0:3|0:3,0:0:0:0:
388,45,85166,2,0,P|348:68|319:98,1,83.9999974365235,4|8,1:3|0:3,0:0:0:0:
477,181,85499,2,0,P|422:155|383:152,1,83.9999974365235,4|4,1:3|0:3,0:0:0:0:
333,264,85833,5,4,0:3:0:0:
437,257,85999,1,8,1:3:0:0:
462,353,86166,1,8,1:3:0:0:
462,353,86249,1,8,0:3:0:0:
462,353,86333,2,0,L|344:339,1,83.9999974365235,4|0,1:3|1:3,0:0:0:0:
216,362,86666,1,0,1:3:0:0:
244,276,86833,1,8,1:3:0:0:
136,226,86999,6,0,L|153:324,1,83.9999974365235,0|4,1:3|0:3,0:0:0:0:
102,212,87333,2,0,L|119:310,1,83.9999974365235,8|0,1:3|0:3,0:0:0:0:
1,179,87666,2,0,L|44:9,1,167.999994873047,4|8,1:3|1:3,0:0:0:0:
180,14,88166,1,0,1:3:0:0:
155,138,88333,6,0,B|125:116|125:116|283:90,1,167.999994873047,6|8,1:3|1:3,0:0:0:0:
382,25,88833,1,8,0:3:0:0:
382,25,88916,1,8,0:3:0:0:
382,25,88999,2,0,P|361:87|326:214,1,167.999994873047,4|0,0:3|0:3,0:0:0:0:
512,277,89499,6,0,B|444:231|385:284|387:290|389:296|348:348|263:305,1,251.999992309571,8|8,1:3|1:3,0:0:0:0:
212,250,90166,1,0,1:3:0:0:
135,384,90333,2,0,L|110:296,1,83.9999974365235,4|4,1:3|0:3,0:0:0:0:
49,98,90666,2,0,L|14:175,1,83.9999974365235,8|0,0:3|0:0,0:0:0:0:
15,266,90999,5,4,1:3:0:0:
139,208,91166,1,4,0:3:0:0:
42,92,91333,2,0,P|80:75|148:60,1,83.9999974365235,8|4,0:3|0:3,0:0:0:0:
143,75,91583,1,4,0:3:0:0:
143,75,91666,1,8,0:3:0:0:
235,25,91833,1,4,0:3:0:0:
235,25,91916,1,4,0:3:0:0:
235,25,91999,1,8,0:3:0:0:
276,119,92166,1,4,0:3:0:0:
375,78,92333,6,0,L|366:22,3,35,8|8|8|8,0:3|0:3|0:3|0:3,0:0:0:0:
349,152,92666,1,10,0:3:0:0:
458,86,92833,1,10,0:3:0:0:
441,173,92999,1,8,0:3:0:0:
441,173,93166,1,8,0:3:0:0:
503,273,93333,2,0,L|375:303,1,105,6|0,0:3|0:0,0:0:0:0:
387,314,93666,6,0,L|257:289,1,105,6|0,0:3|0:3,0:0:0:0:
248,270,94000,2,0,L|268:362,1,70,8|4,1:3|1:3,0:0:0:0:
171,198,94333,1,0,1:3:0:0:
171,198,94500,1,4,1:3:0:0:
79,240,94667,2,0,P|108:283|148:294,1,70,12|4,1:3|0:3,0:0:0:0:
186,83,95000,6,0,L|97:108,1,70,4|4,1:3|0:3,0:0:0:0:
25,152,95333,1,8,1:3:0:0:
18,51,95500,1,4,1:3:0:0:
205,109,95667,6,0,L|328:133,1,105,6|0,1:3|0:3,0:0:0:0:
335,136,96001,2,0,L|317:50,1,70,8|4,1:3|1:3,0:0:0:0:
243,0,96333,1,0,1:3:0:0:
243,0,96500,1,4,1:3:0:0:
123,133,96667,2,0,P|143:174|189:188,1,70,12|4,1:3|0:3,0:0:0:0:
266,237,97000,1,4,1:3:0:0:
261,255,97083,1,4,0:3:0:0:
257,274,97166,1,4,0:3:0:0:
364,323,97333,2,0,P|394:346|406:378,1,70,12|4,0:3|0:3,0:0:0:0:
359,238,97667,6,0,L|489:263,1,115.50000352478,6|0,0:3|0:3,0:0:0:0:
498,282,98001,2,0,L|478:190,1,77.0000023498536,0|4,0:0|1:3,0:0:0:0:
411,142,98333,1,0,1:3:0:0:
411,142,98500,1,4,1:3:0:0:
497,0,98667,2,0,P|451:31|442:83,1,77.0000023498536,12|4,1:3|0:3,0:0:0:0:
244,76,99000,2,0,L|320:87,1,77.0000023498536,4|4,1:3|0:3,0:0:0:0:
504,153,99333,2,0,L|428:164,1,77.0000023498536,8|4,1:3|1:3,0:0:0:0:
287,320,99667,6,0,L|312:190,1,115.50000352478,6|0,1:3|0:3,0:0:0:0:
331,181,100001,2,0,L|239:201,1,77.0000023498536,0|4,0:0|1:3,0:0:0:0:
184,267,100333,1,0,1:3:0:0:
184,267,100500,1,4,1:3:0:0:
67,158,100667,2,0,P|68:196|91:227,1,77.0000023498536,12|4,1:3|0:3,0:0:0:0:
163,158,101000,1,4,1:3:0:0:
150,59,101166,1,4,0:3:0:0:
54,15,101333,6,0,L|224:47,1,136.499993751526,10|4,0:3|0:3,0:0:0:0:
223,12,101666,6,0,P|256:55|290:60,1,77.0000023498536,6|0,0:3|0:0,0:0:0:0:
372,24,102000,1,8,1:3:0:0:
372,24,102166,1,4,1:3:0:0:
503,76,102333,2,0,L|429:95,1,77.0000023498536,0|4,1:3|1:3,0:0:0:0:
393,244,102666,2,0,L|375:170,1,77.0000023498536,12|4,1:3|0:3,0:0:0:0:
301,359,103000,2,0,L|375:340,1,77.0000023498536,4|4,1:3|0:3,0:0:0:0:
411,190,103333,1,8,1:3:0:0:
429,264,103499,1,4,1:3:0:0:
288,250,103666,6,0,B|258:260|229:254|229:248|229:238|194:228|172:245,1,115.50000352478,6|0,1:3|0:3,0:0:0:0:
134,235,104000,2,0,P|96:283|104:321,1,77.0000023498536,8|4,1:3|1:3,0:0:0:0:
181,343,104333,1,0,1:3:0:0:
181,343,104500,1,4,1:3:0:0:
21,384,104666,2,0,L|2:310,1,77.0000023498536,12|4,1:3|0:3,0:0:0:0:
46,218,105000,1,4,1:3:0:0:
52,191,105083,1,4,0:3:0:0:
58,164,105166,1,4,0:3:0:0:
102,74,105333,2,0,L|83:0,1,77.0000023498536,8|4,1:3|1:3,0:0:0:0:
7,67,105666,6,0,L|142:103,1,115.50000352478,6|0,1:3|0:3,0:0:0:0:
148,107,106000,2,0,P|190:133|201:167,1,77.0000023498536,8|4,1:3|1:3,0:0:0:0:
142,230,106333,1,0,1:3:0:0:
142,230,106500,1,4,1:3:0:0:
223,333,106666,6,0,L|243:258,1,77.0000023498536,12|4,0:3|0:3,0:0:0:0:
61,303,107000,2,0,L|81:377,1,77.0000023498536,4|4,0:3|0:3,0:0:0:0:
257,319,107333,2,0,L|277:244,1,77.0000023498536,8|4,1:3|1:3,0:0:0:0:
421,173,107666,6,0,P|374:144|322:163,1,115.50000352478,6|0,1:3|0:3,0:0:0:0:
334,129,108000,2,0,L|313:54,1,77.0000023498536,8|4,1:3|1:3,0:0:0:0:
412,29,108333,1,0,1:3:0:0:
412,29,108500,1,4,1:3:0:0:
512,157,108666,2,0,L|491:231,1,77.0000023498536,10|4,1:3|1:3,0:0:0:0:
415,292,109000,2,0,P|400:270|394:246,2,51.3333348999024,8|8|8,0:3|0:3|0:3,0:0:0:0:
373,363,109333,2,0,P|347:357|325:345,2,51.3333348999024,8|8|8,0:3|0:3|0:3,0:0:0:0:
307,258,109667,6,0,L|287:133,2,115.50000352478,6|4|4,1:3|0:3|0:3,0:0:0:0:
201,370,110333,2,0,B|191:321|147:303|105:319|108:325|110:330|79:353|28:349|0:301,1,231.000007049561,4|4,1:3|1:3,0:0:0:0:
0,135,111000,6,0,P|52:228|156:191,1,231.000007049561,4|4,1:3|0:3,0:0:0:0:
157,178,111583,1,4,0:3:0:0:
157,178,111667,1,8,0:3:0:0:
94,90,111833,1,4,0:3:0:0:
216,18,112000,2,0,L|243:104,1,77.0000023498536,4|4,0:3|1:3,0:0:0:0:
200,17,112333,6,0,L|244:162,2,115.50000352478,4|4|4,1:3|0:3|0:3,0:0:0:0:
376,82,113000,2,0,P|341:114|298:100,1,77.0000023498536,8|0,1:3|0:0,0:0:0:0:
260,208,113333,2,0,P|282:246|327:250,1,77.0000023498536,4|0,1:3|0:3,0:0:0:0:
415,185,113667,5,8,0:3:0:0:
415,185,113750,1,8,0:3:0:0:
415,185,113833,1,10,0:3:0:0:
487,258,114000,2,0,L|461:355,1,77.0000023498536,2|4,0:3|0:3,0:0:0:0:
441,348,114250,1,4,0:3:0:0:
441,348,114333,2,0,L|387:333,3,38.5000011749268,12|8|8|8,0:3|0:3|0:3|0:3,0:0:0:0:
329,325,114667,2,0,L|274:341,3,38.5000011749268,8|8|8|8,0:3|0:3|0:3|0:3,0:0:0:0:
226,384,115000,6,0,L|121:365,1,77.0000023498536,6|0,1:3|0:0,0:0:0:0:
119,368,115250,2,0,L|74:282,1,77.0000023498536
141,244,115500,1,0,0:0:0:0:
3,175,115667,2,0,P|42:198|81:181,1,77.0000023498536,8|0,1:3|0:3,0:0:0:0:
152,157,116000,2,0,P|159:112|129:85,1,77.0000023498536,0|4,0:3|0:3,0:0:0:0:
18,73,116333,6,0,L|147:91,1,115.50000352478,8|0,1:3|0:3,0:0:0:0:
143,79,116667,2,0,P|179:43|227:29,1,77.0000023498536,0|4,1:3|0:3,0:0:0:0:
220,42,116916,1,4,0:3:0:0:
220,42,117000,1,8,0:3:0:0:
297,96,117166,1,0,0:3:0:0:
379,58,117333,1,0,0:3:0:0:
451,113,117500,1,0,0:3:0:0:
496,28,117666,6,0,P|471:97|449:220,1,192.500005874634,6|0,0:3|0:0,0:0:0:0:
467,230,118166,1,4,0:3:0:0:
423,300,118333,1,8,0:3:0:0:
337,263,118500,1,4,0:3:0:0:
382,363,118666,2,0,L|293:387,1,77.0000023498536,4|4,0:3|0:3,0:0:0:0:
171,327,119000,6,0,P|123:294|69:295,1,83.9999974365235,8|4,0:3|0:3,0:0:0:0:
81,301,119250,1,4,0:3:0:0:
81,301,119333,2,0,P|66:244|85:194,1,83.9999974365235,8|4,0:3|0:3,0:0:0:0:
147,152,119666,2,0,L|157:99,3,41.9999987182618,10|8|8|8,0:3|0:3|0:3|0:3,0:0:0:0:
99,56,120000,1,4,0:3:0:0:
96,47,120083,1,4,0:3:0:0:
93,38,120166,1,4,0:3:0:0:
90,29,120250,1,4,0:3:0:0:
88,22,120333,6,0,L|192:40,1,77.0000023498536,6|4,1:3|0:3,0:0:0:0:
241,51,120666,2,0,L|345:69,1,77.0000023498536,4|4,0:3|0:3,0:0:0:0:
512,165,121000,2,0,L|408:183,1,77.0000023498536,12|4,1:3|0:3,0:0:0:0:
359,194,121333,2,0,L|255:212,1,77.0000023498536,4|4,0:3|0:3,0:0:0:0:
159,323,121666,5,12,1:3:0:0:
159,323,121833,1,4,0:3:0:0:
287,384,122000,1,4,0:3:0:0:
287,384,122167,1,4,0:3:0:0:
419,309,122333,2,0,P|376:279|329:273,1,77.0000023498536,12|4,0:3|1:3,0:0:0:0:
249,305,122666,1,4,0:3:0:0:
167,242,122833,1,4,1:3:0:0:
126,372,123000,6,0,L|97:270,1,77.0000023498536,12|4,0:3|1:3,0:0:0:0:
16,249,123333,1,4,1:3:0:0:
87,186,123500,1,4,1:3:0:0:
28,111,123666,1,12,1:3:0:0:
28,111,123833,1,4,1:3:0:0:
187,4,124000,1,4,1:3:0:0:
143,123,124166,1,4,1:3:0:0:
324,19,124333,6,0,P|361:18|391:41,1,77.0000023498536,12|0,1:3|0:3,0:0:0:0:
264,154,124666,2,0,P|244:121|249:83,1,77.0000023498536,12|0,1:3|0:3,0:0:0:0:
435,118,125000,2,0,P|359:133|286:156,1,154.000004699707,12|0,1:3|1:3,0:0:0:0:
234,215,125500,1,0,1:3:0:0:
389,323,125666,6,0,P|401:277|299:252,1,154.000004699707,10|4,1:3|1:3,0:0:0:0:
303,311,126166,1,4,1:3:0:0:
210,379,126333,1,12,0:3:0:0:
217,291,126500,1,4,0:3:0:0:
217,291,126666,1,4,0:3:0:0:
0,294,126833,6,0,L|80:317,1,77.0000023498536,4|0,1:3|0:0,0:0:0:0:
117,381,127166,1,4,0:3:0:0:
27,212,127333,6,0,L|207:169,1,146.999995513916,6|0,0:3|0:3,0:0:0:0:
206,148,127666,1,12,0:3:0:0:
215,129,127750,1,8,0:3:0:0:
217,108,127833,1,8,0:3:0:0:
210,88,127916,1,8,0:3:0:0:
192,75,128000,2,0,L|169:15,3,35,12|8|8|8,0:3|0:3|0:3|0:3,0:0:0:0:
255,20,128333,6,0,P|301:-1|357:72,1,154.000004699707,14|4,1:3|0:3,0:0:0:0:
512,133,128833,2,0,P|466:112|410:185,1,154.000004699707,10|4,1:3|0:3,0:0:0:0:
352,292,129333,2,0,L|510:262,1,154.000004699707,10|0,1:3|0:3,0:0:0:0:
391,382,129833,1,4,0:3:0:0:
256,275,130000,2,0,P|273:223|314:200,1,77.0000023498536,8|0,1:3|0:0,0:0:0:0:
295,365,130333,2,0,L|181:343,1,115.50000352478,4|0,0:3|0:0,0:0:0:0:
155,314,130666,2,0,P|129:342|122:379,1,77.0000023498536,8|0,0:3|0:3,0:0:0:0:
84,259,131000,6,0,P|41:239|71:138,1,167.999994873047,14|4,1:3|0:3,0:0:0:0:
200,8,131500,2,0,P|243:28|213:129,1,167.999994873047,10|4,1:3|0:3,0:0:0:0:
149,177,132000,2,0,L|352:137,1,167.999994873047,10|4,1:3|0:3,0:0:0:0:
329,125,132416,1,0,0:3:0:0:
345,105,132500,1,10,0:3:0:0:
345,278,132666,2,0,P|294:274|255:229,1,83.9999974365235,14|12,0:3|0:3,0:0:0:0:
424,220,133000,5,8,0:3:0:0:
436,236,133083,1,8,0:3:0:0:
444,256,133166,1,8,0:3:0:0:
446,276,133250,1,8,0:3:0:0:
441,297,133333,2,0,P|427:336|407:352,3,45.4999979171754,12|8|8|8,0:3|0:3|0:3|0:3,0:0:0:0:
353,374,133666,6,0,L|277:359,2,77.0000023498536,14|4|4,0:3|0:3|0:3,0:0:0:0:
189,331,134166,2,0,L|239:272,2,77.0000023498536,12|4|4,1:3|0:3|0:3,0:0:0:0:
308,210,134667,5,12,1:3:0:0:
333,282,134833,1,4,0:3:0:0:
384,225,135000,1,4,0:3:0:0:
386,108,135166,1,12,1:3:0:0:
369,113,135250,1,0,0:0:0:0:
354,112,135333,2,0,P|337:72|357:22,1,77.0000023498536,4|4,0:3|0:3,0:0:0:0:
499,83,135666,6,0,L|485:159,1,77.0000023498536,12|4,1:3|0:3,0:0:0:0:
356,314,136000,2,0,L|341:238,1,77.0000023498536,12|4,1:3|0:3,0:0:0:0:
239,183,136333,5,14,1:3:0:0:
225,167,136416,1,8,0:3:0:0:
207,156,136499,1,8,0:3:0:0:
187,151,136583,1,8,0:3:0:0:
166,153,136666,1,8,0:3:0:0:
147,161,136749,1,8,0:3:0:0:
131,175,136833,6,0,P|118:208|121:238,1,41.9999987182618,10|8,1:3|0:3,0:0:0:0:
59,269,137000,2,0,L|82:325,3,41.9999987182618,8|8|8|8,0:3|0:3|0:3|0:3,0:0:0:0:
159,335,137333,2,0,L|136:391,3,41.9999987182618,10|8|8|8,1:3|0:3|0:3|0:3,0:0:0:0:
239,310,137666,6,0,B|296:350|378:380|512:357|540:230|407:152|323:207|322:255|325:285,1,420,10|0,1:3|0:0,0:0:0:0:
298,72,139000,6,0,L|426:98,1,125.999996154785,6|0,1:3|0:0,0:0:0:0:
449,77,139333,2,0,P|482:45|478:-4,1,83.9999974365235,8|0,0:3|0:3,0:0:0:0:
347,177,139666,6,0,L|368:281,1,83.9999974365235,4|4,1:3|0:3,0:0:0:0:
391,278,139916,1,0,1:3:0:0:
419,295,140000,2,0,L|501:278,1,83.9999974365235,8|0,0:0|1:3,0:0:0:0:
305,360,140333,6,0,P|266:376|206:311,1,125.999996154785,4|0,1:3|0:0,0:0:0:0:
199,294,140666,2,0,P|159:248|100:261,1,125.999996154785,8|0,1:3|0:0,0:0:0:0:
71,244,141000,2,0,L|91:336,1,83.9999974365235,4|4,1:3|0:3,0:0:0:0:
258,150,141333,2,0,L|275:67,1,83.9999974365235,8|0,1:3|0:0,0:0:0:0:
85,32,141666,6,0,P|56:80|153:99,1,167.999994873047,6|8,0:3|0:3,0:0:0:0:
280,43,142166,1,0,0:3:0:0:
363,117,142333,1,4,1:3:0:0:
359,137,142416,1,4,0:0:0:0:
355,158,142499,1,4,0:3:0:0:
458,64,142666,2,0,P|433:31|394:18,1,83.9999974365235,8|0,0:0|1:3,0:0:0:0:
462,204,143000,6,0,B|509:160|509:160|515:125,1,83.9999974365235,4|0,1:3|0:3,0:0:0:0:
394,292,143333,2,0,B|458:295|458:295|487:275,1,83.9999974365235,8|0,1:3|0:3,0:3:0:0:
283,306,143666,2,0,B|326:353|326:353|361:360,1,83.9999974365235,4|4,1:3|0:3,0:0:0:0:
194,237,144000,2,0,B|190:301|190:301|210:330,1,83.9999974365235,8|0,1:3|0:3,0:3:0:0:
335,195,144333,6,0,P|368:157|291:98,1,167.999994873047,6|8,1:3|0:3,0:0:0:0:
208,66,144833,1,0,1:3:0:0:
96,170,145000,5,0,0:0:0:0:
175,143,145166,1,4,1:3:0:0:
58,6,145333,2,0,P|93:26|103:65,1,83.9999974365235,8|0,1:3|1:3,0:0:0:0:
45,244,145666,6,0,P|9:223|0:184,1,83.9999974365235,4|0,1:3|1:3,0:0:0:0:
96,170,146000,2,0,L|66:326,1,125.999996154785,8|0,1:3|0:0,0:0:0:0:
104,302,146333,2,0,L|119:384,1,83.9999974365235,4|4,0:3|1:3,0:0:0:0:
274,351,146666,2,0,L|289:268,1,83.9999974365235,8|0,0:3|0:0,0:0:0:0:
189,154,147000,6,0,B|228:180|269:166|269:159|272:153|309:130|373:163,1,167.999994873047,6|8,0:3|0:3,0:0:0:0:
408,214,147500,1,4,0:3:0:0:
512,53,147666,1,8,0:3:0:0:
413,28,147833,2,0,L|428:115,1,83.9999974365235,4|4,0:3|0:3,0:0:0:0:
491,332,148166,6,0,L|513:199,1,125.999996154785,6|0,1:3|0:3,0:0:0:0:
485,187,148500,1,0,1:3:0:0:
402,200,148666,1,2,1:3:0:0:
363,274,148833,1,0,1:3:0:0:
396,350,149000,2,0,P|416:383|440:394,3,41.9999987182618,10|8|8|8,0:3|0:3|0:3|0:3,0:0:0:0:
311,340,149333,5,12,0:3:0:0:
289,317,149416,1,8,0:3:0:0:
259,307,149499,1,8,0:3:0:0:
229,313,149583,1,8,0:3:0:0:
204,332,149666,6,0,L|104:353,1,70,14|4,1:3|0:3,0:0:0:0:
7,186,150000,2,0,P|48:203|82:274,1,105,4|0,0:3|0:0,0:0:0:0:
106,242,150333,1,12,1:3:0:0:
184,211,150500,1,4,1:3:0:0:
219,135,150666,1,4,1:3:0:0:
188,57,150833,1,4,1:3:0:0:
297,186,151000,6,0,L|281:277,1,70,12|4,1:3|0:3,0:0:0:0:
371,177,151333,2,0,L|424:252,1,70,4|4,1:3|0:3,0:0:0:0:
416,118,151666,2,0,L|507:134,1,70,12|4,1:3|0:3,0:0:0:0:
406,44,152000,2,0,L|481:-9,1,70,4|4,1:3|0:3,0:0:0:0:
314,87,152333,5,12,1:3:0:0:
314,87,152500,1,4,0:3:0:0:
168,47,152666,2,0,L|210:177,1,105,4|0,0:3|0:0,0:0:0:0:
181,177,153000,2,0,P|135:198|86:182,1,105,12|0,1:3|0:0,0:0:0:0:
66,151,153333,1,4,1:3:0:0:
1,299,153500,1,4,1:3:0:0:
1,299,153583,1,0,0:0:0:0:
0,298,153666,6,0,P|46:276|87:288,1,70,12|4,1:3|0:3,0:0:0:0:
192,384,154000,2,0,P|150:353|139:313,1,70,4|4,1:3|0:3,0:0:0:0:
1,287,154333,2,0,P|47:265|88:277,1,70,12|4,1:3|0:3,0:0:0:0:
201,378,154667,2,0,P|159:347|148:307,1,70,4|4,1:3|0:3,0:0:0:0:
180,160,155000,6,0,P|174:211|145:240,2,70,14|0|4,1:3|0:0|0:3,0:0:0:0:
131,91,155500,1,4,1:3:0:0:
245,3,155666,2,0,L|231:78,1,70,12|4,0:3|1:3,0:0:0:0:
335,180,156000,2,0,L|322:111,1,70,4|4,1:3|1:3,0:0:0:0:
463,36,156333,5,12,1:3:0:0:
448,118,156500,1,4,1:3:0:0:
434,200,156666,1,4,1:3:0:0:
451,196,156749,1,4,0:3:0:0:
468,193,156833,1,4,0:3:0:0:
343,276,157000,6,0,P|309:260|274:263,1,70,12|4,0:3|1:3,0:0:0:0:
445,322,157333,2,0,P|479:306|513:309,1,70,0|0,0:0|1:3,0:0:0:0:
319,376,157666,5,14,1:3:0:0:
291,380,157749,1,8,0:3:0:0:
265,372,157832,1,8,0:3:0:0:
245,352,157916,1,8,0:3:0:0:
235,326,158000,2,0,L|244:274,3,35,14|8|8|8,0:3|0:3|0:3|0:3,0:0:0:0:
293,226,158333,5,14,0:3:0:0:
297,198,158416,1,8,0:3:0:0:
289,172,158499,1,8,0:3:0:0:
269,152,158583,1,8,0:3:0:0:
243,142,158667,2,0,L|208:148,3,35,14|8|8|8,0:3|0:3|0:3|0:3,0:0:0:0:
143,202,159000,1,14,0:3:0:0:
71,158,159166,1,4,0:3:0:0:
61,143,159250,1,0,0:3:0:0:
58,125,159333,2,0,P|68:85|107:60,1,70,4|4,0:3|0:3,0:0:0:0:
163,28,159666,5,4,0:3:0:0:
180,30,159749,1,0,0:3:0:0:
197,32,159832,1,8,0:3:0:0:
214,35,159916,1,8,0:3:0:0:
232,37,159999,1,8,0:3:0:0:
249,40,160082,1,8,0:3:0:0:
266,42,160166,1,8,0:3:0:0:
284,45,160249,1,8,0:3:0:0:
301,47,160333,6,0,L|320:151,1,97.9999970092774,6|8,0:3|0:3,0:0:0:0:
313,157,160833,1,4,0:3:0:0:
446,283,161166,1,4,0:3:0:0:
446,283,161333,2,0,L|465:169,1,97.9999970092774,8|0,0:3|0:0,0:0:0:0:
396,348,161833,5,4,0:3:0:0:
396,348,162000,2,0,L|282:367,1,97.9999970092774,8|4,0:3|0:3,0:0:0:0:
44,312,162666,1,8,0:3:0:0:
44,312,162833,2,0,P|71:276|121:276,1,97.9999970092774,4|4,0:3|0:3,0:0:0:0:
211,357,163333,2,0,L|187:201,1,146.999995513916,8|4,0:3|0:3,0:0:0:0:
26,103,164000,1,8,0:3:0:0:
33,117,164333,6,0,B|74:139|110:120|108:114|108:111|132:87|190:100,1,146.999995513916,6|4,0:3|0:3,0:0:0:0:
302,11,165166,1,4,0:3:0:0:
302,11,165333,2,0,P|274:77|272:119,1,97.9999970092774,8|0,0:3|0:0,0:0:0:0:
422,100,165833,5,4,0:3:0:0:
422,100,166000,2,0,P|355:126|324:155,1,97.9999970092774,8|4,0:3|0:3,0:0:0:0:
241,256,166666,1,8,0:3:0:0:
241,256,166833,6,0,B|269:271|269:271|337:249,1,97.9999970092774,4|4,0:3|0:3,0:0:0:0:
478,357,167333,2,0,L|312:325,1,146.999995513916,8|4,0:3|0:3,0:0:0:0:
210,358,168000,2,0,L|158:368,1,42,10|0,0:3|0:0,0:0:0:0:
61,361,168333,5,14,0:3:0:0:
0,237,168500,1,12,0:3:0:0:
120,163,168666,2,0,L|113:128,3,35,12|4|4|4,0:3|0:3|0:3|0:3,0:0:0:0:
94,45,169000,2,0,L|128:51,3,35,12|4|4|4,0:3|0:3|0:3|0:3,0:0:0:0:
203,67,169333,2,0,L|237:73,3,35,12|4|4|4,0:3|0:3|0:3|0:3,0:0:0:0:
305,35,169666,5,12,0:3:0:0:
376,105,169833,1,8,0:3:0:0:
323,196,170000,1,8,0:3:0:0:
313,205,170083,1,8,0:3:0:0:
305,216,170166,1,8,0:3:0:0:
301,229,170250,1,8,0:3:0:0:
299,242,170333,2,0,P|351:222|403:212,1,105,14|4,0:3|0:3,0:0:0:0:
424,209,170666,2,0,P|440:186|450:159,3,35,12|4|4|4,0:3|0:3|0:3|0:3,0:0:0:0:
485,270,171000,6,0,L|492:356,1,70,12|4,0:3|0:3,0:0:0:0:
406,384,171333,2,0,L|340:340,1,70,12|4,0:3|0:3,0:0:0:0:
252,311,171666,1,12,0:3:0:0:
238,306,171750,1,8,0:3:0:0:
224,302,171833,1,8,0:3:0:0:
153,340,172000,1,8,0:3:0:0:
139,345,172084,1,8,0:3:0:0:
125,349,172167,1,8,0:3:0:0:
50,324,172333,6,0,L|75:151,1,146.999995513916,14|4,0:3|0:3,0:0:0:0:
45,104,172666,2,0,L|30:46,3,48.9999985046387,12|4|4|4,0:3|0:3|0:3|0:3,0:0:0:0:
127,102,173000,2,0,L|112:44,3,48.9999985046387,12|4|4|4,0:3|0:3|0:3|0:3,0:0:0:0:
203,161,173333,1,12,0:3:0:0:
203,161,173416,1,4,0:3:0:0:
202,160,173500,2,0,L|218:113,1,48.9999985046387,4|4,0:3|0:3,0:0:0:0:
259,50,173666,5,12,0:3:0:0:
270,43,173750,1,8,0:3:0:0:
279,39,173833,1,8,0:3:0:0:
289,38,173916,1,8,0:3:0:0:
299,38,174000,2,0,L|316:99,3,35,8|8|8|8,0:3|0:3|0:3|0:3,0:0:0:0:
300,147,174333,5,14,0:3:0:0:
462,86,174499,1,12,0:3:0:0:
509,243,174666,2,0,L|452:230,3,52.5000020027161,12|4|4|4,0:3|0:3|0:3|0:3,0:0:0:0:
428,303,174999,2,0,L|371:290,3,52.5000020027161,12|4|4|4,0:3|0:3|0:3|0:3,0:0:0:0:
347,363,175332,6,0,L|290:350,3,52.5000020027161,12|4|4|4,0:3|0:3|0:3|0:3,0:0:0:0:
251,286,175666,1,8,0:3:0:0:
222,272,175749,1,8,0:3:0:0:
191,276,175832,1,12,0:3:0:0:
168,298,175916,1,12,0:3:0:0:
160,328,175999,1,12,0:3:0:0:
150,342,176082,1,12,0:3:0:0:
133,349,176166,1,12,0:3:0:0:
115,348,176249,1,12,0:3:0:0:
98,342,176332,6,0,L|76:174,1,140,14|0,0:3|1:3,0:0:0:0:
0,28,176832,2,0,P|-4:65|9:97,1,70,0|8,1:3|0:3,0:0:0:0:
20,105,177082,1,8,0:3:0:0:
34,115,177166,1,8,0:3:0:0:
51,118,177249,1,8,0:3:0:0:
68,115,177332,6,0,L|146:106,1,70,14|0,1:3|0:0,0:0:0:0:
212,23,177666,1,0,1:3:0:0:
212,23,177832,1,0,1:3:0:0:
246,128,177999,1,8,0:3:0:0:
254,143,178082,1,8,0:3:0:0:
267,154,178166,1,8,0:3:0:0:
282,162,178249,1,8,0:3:0:0:
299,165,178332,6,0,P|337:148|308:64,1,140,14|0,1:3|1:3,0:0:0:0:
425,0,178832,2,0,P|458:17|476:47,1,70,0|12,1:3|0:3,0:0:0:0:
476,61,179082,1,12,0:3:0:0:
472,79,179166,1,12,0:3:0:0:
462,94,179249,1,12,0:3:0:0:
447,105,179332,5,14,1:3:0:0:
358,125,179499,1,0,0:0:0:0:
302,197,179666,5,0,1:3:0:0:
391,217,179833,1,0,1:3:0:0:
246,309,179999,5,4,0:3:0:0:
335,289,180166,1,4,0:3:0:0:
440,362,180332,6,0,L|302:381,1,140,6|0,1:3|1:3,0:0:0:0:
202,384,180832,2,0,P|167:359|162:308,1,70,0|8,1:3|0:3,0:0:0:0:
153,303,181082,1,8,0:3:0:0:
163,272,181166,1,8,0:3:0:0:
181,246,181249,1,8,0:3:0:0:
209,232,181332,6,0,L|56:251,1,154.000004699707,14|0,1:3|1:3,0:0:0:0:
195,112,181832,2,0,L|271:121,1,77.0000023498536,0|8,1:3|0:3,0:0:0:0:
301,139,182082,1,8,0:3:0:0:
322,166,182166,1,8,0:3:0:0:
332,198,182249,1,8,0:3:0:0:
328,232,182332,6,0,L|308:384,1,154.000004699707,14|0,0:3|1:3,0:0:0:0:
427,360,182832,2,0,P|395:315|400:280,1,77.0000023498536,0|8,1:3|1:3,0:0:0:0:
408,263,183082,1,8,0:3:0:0:
435,241,183166,1,8,0:3:0:0:
469,238,183249,1,8,0:3:0:0:
497,257,183332,6,0,L|477:104,1,154.000004699707,14|4,0:3|1:3,0:0:0:0:
396,17,183832,1,4,1:3:0:0:
396,17,183999,1,4,0:3:0:0:
374,99,184166,1,4,0:3:0:0:
298,136,184332,5,6,0:3:0:0:
271,132,184416,1,4,0:3:0:0:
244,129,184499,2,0,L|201:121,2,38.5000011749268,4|4|4,0:3|0:3|1:3,0:0:0:0:
164,48,184832,1,4,1:3:0:0:
42,293,185332,5,6,0:3:0:0:
69,289,185416,1,4,0:3:0:0:
96,286,185499,2,0,L|139:278,2,38.5000011749268,4|4|4,0:3|0:3|1:3,0:0:0:0:
176,205,185832,1,4,1:3:0:0:
298,136,186332,5,6,0:3:0:0:
271,132,186416,1,4,0:3:0:0:
244,129,186499,2,0,L|201:121,2,38.5000011749268,4|4|4,0:3|0:3|1:3,0:0:0:0:
164,48,186832,1,4,1:3:0:0:
42,293,187332,5,6,0:3:0:0:
69,289,187416,1,4,0:3:0:0:
96,286,187499,2,0,L|139:278,2,38.5000011749268,4|4|4,0:3|0:3|1:3,0:0:0:0:
176,205,187832,1,4,1:3:0:0:
207,384,187999,1,10,1:3:0:0:
265,325,188166,2,0,L|308:317,1,38.5000011749268,10|0,1:3|0:3,0:0:0:0:
372,260,188332,5,6,0:3:0:0:
399,264,188416,1,4,0:3:0:0:
426,267,188499,2,0,L|469:275,2,38.5000011749268,4|4|4,0:3|0:3|1:3,0:0:0:0:
506,348,188832,1,4,1:3:0:0:
415,126,189332,5,6,0:3:0:0:
388,130,189416,1,4,0:3:0:0:
361,133,189499,2,0,L|318:141,2,38.5000011749268,4|4|4,0:3|0:3|1:3,0:0:0:0:
281,214,189832,1,4,1:3:0:0:
372,260,190332,5,6,0:3:0:0:
399,264,190416,1,4,0:3:0:0:
426,267,190499,2,0,L|469:275,2,38.5000011749268,4|4|4,0:3|0:3|1:3,0:0:0:0:
506,348,190832,1,4,1:3:0:0:
415,126,191332,5,6,0:3:0:0:
388,130,191416,1,4,0:3:0:0:
361,133,191499,2,0,L|318:141,2,38.5000011749268,4|4|4,0:3|0:3|1:3,0:0:0:0:
281,214,191832,1,4,1:3:0:0:
250,35,191999,1,8,0:3:0:0:
192,94,192166,2,0,L|149:102,1,38.5000011749268,8|8,0:3|0:3,0:0:0:0:
34,45,192333,6,0,P|66:113|91:216,1,167.999994873047,14|8,1:3|0:3,0:0:0:0:
73,363,192833,2,0,B|54:359|29:366|29:366|86:313|164:307,1,167.999994873047,6|4,1:3|0:3,0:0:0:0:
259,364,193333,2,0,P|309:375|339:280,1,167.999994873047,8|4,0:3|0:3,0:0:0:0:
258,248,193833,1,4,0:3:0:0:
334,162,193999,2,0,P|355:125|367:75,1,83.9999974365235,8|0,0:3|0:0,0:0:0:0:
453,100,194333,2,0,P|441:58|414:15,1,83.9999974365235,4|0,0:3|0:0,0:0:0:0:
342,2,194666,1,10,1:3:0:0:
443,187,194999,6,0,P|282:225|242:237,1,167.999994873047,6|4,1:3|0:3,0:0:0:0:
101,45,195499,2,0,P|76:95|158:105,1,167.999994873047,8|4,0:3|0:3,0:0:0:0:
264,23,195999,2,0,P|235:111|188:257,1,209.999993591309,8|0,0:3|0:0,0:0:0:0:
196,245,196499,5,10,0:3:0:0:
25,221,196666,2,0,P|68:260|86:288,1,70,14|4,0:3|0:3,0:0:0:0:
76,291,196916,1,4,0:3:0:0:
75,304,196999,2,0,L|58:353,3,35,8|8|8|8,0:3|0:3|0:3|0:3,0:0:0:0:
133,375,197333,1,8,0:3:0:0:
143,376,197416,1,8,0:3:0:0:
153,374,197499,1,8,0:3:0:0:
162,368,197583,1,8,0:3:0:0:
170,361,197666,6,0,L|276:381,2,77.0000023498536,12|4|4,0:3|0:3|0:3,0:0:0:0:
273,224,198166,2,0,L|379:204,2,77.0000023498536,12|4|4,1:3|0:3|0:3,0:0:0:0:
443,384,198666,1,12,1:3:0:0:
455,306,198833,1,4,0:3:0:0:
382,279,198999,1,4,0:3:0:0:
295,136,199166,5,12,1:3:0:0:
283,58,199333,1,4,0:3:0:0:
356,31,199499,1,4,0:3:0:0:
459,84,199666,6,0,L|370:128,1,77.0000023498536,12|4,1:3|0:3,0:0:0:0:
273,224,199999,2,0,L|184:180,1,77.0000023498536,4|0,0:3|0:3,0:0:0:0:
121,94,200333,5,10,1:3:0:0:
101,91,200416,1,8,0:3:0:0:
82,95,200499,1,8,0:3:0:0:
65,105,200583,1,8,0:3:0:0:
53,120,200666,1,8,0:3:0:0:
46,138,200749,1,8,0:3:0:0:
48,157,200833,2,0,L|61:217,1,38.5000011749268,10|8,1:3|0:3,0:0:0:0:
113,246,200999,2,0,L|103:293,3,38.5000011749268,8|8|8|8,0:3|0:3|0:3|0:3,0:0:0:0:
43,330,201333,2,0,L|53:377,3,38.5000011749268,10|8|8|8,1:3|0:3|0:3|0:3,0:0:0:0:
127,378,201666,6,0,P|153:341|257:342,1,140,10|0,1:3|0:3,0:0:0:0:
261,349,202166,2,0,P|277:361|293:366,1,28,4|4,0:3|0:3,0:0:0:0:
361,375,202333,1,8,0:3:0:0:
370,370,202416,1,8,0:3:0:0:
377,363,202499,1,8,0:3:0:0:
383,354,202583,1,8,0:3:0:0:
387,344,202666,2,0,L|368:247,1,70,8|0,0:3|0:0,0:0:0:0:
460,116,202999,5,12,0:3:0:0:
460,116,203166,1,12,0:3:0:0:
274,13,204333,5,12,0:3:0:0:
274,13,204500,1,4,0:3:0:0:
193,206,205666,5,12,0:3:0:0:
193,206,205833,1,4,0:3:0:0:
10,125,206666,5,2,1:3:0:0:
19,113,206999,6,0,P|88:140|123:165,1,97.9999970092774,2|0,1:3|0:0,0:0:0:0:
181,87,207499,2,0,L|196:130,1,24.4999992523194,4|4,0:3|0:3,0:0:0:0:
223,121,207666,6,0,P|235:142|244:164,1,48.9999985046387,8|0,1:3|0:3,0:0:0:0:
327,185,207999,2,0,L|309:295,1,97.9999970092774,0|2,1:3|0:3,0:0:0:0:
336,302,208832,5,4,1:3:0:0:
422,231,208999,2,0,P|441:217|466:216,1,48.9999985046387,8|0,0:3|1:3,0:0:0:0:
512,323,209332,2,0,P|494:306|470:301,1,48.9999985046387,4|0,1:3|1:3,0:0:0:0:
332,384,209666,6,0,P|307:383|287:369,1,48.9999985046387,4|4,1:3|1:3,0:0:0:0:
209,384,209999,2,0,P|192:366|187:342,1,48.9999985046387,8|0,1:3|0:3,0:0:0:0:
274,236,210332,6,0,P|249:236|229:250,1,48.9999985046387,8|8,0:3|1:3,0:0:0:0:
151,236,210665,2,0,P|134:253|129:277,1,48.9999985046387,4|0,0:3|0:0,0:0:0:0:
0,343,210999,6,0,L|155:371,1,146.999995513916,2|4,0:3|0:3,0:0:0:0:
234,192,211666,1,8,0:3:0:0:
162,147,211832,2,0,L|65:164,1,97.9999970092774,4|4,0:3|1:3,0:0:0:0:
56,155,212249,1,4,0:3:0:0:
44,144,212332,5,8,0:3:0:0:
142,35,212499,2,0,L|191:45,1,31.4999990386963,4|4,1:3|0:3,0:0:0:0:
207,19,212666,2,0,L|261:95,1,62.9999980773926,8|0,1:3|1:3,0:0:0:0:
352,137,212999,2,0,P|380:153|407:154,3,31.4999990386963,8|8|8|8,0:3|0:3|0:3|0:3,0:0:0:0:
410,156,213332,1,8,0:3:0:0:
443,145,213416,1,8,0:3:0:0:
465,118,213499,1,8,0:3:0:0:
474,84,213582,1,8,0:3:0:0:
457,48,213666,6,0,L|338:68,1,83.9999974365235,14|0,0:3|0:0,0:0:0:0:
300,252,213999,2,0,L|382:265,1,83.9999974365235,8|0,0:3|0:3,0:0:0:0:
224,302,214332,2,0,P|206:257|229:205,1,83.9999974365235,4|4,1:3|0:3,0:0:0:0:
235,197,214582,1,0,1:3:0:0:
256,170,214666,2,0,P|263:129|246:91,1,83.9999974365235,8|0,0:0|1:3,0:0:0:0:
57,49,214999,6,0,L|78:132,1,83.9999974365235,4|0,1:3|0:3,0:0:0:0:
14,231,215332,2,0,L|87:274,1,83.9999974365235,8|0,1:3|0:3,0:0:0:0:
239,363,215666,6,0,L|157:383,1,83.9999974365235,4|4,1:3|0:3,0:0:0:0:
132,268,215999,2,0,L|59:224,1,83.9999974365235,8|0,1:3|0:0,0:0:0:0:
167,66,216332,5,4,1:3:0:0:
167,66,216499,1,4,0:3:0:0:
235,197,216666,1,12,1:3:0:0:
315,73,216832,1,0,1:3:0:0:
301,42,216915,1,0,0:3:0:0:
272,20,216999,2,0,L|384:38,1,83.9999974365235,4|0,1:3|0:3,0:0:0:0:
512,98,217332,2,0,B|477:120|477:120|429:111,1,83.9999974365235,0|0,0:0|1:3,0:0:0:0:
463,3,217666,5,4,1:3:0:0:
463,3,217832,1,0,0:3:0:0:
411,203,217999,2,0,P|353:172|340:139,1,83.9999974365235,8|0,1:3|0:3,0:0:0:0:
377,85,218332,5,4,0:3:0:0:
377,85,218498,1,4,0:3:0:0:
429,285,218665,2,0,P|487:254|500:221,1,83.9999974365235,8|0,0:3|0:0,0:0:0:0:
255,192,218999,6,0,L|285:394,1,167.999994873047,6|8,0:3|0:3,0:0:0:0:
141,292,219499,1,0,1:3:0:0:
80,185,219666,2,0,L|164:205,1,83.9999974365235,4|4,0:3|1:3,0:0:0:0:
273,80,219999,2,0,P|228:75|191:99,1,83.9999974365235,8|0,1:3|1:3,0:0:0:0:
61,165,220332,6,0,L|145:185,1,83.9999974365235,4|0,1:3|1:3,0:0:0:0:
195,369,220666,2,0,L|350:332,1,125.999996154785,8|0,1:3|0:0,0:0:0:0:
343,318,220999,2,0,P|370:281|369:238,1,83.9999974365235,4|4,0:3|0:3,0:0:0:0:
248,157,221332,1,8,0:3:0:0:
277,258,221499,1,4,0:3:0:0:
463,176,221666,5,8,0:3:0:0:
496,90,221832,1,4,0:3:0:0:
483,63,221916,1,4,0:3:0:0:
457,48,221999,2,0,P|402:55|372:107,1,83.9999974365235,8|4,0:3|0:3,0:0:0:0:
363,64,222249,1,4,0:3:0:0:
344,55,222332,1,8,0:3:0:0:
166,58,222499,5,4,0:3:0:0:
171,78,222582,1,4,0:3:0:0:
176,98,222666,2,0,L|284:123,1,83.9999974365235,8|4,0:3|0:3,0:0:0:0:
353,187,222999,5,8,0:3:0:0:
369,213,223082,1,8,0:3:0:0:
370,244,223165,1,8,0:3:0:0:
355,271,223249,1,8,0:3:0:0:
328,287,223332,2,0,L|278:296,1,41.9999987182618,8|8,0:3|0:3,0:0:0:0:
245,361,223499,2,0,L|203:332,1,35,8|8,0:3|0:3,0:0:0:0:
135,314,223666,2,0,L|108:202,2,105,8|8|8,0:3|0:3|0:3,0:0:0:0:
23,376,224332,6,0,L|-1:383,7,24.4999992523194,6|4|4|0|4|4|0|4,1:3|0:3|0:3|0:0|0:3|0:3|0:0|0:3,0:0:0:0:
37,368,224999,2,0,L|24:212,1,146.999995513916,12|0,1:3|0:0,0:0:0:0:
99,26,225666,6,0,L|75:19,7,24.4999992523194,4|4|4|4|4|4|4|4,1:3|0:3|0:3|0:3|0:3|0:3|0:3|0:3,0:0:0:0:
113,34,226333,2,0,L|100:190,1,146.999995513916,12|0,1:3|0:0,0:0:0:0:
243,353,226999,6,0,L|257:383,7,24.4999992523194,4|4|4|4|4|4|4|4,1:3|0:3|0:3|0:3|0:3|0:3|0:3|0:3,0:0:0:0:
226,337,227666,2,0,L|391:299,1,146.999995513916,12|0,1:3|0:0,0:0:0:0:
481,263,228332,5,4,1:3:0:0:
484,253,228416,1,4,0:3:0:0:
487,243,228499,1,4,0:3:0:0:
490,233,228582,1,4,0:3:0:0:
494,223,228666,2,0,L|485:190,3,24.4999992523194,4|4|4|4,1:3|0:3|0:3|0:3,0:0:0:0:
416,165,228999,1,12,1:3:0:0:
354,122,229166,1,8,0:3:0:0:
305,32,229332,1,8,1:3:0:0:
228,28,229499,1,8,0:3:0:0:
149,159,229666,6,0,L|158:182,7,24.4999992523194,14|4|4|4|4|4|4|4,1:3|0:3|0:3|0:3|0:3|0:3|0:3|0:3,0:0:0:0:
151,142,230332,2,0,L|303:184,1,146.999995513916,12|0,0:3|0:0,0:0:0:0:
504,85,230999,6,0,L|495:108,7,24.4999992523194,4|4|4|4|4|4|4|4,1:3|0:3|0:3|0:3|0:3|0:3|0:3|0:3,0:0:0:0:
502,68,231665,2,0,L|350:110,1,146.999995513916,12|0,0:3|0:0,0:0:0:0:
244,274,232332,6,0,L|240:250,7,24.4999992523194,4|4|4|0|4|4|0|4,1:3|0:3|0:3|0:0|0:3|0:3|0:0|0:3,0:0:0:0:
235,289,232999,2,0,L|83:247,1,146.999995513916,12|0,0:3|0:0,0:0:0:0:
30,163,233666,5,6,1:3:0:0:
28,152,233749,1,4,0:3:0:0:
26,141,233832,1,4,1:3:0:0:
24,130,233916,1,4,0:3:0:0:
22,119,233999,1,6,1:3:0:0:
64,41,234166,1,4,1:3:0:0:
150,69,234332,2,0,L|199:59,3,35,12|8|8|8,0:3|0:3|0:3|0:3,0:0:0:0:
219,132,234666,2,0,L|267:155,1,41.9999987182618,8|8,1:3|0:3,0:0:0:0:
311,41,234832,2,0,L|358:9,1,41.9999987182618,8|8,0:3|0:3,0:0:0:0:
475,66,234999,6,0,P|443:138|420:235,1,167.999994873047,14|8,1:3|0:3,0:0:0:0:
478,352,235499,1,0,0:3:0:0:
478,352,235666,1,4,1:3:0:0:
342,375,235832,1,4,1:3:0:0:
254,244,235999,2,0,P|220:208|177:175,1,83.9999974365235,8|0,1:3|1:3,0:0:0:0:
15,253,236332,6,0,P|-7:297|16:340,1,83.9999974365235,4|0,1:3|0:3,0:0:0:0:
80,325,236666,2,0,P|113:361|162:353,1,83.9999974365235,8|0,1:3|0:3,0:0:0:0:
254,244,236999,2,0,P|288:207|336:216,1,83.9999974365235,4|4,1:3|0:3,0:0:0:0:
343,281,237333,2,0,P|388:300|395:349,1,83.9999974365235,8|0,1:3|0:3,0:0:0:0:
258,377,237666,6,0,P|224:258|176:124,1,251.999992309571,4|0,1:3|0:3,0:0:0:0:
39,24,238332,1,4,1:3:0:0:
94,105,238499,1,4,1:3:0:0:
217,47,238666,1,8,1:3:0:0:
293,64,238832,1,0,1:3:0:0:
445,22,238999,6,0,P|411:48|355:76,1,83.9999974365235,4|0,1:3|0:3,0:0:0:0:
477,106,239332,2,0,P|460:152|450:205,1,83.9999974365235,8|0,1:3|0:3,0:0:0:0:
317,144,239666,2,0,P|269:152|211:149,1,83.9999974365235,4|4,1:3|0:3,0:0:0:0:
394,254,239999,2,0,P|394:302|403:355,1,83.9999974365235,8|0,1:3|0:3,0:0:0:0:
249,384,240332,6,0,B|226:316|153:321|155:330|157:336|76:372|46:306,1,209.999993591309,6|0,1:3|0:0,0:0:0:0:
45,322,240832,2,0,P|73:248|76:150,1,167.999994873047,0|4,1:3|1:3,0:0:0:0:
44,36,241332,1,8,1:3:0:0:
173,22,241499,1,0,1:3:0:0:
235,154,241666,5,4,1:3:0:0:
170,220,241832,1,0,1:3:0:0:
257,142,241999,2,0,B|322:122|354:172|350:177|346:184|365:232|445:217,1,209.999993591309,8|0,1:3|0:0,0:0:0:0:
452,207,242499,1,4,1:3:0:0:
496,338,242666,2,0,P|438:310|388:293,1,83.9999974365235,8|0,0:3|1:3,0:0:0:0:
273,280,242999,6,0,P|235:313|238:356,1,83.9999974365235,4|0,1:3|0:3,0:0:0:0:
306,374,243332,1,8,0:3:0:0:
236,205,243499,2,0,P|185:206|160:241,1,83.9999974365235,0|4,1:3|0:3,0:0:0:0:
141,306,243832,1,4,0:3:0:0:
38,212,243999,2,0,L|-3:190,3,41.9999987182618,12|4|4|4,0:3|0:3|0:3|0:3,0:0:0:0:
63,210,244332,5,12,0:3:0:0:
93,195,244416,1,8,0:3:0:0:
112,167,244499,1,8,0:3:0:0:
116,133,244582,1,8,0:3:0:0:
105,100,244666,1,12,0:3:0:0:
77,80,244749,1,8,0:3:0:0:
61,60,244832,1,8,0:3:0:0:
57,34,244916,1,8,0:3:0:0:
69,17,244999,6,0,L|120:26,3,41.9999987182618,12|8|8|8,0:3|0:3|0:3|0:3,0:0:0:0:
180,62,245332,2,0,L|224:53,3,28,12|0|8|8,0:3|0:3|0:3|0:3,0:0:0:0:
267,9,245666,6,0,L|235:155,1,115.50000352478,6|0,1:3|0:3,0:0:0:0:
267,140,245999,2,0,L|342:123,1,77.0000023498536,8|4,1:3|0:3,0:0:0:0:
439,46,246332,1,0,1:3:0:0:
439,46,246499,1,4,0:3:0:0:
506,171,246666,2,0,P|467:141|432:144,1,77.0000023498536,12|4,1:3|0:3,0:0:0:0:
399,250,246999,2,0,P|381:258|362:258,2,38.5000011749268,4|4|4,1:3|0:3|0:3,0:0:0:0:
512,333,247332,2,0,P|488:303|487:265,1,77.0000023498536,8|4,1:3|1:3,0:0:0:0:
314,350,247666,6,0,L|168:382,1,115.50000352478,6|0,1:3|0:3,0:0:0:0:
183,350,247999,2,0,L|199:274,1,77.0000023498536,8|4,1:3|3:3,0:0:0:0:
137,173,248332,1,0,1:3:0:0:
137,173,248499,1,4,3:3:0:0:
23,270,248666,2,0,L|111:250,1,77.0000023498536,12|4,1:3|0:3,0:0:0:0:
86,98,248999,2,0,L|106:32,2,38.5000011749268,4|4|4,1:3|0:3|0:3,0:0:0:0:
176,186,249332,5,8,1:3:0:0:
273,163,249498,1,4,1:3:0:0:
371,141,249666,6,0,P|407:104|370:38,1,115.50000352478,6|0,1:3|0:3,0:0:0:0:
359,30,249999,2,0,L|283:12,1,77.0000023498536,8|4,1:3|3:3,0:0:0:0:
252,143,250332,1,0,1:3:0:0:
252,143,250499,1,4,3:3:0:0:
339,232,250666,2,0,L|405:252,2,38.5000011749268,12|4|4,1:3|0:3|0:3,0:0:0:0:
282,296,250999,2,0,L|314:356,2,38.5000011749268,4|4|4,1:3|0:3|0:3,0:0:0:0:
196,300,251332,2,0,L|171:388,1,77.0000023498536,8|4,1:3|1:3,0:0:0:0:
51,152,251666,6,0,P|86:119|145:168,1,115.50000352478,2|0,1:3|0:3,0:0:0:0:
173,132,251999,2,0,P|196:176|184:216,1,77.0000023498536,8|4,1:3|3:3,0:0:0:0:
132,25,252332,1,0,1:3:0:0:
251,42,252499,1,4,0:3:0:0:
258,67,252582,1,4,0:3:0:0:
265,90,252666,6,0,L|307:105,3,41.9999987182618,10|0|10|0,0:3|0:3|0:3|0:3,0:0:0:0:
394,58,252999,2,0,L|413:98,3,41.9999987182618,10|0|10|0,0:3|0:3|0:3|0:3,0:0:0:0:
504,143,253332,1,10,0:3:0:0:
512,172,253415,1,0,0:3:0:0:
506,203,253498,1,10,0:3:0:0:
486,227,253582,1,0,0:3:0:0:
457,239,253666,6,0,L|408:232,3,41.9999987182618,14|4|4|4,1:3|0:3|0:3|0:3,0:0:0:0:
312,198,253999,5,12,0:3:0:0:
316,218,254082,1,4,0:3:0:0:
320,239,254165,1,4,0:3:0:0:
325,259,254249,1,4,0:3:0:0:
329,280,254332,2,0,L|344:338,3,41.9999987182618,4|4|4|4,0:3|0:3|0:3|0:3,0:0:0:0:
284,383,254666,5,12,1:3:0:0:
265,373,254749,1,4,0:3:0:0:
246,364,254832,1,4,0:3:0:0:
227,354,254916,1,4,0:3:0:0:
209,345,254999,2,0,L|154:319,3,41.9999987182618,4|4|4|4,1:3|0:3|0:3|0:3,0:0:0:0:
104,355,255332,2,0,P|85:322|88:284,1,41.9999987182618,12|4,1:3|0:3,0:0:0:0:
13,294,255499,2,0,P|22:257|51:232,1,41.9999987182618,4|4,1:3|0:3,0:0:0:0:
129,224,255666,5,4,1:3:0:0:
148,199,255749,1,4,0:3:0:0:
154,168,255832,1,4,0:3:0:0:
145,139,255916,1,4,0:3:0:0:
123,116,255999,6,0,L|73:123,3,41.9999987182618,12|4|4|4,0:3|0:3|0:3|0:3,0:0:0:0:
181,58,256332,2,0,L|140:28,3,41.9999987182618,4|4|4|4,0:3|0:3|0:3|0:3,0:0:0:0:
263,58,256666,2,0,L|255:8,3,41.9999987182618,12|4|4|4,1:3|0:3|0:3|0:3,0:0:0:0:
322,133,256999,2,0,L|282:164,3,41.9999987182618,4|4|4|4,1:3|0:3|0:3|0:3,0:0:0:0:
358,45,257332,6,0,L|405:63,1,41.9999987182618,12|4,1:3|0:3,0:0:0:0:
465,27,257499,2,0,L|485:73,1,41.9999987182618,4|4,1:3|0:3,0:0:0:0:
437,131,257666,5,4,1:3:0:0:
433,162,257749,1,4,0:3:0:0:
430,193,257832,1,4,0:3:0:0:
427,224,257916,1,4,0:3:0:0:
423,257,257999,2,0,L|473:237,3,41.9999987182618,12|4|4|4,0:3|0:3|0:3|0:3,0:0:0:0:
421,351,258332,6,0,L|381:335,1,41.9999987182618,4|4,0:3|0:3,0:0:0:0:
310,311,258499,2,0,L|270:295,1,41.9999987182618,4|4,0:3|0:3,0:0:0:0:
201,330,258666,5,12,1:3:0:0:
188,301,258749,1,4,0:3:0:0:
191,270,258832,1,4,0:3:0:0:
207,243,258916,1,4,0:3:0:0:
234,228,258999,6,0,L|273:212,1,41.9999987182618,4|4,1:3|0:3,0:0:0:0:
345,188,259166,2,0,L|384:172,1,41.9999987182618,4|4,0:3|0:3,0:0:0:0:
454,207,259333,5,12,1:3:0:0:
467,178,259416,1,4,0:3:0:0:
464,147,259499,1,4,1:3:0:0:
448,120,259583,1,4,0:3:0:0:
421,105,259666,5,12,1:3:0:0:
256,73,259832,1,12,0:3:0:0:
222,57,260665,6,0,L|240:122,3,41.9999987182618,12|12|12|4,0:3|0:3|0:3|0:3,0:0:0:0:
265,125,260999,2,0,L|247:190,3,41.9999987182618,12|12|12|4,0:3|0:3|0:3|0:3,0:0:0:0:
283,202,261332,1,12,0:3:0:0:
120,141,261499,1,4,0:3:0:0:
149,313,261665,1,6,0:3:0:0:
256,192,261749,12,0,269666,0:3:0:0:
