osu file format v14

[General]
AudioFilename: audio.ogg
AudioLeadIn: 0
PreviewTime: 201583
Countdown: 0
SampleSet: Drum
StackLeniency: 0.4
Mode: 0
LetterboxInBreaks: 0
WidescreenStoryboard: 0

[Editor]
DistanceSpacing: 0.5
BeatDivisor: 4
GridSize: 16
TimelineZoom: 2.3

[Metadata]
Title:Wandering, Never Wondering (There Exists A Shade)
TitleUnicode:Wandering, Never Wondering (There Exists A Shade)
Artist:Foreground Eclipse
ArtistUnicode:Foreground Eclipse
Creator:GYGY
Version:Last Remote
Source:東方地霊殿 ~ Subterranean Animism.
Tags:Anxient bongo Kowari Xevia merami meramipop teto japanese melodic metal video game ZUN 東方project touhou chireiden th11 SA koishi komeiji ラストリモート 東方地霊殿 4th album extra stage theme last remote Stories That Last Through The Sleepless Nights c85 comiket 85 FGE FE
BeatmapID:3658383
BeatmapSetID:1785945

[Difficulty]
HPDrainRate:5.7
CircleSize:4.7
OverallDifficulty:9.7
ApproachRate:9.7
SliderMultiplier:1.4
SliderTickRate:1

[Events]
//Background and Video events
0,0,"cc6ba5ef3e546dba8d1cc6eb71792f653f6bea13 (2).jpg",0,0
//Break Periods
//Storyboard Layer 0 (Background)
//Storyboard Layer 1 (Fail)
//Storyboard Layer 2 (Pass)
//Storyboard Layer 3 (Foreground)
//Storyboard Layer 4 (Overlay)
//Storyboard Sound Samples

[TimingPoints]
834,333.333333333333,4,3,1,45,1,0
834,-100,4,3,1,45,0,0
1167,-100,4,3,35,45,0,0
1833,-100,4,3,1,45,0,0
2667,-333.333333333333,4,3,1,45,0,0
2916,-333.333333333333,4,3,1,45,0,0
3000,333.333333333333,3,3,3,45,1,0
3000,-100,3,3,3,45,0,0
3583,-100,3,3,3,5,0,0
3666,-100,3,3,3,45,0,0
5583,-100,3,3,3,5,0,0
5666,-100,3,3,3,45,0,0
7583,-100,3,3,3,5,0,0
7666,-100,3,3,3,45,0,0
9583,-100,3,3,3,5,0,0
9666,-100,3,3,3,45,0,0
9999,-76.9230769230769,3,3,3,45,0,0
10249,-76.9230769230769,3,3,3,5,0,0
10333,-50,3,3,3,55,0,0
10583,-76.9230769230769,3,3,3,5,0,0
10666,-40,3,3,3,65,0,0
10916,-76.9230769230769,3,3,3,5,0,0
10999,-40,3,3,5,75,0,0
11333,-40,3,3,13,75,0,0
11666,-40,3,3,24,75,0,0
11999,-40,3,3,6,75,0,0
12333,-40,3,3,13,75,0,0
12666,-40,3,3,24,75,0,0
12999,-40,3,3,6,75,0,0
13333,-40,3,3,13,75,0,0
13499,-66.6666666666667,3,3,13,75,0,0
13666,-66.6666666666667,3,3,24,75,0,0
13999,-66.6666666666667,3,3,6,75,0,0
14333,-66.6666666666667,3,3,13,75,0,0
14666,-66.6666666666667,3,3,24,75,0,0
14999,-66.6666666666667,3,3,5,75,0,0
15333,-66.6666666666667,3,3,13,75,0,0
15666,-66.6666666666667,3,3,24,75,0,0
15999,-66.6666666666667,3,3,6,75,0,0
16333,-66.6666666666667,3,3,13,75,0,0
16666,-66.6666666666667,3,3,24,75,0,0
16999,-66.6666666666667,3,3,13,75,0,0
17333,-66.6666666666667,3,3,24,75,0,0
17666,-66.6666666666667,3,3,6,75,0,0
18166,-58.8235294117647,3,3,6,75,0,0
18666,-250,3,3,5,75,0,0
19000,-50,4,3,2,60,0,0
19083,-50,4,3,1,60,0,0
20999,-58.8235294117647,3,3,1,60,0,0
22999,-50,3,3,2,60,0,0
23083,-50,3,3,1,60,0,0
24999,-58.8235294117647,3,3,1,60,0,0
26666,-200,3,3,1,60,0,0
26999,-50,3,3,2,60,0,0
27083,-50,3,3,1,60,0,0
28999,-58.8235294117647,3,3,1,60,0,0
30999,-50,3,3,2,60,0,0
31083,-50,3,3,1,60,0,0
32999,-58.8235294117647,3,3,1,60,0,0
34666,-52.6315789473684,3,3,1,60,0,0
35000,333.333333333333,4,3,5,65,1,0
35000,-66.6666666666667,3,3,5,65,0,0
35083,-66.6666666666667,3,3,13,65,0,0
35333,-66.6666666666667,3,3,5,65,0,0
35416,-66.6666666666667,3,3,13,65,0,0
35666,-66.6666666666667,3,3,5,65,0,0
35749,-66.6666666666667,3,3,13,65,0,0
36000,-66.6666666666667,3,3,5,65,0,0
36083,-66.6666666666667,3,3,13,65,0,0
36166,-66.6666666666667,3,3,2,65,0,0
36250,-66.6666666666667,3,3,13,65,0,0
36333,-66.6666666666667,3,3,24,65,0,0
36416,-66.6666666666667,3,3,35,65,0,0
36666,-66.6666666666667,3,3,5,65,0,0
36750,-66.6666666666667,3,3,2,65,0,0
37000,-66.6666666666667,3,3,5,65,0,0
37166,-66.6666666666667,3,3,13,65,0,0
37333,-66.6666666666667,3,3,5,65,0,0
37750,-66.6666666666667,3,3,13,65,0,0
38000,-66.6666666666667,3,3,5,65,0,0
38083,-66.6666666666667,3,3,13,65,0,0
38333,-66.6666666666667,3,3,5,65,0,0
38416,-66.6666666666667,3,3,13,65,0,0
38666,-66.6666666666667,3,3,5,65,0,0
38749,-66.6666666666667,3,3,13,65,0,0
38999,-66.6666666666667,3,3,2,65,0,0
39416,-66.6666666666667,3,3,13,65,0,0
39666,-66.6666666666667,3,3,5,65,0,0
39749,-66.6666666666667,3,3,13,65,0,0
39999,-66.6666666666667,3,3,1,65,0,0
40333,-66.6666666666667,3,3,5,65,0,0
40416,-66.6666666666667,3,3,13,65,0,0
40666,-66.6666666666667,3,3,5,65,0,0
40749,-66.6666666666667,3,3,13,65,0,0
40999,-66.6666666666667,3,3,5,65,0,0
41082,-66.6666666666667,3,3,13,65,0,0
41333,-66.6666666666667,3,3,5,65,0,0
41416,-66.6666666666667,3,3,13,65,0,0
41499,-66.6666666666667,3,3,2,65,0,0
41583,-66.6666666666667,3,3,13,65,0,0
41666,-66.6666666666667,3,3,24,65,0,0
41749,-66.6666666666667,3,3,35,65,0,0
41999,-66.6666666666667,3,3,5,65,0,0
42083,-66.6666666666667,3,3,2,65,0,0
42249,-66.6666666666667,3,3,5,65,0,0
42499,-66.6666666666667,3,3,35,65,0,0
42999,-66.6666666666667,3,3,5,65,0,0
43083,-66.6666666666667,3,3,13,65,0,0
43333,-66.6666666666667,3,3,5,65,0,0
43417,-66.6666666666667,3,3,13,65,0,0
43666,-66.6666666666667,3,3,5,65,0,0
43750,-66.6666666666667,3,3,13,65,0,0
43999,-66.6666666666667,3,3,5,65,0,0
44083,-66.6666666666667,3,3,13,65,0,0
44333,-66.6666666666667,3,3,5,65,0,0
44417,-66.6666666666667,3,3,13,65,0,0
44999,-66.6666666666667,3,3,24,65,0,0
45333,-66.6666666666667,3,3,35,65,0,0
45666,-83.3333333333333,3,3,2,50,0,0
45749,-83.3333333333333,3,3,1,50,0,0
48333,-83.3333333333333,3,3,2,50,0,0
48416,-83.3333333333333,3,3,1,50,0,0
50999,-100,3,3,3,50,0,0
56333,-83.3333333333333,3,3,3,50,0,0
56833,-100,3,3,3,50,0,0
58666,-142.857142857143,3,3,3,50,0,0
58999,-100,3,3,3,50,0,0
60333,-166.666666666667,3,3,3,50,0,0
60999,-100,3,3,24,50,0,0
61166,-100,3,3,3,50,0,0
61333,-142.857142857143,3,3,3,50,0,0
61666,-100,3,3,3,50,0,0
69249,-100,3,3,3,50,0,0
69333,-100,3,3,3,50,0,0
70333,-100,3,3,3,56,0,0
70583,-100,3,3,3,5,0,0
70666,-66.6666666666667,3,3,3,62,0,0
70916,-100,3,3,3,5,0,0
70999,-50,3,3,3,74,0,0
71249,-100,3,3,3,5,0,0
71333,-40,3,3,3,74,0,0
71583,-100,3,3,3,5,0,0
71666,-40,3,3,3,84,0,0
71999,-166.666666666667,3,3,3,84,0,0
72333,-52.6315789473684,3,3,2,66,0,0
72416,-52.6315789473684,3,3,3,66,0,0
73166,-62.5,3,3,3,66,0,0
92333,-62.5,3,3,13,66,0,0
92666,-62.5,3,3,1,66,0,0
92999,-62.5,3,3,35,66,0,0
93333,-166.666666666667,3,3,2,66,0,0
93667,333.333333333333,3,3,2,66,1,0
93667,-50,3,3,2,66,0,0
93751,-50,3,3,1,66,0,0
93999,-58.8235294117647,3,3,1,66,0,0
97666,-50,3,3,2,66,0,0
97751,-50,3,3,1,66,0,0
97999,-58.8235294117647,3,3,1,66,0,0
101333,-200,3,3,3,66,0,0
101666,-50,3,3,2,66,0,0
101751,-50,3,3,1,66,0,0
101999,-58.8235294117647,3,3,1,66,0,0
105666,-50,3,3,2,66,0,0
105750,-50,3,3,1,66,0,0
105999,-58.8235294117647,3,3,1,66,0,0
108666,-52.6315789473684,3,3,1,66,0,0
109111,-52.6315789473684,3,3,13,66,0,0
109333,-52.6315789473684,3,3,1,66,0,0
109444,-52.6315789473684,3,3,24,66,0,0
109667,333.333333333333,4,3,2,56,1,0
109667,-76.9230769230769,3,3,2,56,0,0
109750,-76.9230769230769,3,3,3,56,0,0
113833,-58.8235294117647,3,3,3,56,0,0
114333,-58.8235294117647,3,3,24,56,0,0
114667,-58.8235294117647,3,3,35,56,0,0
114999,-76.9230769230769,3,3,3,56,0,0
118999,-58.8235294117647,3,3,3,56,0,0
120333,-58.8235294117647,3,3,5,56,0,0
120416,-58.8235294117647,3,3,3,56,0,0
124999,-50,3,3,3,56,0,0
125999,-58.8235294117647,3,3,3,56,0,0
127333,-50,3,3,3,56,0,0
127666,-50,3,3,13,56,0,0
128000,-50,3,3,24,56,0,0
128333,-55.5555555555556,3,3,3,67,0,0
130333,-100,3,3,3,67,0,0
130999,-52.6315789473684,3,3,3,67,0,0
132666,-52.6315789473684,3,3,3,67,0,0
133000,-52.6315789473684,3,3,13,67,0,0
133333,-52.6315789473684,3,3,24,67,0,0
133666,-52.6315789473684,3,3,3,67,0,0
137666,-500,3,3,3,55,0,0
139000,-45.4545454545455,3,3,2,82,0,1
139083,-45.4545454545455,3,3,3,82,0,1
139666,-55.5555555555556,3,3,3,82,0,1
144333,-45.4545454545455,3,3,2,82,0,1
144416,-45.4545454545455,3,3,3,82,0,1
144833,-55.5555555555556,3,3,3,82,0,1
149333,-55.5555555555556,3,3,13,82,0,1
149666,-55.5555555555556,3,3,3,82,0,1
154999,-45.4545454545455,3,3,3,82,0,1
155499,-55.5555555555556,3,3,3,82,0,1
160000,-55.5555555555556,3,3,13,82,0,1
160166,-55.5555555555556,3,3,24,82,0,1
160333,333.333333333333,3,3,7,50,1,0
160333,-100,3,3,7,50,0,0
164333,-66.6666666666667,3,3,7,50,0,0
165333,-100,3,3,7,50,0,0
167999,-333.333333333333,3,3,3,65,0,0
168333,-62.5,3,3,3,70,0,0
169666,-62.5,3,3,13,70,0,0
170000,-62.5,3,3,24,70,0,0
170333,-62.5,3,3,6,70,0,0
171750,-62.5,3,3,13,70,0,0
171833,-62.5,3,3,24,70,0,0
171916,-62.5,3,3,35,70,0,0
172000,-62.5,3,3,6,70,0,0
172083,-62.5,3,3,13,70,0,0
172166,-62.5,3,3,24,70,0,0
172249,-62.5,3,3,35,70,0,0
172333,-62.5,3,3,5,70,0,0
173833,-62.5,3,3,13,70,0,0
174000,-62.5,3,3,24,70,0,0
174166,-100,3,3,35,70,0,0
174333,-62.5,3,3,5,70,0,0
175833,-62.5,3,3,5,70,0,0
176000,-62.5,3,3,35,70,0,0
176166,-62.5,3,3,35,70,0,0
176333,-125,3,3,7,70,0,0
176666,-55.5555555555556,3,3,7,70,0,0
177333,-125,3,3,7,70,0,0
177666,-55.5555555555556,3,3,7,70,0,0
178083,-55.5555555555556,3,3,13,70,0,0
178166,-55.5555555555556,3,3,24,70,0,0
178250,-55.5555555555556,3,3,35,70,0,0
178333,-125,3,3,7,70,0,0
178666,-55.5555555555556,3,3,7,70,0,0
179083,-55.5555555555556,3,3,13,70,0,0
179166,-55.5555555555556,3,3,24,70,0,0
179250,-55.5555555555556,3,3,35,70,0,0
179333,-125,3,3,7,70,0,0
179666,-55.5555555555556,3,3,7,70,0,0
180000,-55.5555555555556,3,3,35,70,0,0
180333,-125,3,3,7,70,0,0
180666,-55.5555555555556,3,3,7,70,0,0
181333,-125,3,3,7,70,0,0
181666,-55.5555555555556,3,3,7,70,0,0
182083,-55.5555555555556,3,3,13,70,0,0
182166,-55.5555555555556,3,3,24,70,0,0
182250,-55.5555555555556,3,3,35,70,0,0
182333,-125,3,3,7,70,0,0
182666,-55.5555555555556,3,3,7,70,0,0
183083,-55.5555555555556,3,3,13,70,0,0
183166,-55.5555555555556,3,3,24,70,0,0
183250,-55.5555555555556,3,3,35,70,0,0
183333,-125,3,3,7,70,0,0
183666,-55.5555555555556,3,3,7,70,0,0
184000,-55.5555555555556,3,3,35,70,0,0
184333,-66.6666666666667,3,3,6,60,0,0
192333,333.333333333333,4,3,7,67,1,0
192333,-66.6666666666667,3,3,7,67,0,0
194999,-58.8235294117647,3,3,7,67,0,0
196500,-58.8235294117647,3,3,6,67,0,0
197166,-58.8235294117647,3,3,2,67,0,0
197333,-58.8235294117647,3,3,13,67,0,0
197500,-58.8235294117647,3,3,24,67,0,0
197666,-58.8235294117647,3,3,6,67,0,0
199999,-100,3,3,6,67,0,0
200333,-58.8235294117647,3,3,6,67,0,0
201666,-500,3,3,6,67,0,0
202166,-66.6666666666667,3,3,6,67,0,0
202416,-66.6666666666667,3,3,13,67,0,0
202499,-66.6666666666667,3,3,24,67,0,0
202583,-66.6666666666667,3,3,35,67,0,0
202666,-200,3,3,7,67,0,0
203000,-200,3,3,8,67,0,0
206666,-200,3,3,1,67,0,0
207000,-200,3,3,7,67,0,0
207666,-125,3,3,7,67,0,0
208333,-66.6666666666667,3,3,7,67,0,0
210666,-200,3,3,7,67,0,0
210999,-66.6666666666667,3,3,7,67,0,0
213333,-66.6666666666667,3,3,13,67,0,0
213666,-45.4545454545455,3,3,2,82,0,1
213750,-45.4545454545455,3,3,3,82,0,1
214333,-55.5555555555556,3,3,3,82,0,1
218666,-100,3,3,3,82,0,1
218999,-45.4545454545455,3,3,3,82,0,1
219499,-55.5555555555556,3,3,3,82,0,1
223416,-55.5555555555556,3,3,13,82,0,1
223500,-55.5555555555556,3,3,24,82,0,1
223583,-55.5555555555556,3,3,35,82,0,1
223666,-45.4545454545455,3,3,7,82,0,0
224333,-45.4545454545455,3,3,7,75,0,0
224999,-250,3,3,7,75,0,0
228499,-66.6666666666667,3,3,7,75,0,0
228999,-47.6190476190476,3,3,7,75,0,0
229666,-250,3,3,7,75,0,0
233666,-250,3,3,3,75,0,0
233999,-66.6666666666667,3,3,3,75,0,0
234666,-66.6666666666667,3,3,24,75,0,0
234750,-66.6666666666667,3,3,3,75,0,0
234833,-66.6666666666667,3,3,3,75,0,0
234916,-66.6666666666667,3,3,3,75,0,0
234999,-45.4545454545455,3,3,3,82,0,1
240833,-55.5555555555556,3,3,3,82,0,1
245500,-55.5555555555556,3,3,24,75,0,1
245666,333.333333333333,3,3,2,60,1,0
245666,-50,3,3,2,60,0,0
245749,-50,3,3,1,60,0,0
247666,-62.5,3,3,1,60,0,0
252666,-50,3,3,3,60,0,0
253666,-50,3,3,7,65,0,0
259666,-50,3,3,8,75,0,0
260665,-100,3,3,24,65,0,0
260999,-100,3,3,35,65,0,0
261332,-100,3,3,7,65,0,0
261665,-100,3,3,7,80,0,0
263332,-100,3,3,7,80,0,0
265332,-100,3,3,7,80,0,0
267332,-100,3,3,7,80,0,0
268999,-100,3,3,7,80,0,0
269666,-100,3,3,35,5,0,0

[Colours]
Combo1 : 205,205,205
Combo2 : 237,235,194
Combo3 : 198,255,119
Combo4 : 7,237,168

[HitObjects]
33,72,835,5,4,0:3:0:0:
30,62,917,1,4,0:3:0:0:
28,52,1000,1,8,0:3:0:0:
112,18,1167,1,4,0:3:0:0:
4,174,1333,1,8,0:3:0:0:
77,212,1500,1,4,0:3:0:0:
34,274,1667,1,8,0:3:0:0:
164,254,1833,5,4,0:3:0:0:
169,243,1917,1,4,0:3:0:0:
174,233,2000,1,8,0:3:0:0:
114,382,2167,1,4,0:3:0:0:
109,371,2251,1,4,0:3:0:0:
104,358,2334,1,10,0:3:0:0:
197,333,2500,1,4,0:3:0:0:
203,334,2583,1,4,0:3:0:0:
209,335,2667,6,0,L|246:343,1,31.4999990386963,4|0,0:3|0:3,0:0:0:0:
512,330,3000,6,0,B|384:386|411:232|294:259|284:311,1,245,6|0,3:3|0:3,0:0:0:0:
307,364,3666,1,4,0:3:0:0:
227,163,3999,1,4,0:3:0:0:
221,172,4666,5,4,0:3:0:0:
390,48,4999,2,0,B|409:6|316:-14|253:43|273:128|319:165,1,245,6|0,0:3|0:3,0:0:0:0:
377,167,5666,5,4,0:3:0:0:
224,32,5999,1,4,0:3:0:0:
225,37,6666,5,4,0:3:0:0:
59,185,6999,6,0,B|41:210|139:288|193:98|51:88,1,245,2|0,0:3|0:3,0:0:0:0:
4,141,7666,1,4,0:3:0:0:
242,108,7999,1,4,0:3:0:0:
244,102,8666,5,4,0:3:0:0:
158,368,8999,2,0,B|198:368|200:268|126:263|116:334|51:290|53:208|106:187,1,245,2|0,0:3|0:3,0:0:0:0:
146,174,9666,5,4,0:3:0:0:
356,321,9999,6,0,P|366:204|377:153,1,136.499993751526,2|0,0:3|0:3,0:0:0:0:
351,146,10333,6,0,P|357:246|383:360,1,210,2|0,0:3|0:3,0:0:0:0:
346,377,10666,6,0,L|383:55,1,262.5,2|0,0:3|0:3,0:0:0:0:
208,0,10999,5,14,0:3:0:0:
200,65,11083,1,8,0:3:0:0:
242,105,11166,1,8,0:3:0:0:
296,100,11249,1,8,0:3:0:0:
323,56,11333,5,12,0:3:0:0:
341,57,11416,1,8,0:3:0:0:
357,63,11499,1,8,0:3:0:0:
368,72,11583,1,8,0:3:0:0:
376,118,11666,5,12,0:3:0:0:
370,111,11749,1,8,0:3:0:0:
365,103,11833,1,8,0:3:0:0:
362,94,11916,1,8,0:3:0:0:
368,72,11999,5,14,0:3:0:0:
415,39,12083,1,8,0:3:0:0:
475,59,12166,1,8,0:3:0:0:
485,121,12249,1,8,0:3:0:0:
463,148,12333,5,4,0:3:0:0:
450,154,12416,1,8,0:3:0:0:
437,166,12499,1,8,0:3:0:0:
431,182,12583,1,8,0:3:0:0:
450,229,12666,5,12,0:3:0:0:
452,220,12749,1,8,0:3:0:0:
454,211,12833,1,8,0:3:0:0:
456,202,12916,1,8,0:3:0:0:
449,179,12999,5,14,0:3:0:0:
390,144,13083,1,8,0:3:0:0:
336,171,13166,1,8,0:3:0:0:
316,214,13249,1,8,0:3:0:0:
273,228,13333,5,12,0:3:0:0:
285,240,13416,1,8,0:3:0:0:
292,255,13499,2,0,P|300:302|292:332,1,52.5000020027161,8|8,0:3|0:3,0:0:0:0:
211,373,13666,5,12,0:3:0:0:
211,373,13749,1,8,0:3:0:0:
211,373,13833,2,0,L|223:281,1,52.5000020027161,8|8,0:3|0:3,0:0:0:0:
165,238,13999,5,14,0:3:0:0:
110,195,14083,1,8,0:3:0:0:
54,200,14166,1,8,0:3:0:0:
26,229,14249,1,8,0:3:0:0:
18,263,14333,5,12,0:3:0:0:
21,274,14416,1,8,0:3:0:0:
29,286,14499,1,8,0:3:0:0:
40,294,14583,1,8,0:3:0:0:
77,277,14666,5,12,0:3:0:0:
76,271,14749,1,12,0:3:0:0:
75,265,14833,2,0,L|78:193,1,52.5000020027161,12|8,0:3|0:3,0:0:0:0:
153,13,14999,5,14,0:3:0:0:
97,40,15083,1,8,0:3:0:0:
94,98,15166,1,8,0:3:0:0:
136,128,15249,1,8,0:3:0:0:
187,118,15333,5,12,0:3:0:0:
211,125,15416,1,8,0:3:0:0:
231,141,15499,1,8,0:3:0:0:
242,164,15583,1,8,0:3:0:0:
224,210,15666,5,12,0:3:0:0:
244,203,15749,1,8,0:3:0:0:
265,205,15833,1,8,0:3:0:0:
284,210,15916,1,8,0:3:0:0:
306,225,15999,5,14,0:3:0:0:
368,226,16083,1,8,0:3:0:0:
401,173,16166,1,8,0:3:0:0:
442,153,16249,1,8,0:3:0:0:
485,161,16333,5,12,0:3:0:0:
495,172,16416,1,8,0:3:0:0:
502,185,16499,1,8,0:3:0:0:
504,200,16583,1,8,0:3:0:0:
501,215,16666,5,12,0:3:0:0:
473,200,16749,1,8,0:3:0:0:
443,189,16833,1,8,0:3:0:0:
411,185,16916,1,8,0:3:0:0:
378,190,16999,5,14,0:3:0:0:
413,224,17083,1,8,0:3:0:0:
432,266,17166,1,8,0:3:0:0:
432,313,17249,1,8,0:3:0:0:
405,352,17333,5,12,0:3:0:0:
362,312,17416,1,8,0:3:0:0:
308,290,17499,1,8,0:3:0:0:
247,287,17583,1,8,0:3:0:0:
192,311,17666,1,12,0:3:0:0:
148,356,17749,1,8,0:3:0:0:
79,363,17833,2,0,P|55:348|27:313,1,52.5000020027161,8|0,0:3|0:3,0:0:0:0:
89,145,17999,5,14,0:3:0:0:
100,152,18083,1,8,0:3:0:0:
110,164,18166,2,0,P|126:208|124:257,1,59.5000011348725,8|0,0:3|0:3,0:0:0:0:
211,5,18333,5,14,0:3:0:0:
221,42,18417,1,8,0:3:0:0:
217,80,18500,2,0,P|202:116|177:149,1,59.5000011348725,8|0,0:3|0:3,0:0:0:0:
9,253,18666,6,0,L|51:245,1,42,14|0,0:3|0:3,0:0:0:0:
201,204,19000,2,0,P|279:223|422:231,1,210,6|0,0:3|0:3,0:0:0:0:
268,143,19333,1,8,1:3:0:0:
348,126,19500,1,4,0:0:0:0:
400,299,19666,1,0,1:3:0:0:
480,322,19833,1,4,1:3:0:0:
305,305,19999,5,12,1:3:0:0:
301,333,20082,1,4,0:3:0:0:
301,360,20165,1,4,0:3:0:0:
452,125,20333,1,4,1:3:0:0:
455,152,20416,1,4,0:3:0:0:
455,179,20499,1,4,0:3:0:0:
293,79,20666,1,8,1:3:0:0:
477,246,20833,1,0,1:3:0:0:
252,0,20999,6,0,B|294:37|268:109|173:108,1,178.500003404617,6|0,1:3|0:3,0:0:0:0:
58,75,21333,1,8,1:3:0:0:
20,157,21499,1,4,1:3:0:0:
174,205,21666,1,0,1:3:0:0:
118,18,21833,1,4,1:3:0:0:
73,255,21999,5,12,1:3:0:0:
77,280,22083,1,4,0:3:0:0:
94,300,22166,1,4,0:3:0:0:
227,172,22333,1,4,1:3:0:0:
210,200,22416,1,4,0:3:0:0:
181,213,22500,1,4,0:3:0:0:
10,115,22666,1,12,1:3:0:0:
56,106,22749,1,4,0:3:0:0:
105,134,22833,1,4,0:3:0:0:
166,317,22999,6,0,L|175:74,1,210,6|0,1:3|0:3,0:0:0:0:
298,60,23333,1,8,1:3:0:0:
278,166,23499,1,4,1:3:0:0:
155,93,23666,1,0,1:3:0:0:
138,7,23832,1,4,1:3:0:0:
232,246,23999,5,12,1:3:0:0:
262,238,24083,1,4,0:3:0:0:
295,244,24166,1,4,0:3:0:0:
141,380,24333,1,4,1:3:0:0:
115,363,24417,1,4,0:3:0:0:
106,333,24500,1,4,0:3:0:0:
234,335,24666,5,8,1:3:0:0:
8,368,24833,1,0,1:3:0:0:
300,295,24999,2,0,B|383:289|374:391|499:351,1,178.500003404617,4|0,1:3|0:3,0:0:0:0:
365,237,25333,1,8,1:3:0:0:
308,370,25499,1,4,1:3:0:0:
469,197,25666,1,0,1:3:0:0:
490,294,25832,1,4,1:3:0:0:
283,194,25999,5,4,1:3:0:0:
258,191,26083,1,4,0:3:0:0:
232,201,26166,1,4,0:3:0:0:
463,23,26333,1,4,1:3:0:0:
486,23,26417,1,4,0:3:0:0:
508,31,26500,1,4,0:3:0:0:
350,228,26666,2,0,L|355:171,1,52.5,12|0,1:3|0:3,0:0:0:0:
481,125,26999,6,0,P|375:108|244:89,1,210,6|0,1:3|0:3,0:0:0:0:
343,32,27333,1,8,1:3:0:0:
244,0,27499,1,4,1:3:0:0:
255,182,27666,1,0,1:3:0:0:
164,208,27833,1,4,1:3:0:0:
38,84,27999,5,12,1:3:0:0:
31,53,28083,1,4,0:3:0:0:
26,24,28166,1,4,0:3:0:0:
192,142,28333,1,12,1:3:0:0:
194,116,28417,1,4,0:3:0:0:
197,81,28500,1,4,0:3:0:0:
18,211,28666,1,12,1:3:0:0:
158,11,28833,1,0,1:3:0:0:
15,295,28999,6,0,P|105:278|227:265,1,178.500003404617,6|0,1:3|0:3,0:0:0:0:
252,310,29333,1,8,1:3:0:0:
197,384,29499,1,4,1:3:0:0:
82,159,29666,1,0,1:3:0:0:
234,202,29833,1,4,1:3:0:0:
444,384,29999,5,12,1:3:0:0:
464,363,30083,1,4,0:3:0:0:
500,359,30166,1,4,0:3:0:0:
372,260,30333,1,4,1:3:0:0:
336,270,30416,1,4,0:3:0:0:
316,303,30499,1,4,0:3:0:0:
504,288,30666,1,12,1:3:0:0:
509,239,30749,1,4,0:3:0:0:
468,200,30833,1,4,0:3:0:0:
367,384,30999,6,0,L|383:138,1,210,6|0,1:3|0:3,0:0:0:0:
438,102,31333,1,8,1:3:0:0:
416,15,31499,1,4,1:3:0:0:
277,198,31666,1,0,1:3:0:0:
299,111,31832,1,4,1:3:0:0:
455,154,31999,5,12,1:3:0:0:
486,156,32083,1,4,0:3:0:0:
512,171,32166,1,4,0:3:0:0:
284,39,32333,1,4,1:3:0:0:
307,19,32417,1,4,0:3:0:0:
343,16,32500,1,4,0:3:0:0:
221,152,32666,1,8,1:3:0:0:
485,47,32833,1,0,1:3:0:0:
208,233,32999,6,0,B|200:179|200:179|205:175|205:175|186:38,1,178.500003404617,6|0,1:3|0:3,0:0:0:0:
101,14,33333,1,8,1:3:0:0:
126,120,33499,1,4,1:3:0:0:
26,222,33666,1,0,1:3:0:0:
7,298,33833,1,4,1:3:0:0:
131,209,33999,5,12,1:3:0:0:
136,230,34083,1,4,0:3:0:0:
141,252,34166,1,4,0:3:0:0:
40,86,34333,1,4,1:3:0:0:
36,107,34417,1,4,0:3:0:0:
32,127,34500,1,4,0:3:0:0:
58,352,34666,2,0,B|142:373|105:303|218:328,1,132.999996448517,8|0,0:3|1:3,0:0:0:0:
444,346,34999,5,10,0:3:0:0:
473,293,35083,1,8,0:3:0:0:
451,237,35166,1,8,0:3:0:0:
394,216,35249,1,8,0:3:0:0:
336,233,35333,5,12,0:3:0:0:
327,194,35416,1,8,0:3:0:0:
298,166,35499,1,8,0:3:0:0:
258,161,35583,1,8,0:3:0:0:
222,178,35666,5,12,0:3:0:0:
210,161,35749,1,8,0:3:0:0:
192,150,35833,1,8,0:3:0:0:
173,144,35916,1,8,0:3:0:0:
153,146,35999,2,0,P|119:161|104:181,1,52.5000020027161,12|8,0:3|0:3,0:0:0:0:
149,354,36166,5,12,0:3:0:0:
213,375,36250,1,8,0:3:0:0:
271,349,36333,1,8,0:3:0:0:
282,292,36416,1,8,0:3:0:0:
262,249,36499,1,8,0:3:0:0:
229,231,36583,1,8,0:3:0:0:
199,242,36666,5,12,0:3:0:0:
191,251,36749,2,0,L|208:311,1,52.5000020027161,8|8,0:3|0:3,0:0:0:0:
342,173,36916,1,8,0:3:0:0:
350,182,37000,2,0,L|333:242,1,52.5000020027161,12|8,0:3|0:3,0:0:0:0:
221,76,37166,5,8,0:3:0:0:
216,44,37249,1,8,0:3:0:0:
232,23,37333,1,12,0:3:0:0:
260,15,37416,1,8,0:3:0:0:
298,22,37499,1,8,0:3:0:0:
322,74,37583,1,8,0:3:0:0:
281,121,37666,5,14,0:3:0:0:
232,80,37749,1,8,0:3:0:0:
168,78,37833,1,8,0:3:0:0:
121,119,37916,1,8,0:3:0:0:
123,181,37999,5,12,0:3:0:0:
150,149,38083,1,8,0:3:0:0:
191,141,38166,1,8,0:3:0:0:
231,151,38249,1,8,0:3:0:0:
257,183,38333,5,12,0:3:0:0:
230,184,38416,1,8,0:3:0:0:
207,196,38499,1,8,0:3:0:0:
195,219,38583,1,8,0:3:0:0:
192,244,38666,2,0,L|266:229,1,52.5000020027161,12|8,0:3|0:3,0:0:0:0:
507,324,38833,2,0,L|426:309,1,52.5000020027161,8|8,0:3|0:3,0:0:0:0:
313,347,38999,1,12,0:3:0:0:
333,383,39083,2,0,L|346:263,1,105.000004005432,8|0,0:3|0:3,0:0:0:0:
424,213,39333,5,12,0:3:0:0:
420,186,39416,1,8,0:3:0:0:
416,159,39499,1,8,0:3:0:0:
412,132,39583,1,8,0:3:0:0:
383,109,39666,5,12,0:3:0:0:
384,95,39749,1,8,0:3:0:0:
386,82,39832,1,8,0:3:0:0:
388,68,39916,1,8,0:3:0:0:
417,54,39999,2,0,L|362:33,1,52.5000020027161,14|0,0:3|0:3,0:0:0:0:
188,0,40166,2,0,L|207:62,1,52.5000020027161,14|0,0:3|0:3,0:0:0:0:
166,174,40333,5,14,0:3:0:0:
103,180,40416,1,8,0:3:0:0:
47,151,40499,1,8,0:3:0:0:
18,95,40583,1,8,0:3:0:0:
37,36,40666,5,12,0:3:0:0:
78,36,40749,1,8,0:3:0:0:
114,56,40833,1,8,0:3:0:0:
133,92,40916,1,8,0:3:0:0:
124,132,40999,5,12,0:3:0:0:
100,119,41083,1,8,0:3:0:0:
74,116,41166,1,8,0:3:0:0:
48,121,41249,1,8,0:3:0:0:
29,139,41333,2,0,L|21:214,1,52.5000020027161,12|8,0:3|0:3,0:0:0:0:
225,237,41499,2,0,L|233:312,1,52.5000020027161,8|8,0:3|0:3,0:0:0:0:
139,365,41666,5,12,0:3:0:0:
77,377,41749,1,8,0:3:0:0:
27,346,41833,1,8,0:3:0:0:
19,294,41916,1,8,0:3:0:0:
41,258,41999,1,12,0:3:0:0:
72,247,42083,2,0,L|137:256,1,52.5000020027161,8|8,0:3|0:3,0:0:0:0:
226,363,42249,1,8,0:3:0:0:
263,321,42333,2,0,P|329:308|407:320,1,105.000004005432,12|8,0:3|0:3,0:0:0:0:
461,311,42583,1,8,0:3:0:0:
463,321,42666,1,8,0:3:0:0:
463,331,42749,1,8,0:3:0:0:
461,341,42833,1,8,0:3:0:0:
457,350,42916,1,8,0:3:0:0:
450,357,42999,5,14,0:3:0:0:
492,335,43083,1,8,0:3:0:0:
495,286,43166,1,8,0:3:0:0:
462,250,43249,1,8,0:3:0:0:
414,247,43333,1,12,0:3:0:0:
377,276,43416,1,8,0:3:0:0:
330,272,43499,1,8,0:3:0:0:
296,238,43583,1,8,0:3:0:0:
297,190,43666,5,12,0:3:0:0:
347,202,43749,1,8,0:3:0:0:
396,182,43833,1,8,0:3:0:0:
408,131,43916,1,8,0:3:0:0:
386,83,43999,5,12,0:3:0:0:
372,111,44083,1,8,0:3:0:0:
348,131,44166,1,8,0:3:0:0:
316,131,44249,1,8,0:3:0:0:
291,110,44333,5,12,0:3:0:0:
240,73,44416,1,8,0:3:0:0:
177,73,44499,1,8,0:3:0:0:
122,105,44583,1,8,0:3:0:0:
116,167,44666,5,4,0:3:0:0:
131,162,44749,1,4,0:3:0:0:
146,157,44833,1,4,0:3:0:0:
161,153,44916,1,4,0:3:0:0:
176,149,44999,5,12,0:3:0:0:
225,189,45083,1,8,0:3:0:0:
218,246,45166,1,8,0:3:0:0:
171,269,45249,1,8,0:3:0:0:
127,249,45333,1,8,0:3:0:0:
85,254,45416,1,8,0:3:0:0:
62,282,45499,1,8,0:3:0:0:
63,313,45583,1,8,0:3:0:0:
80,332,45666,6,0,B|122:273|191:293|188:309|185:319|220:347|270:354|287:309,1,209.999993591309,6|0,0:3|0:3,0:0:0:0:
305,272,46166,1,4,0:3:0:0:
54,18,46499,1,4,0:3:0:0:
49,24,46999,6,0,L|77:190,1,167.999994873047,4|0,0:3|0:3,0:0:0:0:
0,141,47499,2,0,B|45:87|103:93|117:156|182:118,1,167.999994873047,4|4,0:3|0:3,0:0:0:0:
285,15,47999,1,8,0:3:0:0:
151,54,48166,1,4,0:3:0:0:
258,226,48333,6,0,B|365:149|254:22|198:124,1,209.999993591309,2|0,0:3|0:3,0:0:0:0:
217,164,48833,1,4,0:3:0:0:
332,365,49166,1,4,0:3:0:0:
329,351,49666,6,0,P|258:319|289:382,1,167.999994873047,6|4,0:3|0:3,0:0:0:0:
476,158,50166,1,8,0:3:0:0:
476,147,50499,5,8,0:3:0:0:
428,117,50583,1,8,0:3:0:0:
374,124,50666,1,8,0:3:0:0:
333,161,50749,1,8,0:3:0:0:
328,216,50833,1,8,0:3:0:0:
279,242,50916,1,8,0:3:0:0:
225,233,50999,6,0,P|233:163|252:82,1,140,14|0,1:3|0:3,0:0:0:0:
152,334,51499,2,0,P|128:267|112:199,1,140,0|0,0:3|0:3,0:0:0:0:
136,103,51999,1,0,0:3:0:0:
238,373,52333,6,0,P|265:316|344:312,1,140,4|0,1:3|0:3,0:0:0:0:
386,384,52833,1,4,0:3:0:0:
377,77,53166,5,4,0:3:0:0:
451,185,53333,2,0,L|464:256,1,70,8|0,0:3|0:3,0:0:0:0:
493,60,53666,2,0,B|370:59|394:179|282:133,1,210,4|4,1:3|0:3,0:0:0:0:
226,75,54333,2,0,P|175:61|108:57,2,105,0|0|0,1:3|1:3|1:3,0:0:0:0:
27,32,54999,6,0,B|71:-11|142:22|132:140|47:147,1,210,4|4,1:3|0:3,0:0:0:0:
55,353,55833,1,4,0:3:0:0:
0,241,55999,2,0,L|92:257,1,70,8|0,1:3|1:3,0:0:0:0:
214,373,56333,6,0,B|179:387|137:358|140:294|176:278|207:298|214:243|184:188,1,209.999993591309,2|0,1:3|0:3,0:0:0:0:
133,164,56833,2,0,P|194:197|280:187,1,140,4|0,1:3|0:3,0:0:0:0:
442,244,57333,2,0,P|473:296|447:343,1,105,0|0,1:3|0:3,0:0:0:0:
290,335,57666,6,0,L|298:266,1,70,4|0,1:3|0:3,0:0:0:0:
377,303,57999,2,0,L|370:373,1,70,0|4,1:3|0:3,0:0:0:0:
488,157,58333,1,4,1:3:0:0:
476,88,58499,1,4,0:3:0:0:
329,193,58667,2,0,L|336:116,1,73.4999977569581,8|0,1:3|0:3,0:0:0:0:
400,80,58999,6,0,B|373:121|306:107|313:92|321:71|256:46|216:67,1,175,4|0,1:3|0:3,0:0:0:0:
252,132,59499,2,0,P|246:171|212:195,2,70,4|0|0,0:3|0:3|0:3,0:0:0:0:
136,51,59999,2,0,P|101:69|90:103,1,70,0|0,0:3|0:3,0:0:0:0:
83,309,60333,6,0,L|72:194,1,104.999996795654,4|0,0:3|0:3,0:0:0:0:
36,378,60833,1,2,0:3:0:0:
154,344,60999,2,0,L|161:289,1,35,8|8,0:3|0:3,0:0:0:0:
175,187,61166,1,8,0:3:0:0:
177,169,61249,1,8,0:3:0:0:
179,151,61333,2,0,L|119:157,1,48.9999985046387,8|0,1:3|1:3,0:0:0:0:
242,357,61666,6,0,L|332:341,1,70,6|0,1:3|0:3,0:0:0:0:
290,206,61999,2,0,L|303:293,1,70,4|0,0:3|0:3,0:0:0:0:
410,367,62333,6,0,L|424:280,1,70,4|0,1:3|0:3,0:0:0:0:
503,239,62666,2,0,L|412:226,1,70,4|0,0:3|0:3,0:0:0:0:
183,93,62999,5,4,1:3:0:0:
345,60,63333,1,4,0:3:0:0:
507,27,63666,1,4,0:3:0:0:
480,148,63833,1,4,1:3:0:0:
473,145,63916,1,4,0:3:0:0:
466,142,63999,1,4,0:3:0:0:
391,177,64166,1,0,0:3:0:0:
245,0,64333,6,0,L|239:78,1,70,4|0,1:3|1:3,0:0:0:0:
75,66,64666,2,0,L|105:134,1,70,4|0,1:3|1:3,0:0:0:0:
364,104,64999,2,0,L|311:157,1,70,4|0,1:3|1:3,0:0:0:0:
191,206,65333,1,4,1:3:0:0:
178,134,65499,1,0,1:3:0:0:
80,310,65666,6,0,L|-8:296,1,70,4|0,1:3|0:3,0:0:0:0:
121,182,65999,2,0,L|45:198,1,70,4|0,1:3|0:3,0:0:0:0:
146,368,66333,2,0,P|193:332|266:336,1,105,4|0,1:3|0:3,0:0:0:0:
289,375,66666,1,4,1:3:0:0:
375,258,66833,1,0,1:3:0:0:
369,253,66916,1,0,0:3:0:0:
363,249,66999,6,0,P|309:251|268:262,1,70,6|0,1:3|1:3,0:0:0:0:
420,379,67333,2,0,P|377:345|338:327,1,70,4|0,1:3|1:3,0:0:0:0:
472,315,67666,2,0,P|451:242|474:158,1,140,4|4,1:3|0:3,0:0:0:0:
507,88,68166,1,0,1:3:0:0:
400,9,68333,6,0,P|413:33|457:38,1,70,4|0,0:3|1:3,0:0:0:0:
421,113,68666,2,0,P|408:137|364:142,1,70,4|0,1:3|1:3,0:0:0:0:
276,27,68999,2,0,P|211:35|145:50,1,105,4|0,1:3|0:3,0:0:0:0:
102,61,69333,2,0,P|150:64|212:81,1,105,4|0,1:3|0:3,0:0:0:0:
252,148,69666,5,6,1:3:0:0:
393,28,69999,1,4,0:3:0:0:
100,207,70333,6,0,P|100:131|88:82,1,105,6|0,0:3|0:3,0:0:0:0:
103,65,70666,6,0,P|95:164|71:264,1,157.500006008148,6|0,0:3|0:3,0:0:0:0:
95,250,71000,6,0,P|96:139|81:-26,1,210,6|0,0:3|0:3,0:0:0:0:
60,13,71333,6,0,L|125:314,1,262.5,6|0,0:3|0:3,0:0:0:0:
185,384,71666,1,6,0:3:0:0:
0,340,71833,1,4,0:3:0:0:
264,154,71999,2,0,L|252:232,1,62.9999980773926,12|0,0:3|0:3,0:0:0:0:
202,285,72333,6,0,B|256:239|314:230|356:279,1,132.999996448517,6|4,1:3|0:3,0:0:0:0:
451,383,72666,1,8,0:3:0:0:
510,242,72833,1,8,0:3:0:0:
506,229,72916,1,8,0:3:0:0:
497,214,72999,1,4,1:3:0:0:
324,372,73166,6,0,L|336:216,1,112,4|4,0:3|0:3,0:0:0:0:
426,76,73499,1,8,0:3:0:0:
500,129,73666,1,0,1:3:0:0:
393,217,73833,1,4,0:3:0:0:
225,63,73999,2,0,B|173:31|119:63|119:63|120:103|76:137,1,168,8|0,0:3|0:3,0:0:0:0:
40,71,74333,1,4,0:3:0:0:
177,121,74499,1,4,0:3:0:0:
8,86,74666,1,8,1:3:0:0:
261,0,74833,1,4,1:3:0:0:
246,206,74999,6,0,B|207:197|207:197|202:201|202:201|132:184,1,112,4|4,1:3|0:3,0:0:0:0:
4,334,75333,2,0,P|43:285|109:282,1,112,8|8,0:3|0:3,0:0:0:0:
204,361,75583,1,8,0:3:0:0:
188,378,75666,2,0,L|179:258,1,112,4|4,1:3|0:3,0:0:0:0:
332,220,75916,2,0,L|315:330,1,112,0|0,1:3|0:3,0:0:0:0:
251,203,76166,1,8,1:3:0:0:
270,384,76333,6,0,P|365:355|425:361,1,112,0|4,1:3|0:3,0:0:0:0:
481,149,76666,2,0,P|503:216|404:264,1,168,8|0,0:3|0:3,0:0:0:0:
418,200,76999,1,4,0:3:0:0:
491,373,77166,1,4,0:3:0:0:
420,187,77333,1,8,1:3:0:0:
262,283,77499,1,4,1:3:0:0:
289,78,77666,6,0,L|283:213,1,112,2|4,0:3|0:3,0:0:0:0:
363,296,77999,1,8,0:3:0:0:
485,114,78166,1,8,0:3:0:0:
476,107,78249,1,8,0:3:0:0:
462,104,78333,2,0,B|388:98|320:161,1,112,4|4,0:3|0:3,0:0:0:0:
176,31,78666,1,0,1:3:0:0:
336,0,78833,1,12,0:3:0:0:
187,116,78999,6,0,L|206:236,1,112,0|4,1:3|0:3,0:0:0:0:
62,48,79333,2,0,L|18:152,1,112,8|0,0:3|0:3,0:0:0:0:
251,22,79666,1,4,1:3:0:0:
296,99,79833,1,4,0:3:0:0:
121,235,79999,2,0,P|37:234|41:312,1,168,8|0,1:3|0:3,0:0:0:0:
67,374,80333,5,4,0:3:0:0:
188,356,80499,1,4,0:3:0:0:
486,299,80666,2,0,L|357:283,1,112,8|8,0:3|0:3,0:0:0:0:
318,242,80916,1,8,0:3:0:0:
323,229,80999,1,4,0:3:0:0:
269,384,81166,2,0,L|243:249,1,112,4|0,0:3|0:3,0:0:0:0:
410,75,81499,5,8,0:3:0:0:
496,106,81666,1,4,0:3:0:0:
490,215,81833,1,4,0:3:0:0:
319,0,81999,2,0,P|260:2|216:43,1,112,8|0,0:3|0:3,0:0:0:0:
217,173,82333,1,4,0:3:0:0:
275,91,82499,1,4,0:3:0:0:
426,165,82666,6,0,L|337:153,1,56,8|0,1:3|0:3,0:0:0:0:
136,93,82833,2,0,L|191:100,1,56,0|0,1:3|0:3,0:0:0:0:
343,372,82999,6,0,L|329:259,1,112,6|4,1:3|0:3,0:0:0:0:
134,170,83333,1,8,0:3:0:0:
207,273,83499,1,8,0:3:0:0:
215,266,83583,1,8,0:3:0:0:
225,261,83666,1,4,1:3:0:0:
100,361,83833,2,0,L|233:381,1,112,4|0,0:3|2:3,0:0:0:0:
294,195,84166,1,8,0:3:0:0:
15,248,84333,5,4,1:3:0:0:
34,147,84499,1,4,0:3:0:0:
137,296,84666,2,0,L|123:170,1,112,8|0,0:3|0:3,0:0:0:0:
209,138,84999,1,4,0:3:0:0:
0,54,85166,2,0,B|65:52|29:25|104:22,1,112,4|8,1:3|0:3,0:0:0:0:
194,207,85499,2,0,B|259:209|223:236|298:239,1,112,4|4,1:3|0:3,0:0:0:0:
102,97,85833,5,4,0:3:0:0:
327,17,85999,1,8,1:3:0:0:
353,142,86166,1,8,1:3:0:0:
350,152,86249,1,8,0:3:0:0:
344,161,86333,1,4,1:3:0:0:
242,79,86499,1,0,1:3:0:0:
485,26,86666,1,0,1:3:0:0:
396,259,86833,1,8,1:3:0:0:
496,206,86999,6,0,L|513:90,1,112,0|4,1:3|0:3,0:0:0:0:
312,273,87333,2,0,L|252:168,1,112,8|0,1:3|0:3,0:0:0:0:
436,374,87666,1,4,1:3:0:0:
506,288,87833,1,0,0:3:0:0:
258,341,87999,2,0,L|314:351,1,56,8|0,1:3|0:3,0:0:0:0:
409,184,88166,2,0,L|354:194,1,56,0|0,1:3|0:3,0:0:0:0:
165,359,88333,6,0,L|46:328,1,112,6|4,1:3|1:3,0:0:0:0:
36,143,88666,2,0,P|83:168|44:250,1,112,8|8,1:3|0:3,0:0:0:0:
6,235,88916,1,8,0:3:0:0:
0,255,88999,2,0,P|124:235|255:220,1,224,4|0,0:3|0:3,0:0:0:0:
306,62,89499,6,0,P|271:16|186:29,1,112,8|0,1:3|0:3,0:0:0:0:
73,86,89833,1,4,1:3:0:0:
296,144,89999,1,8,1:3:0:0:
135,148,90166,1,0,1:3:0:0:
230,89,90333,1,4,1:3:0:0:
386,222,90499,1,4,0:3:0:0:
497,26,90666,2,0,P|410:40|408:127,1,168,8|0,0:3|0:3,0:0:0:0:
474,204,90999,5,4,1:3:0:0:
511,116,91166,1,4,0:3:0:0:
315,289,91333,1,8,0:3:0:0:
414,358,91499,1,4,0:3:0:0:
442,330,91583,1,4,0:3:0:0:
480,322,91666,1,8,0:3:0:0:
233,184,91833,1,4,0:3:0:0:
261,212,91917,1,4,0:3:0:0:
299,220,92000,1,8,0:3:0:0:
157,372,92166,5,4,0:3:0:0:
186,338,92249,1,4,0:3:0:0:
224,327,92333,1,8,0:3:0:0:
256,336,92416,1,8,0:3:0:0:
275,356,92499,1,8,0:3:0:0:
301,364,92583,1,8,0:3:0:0:
327,356,92666,2,0,L|318:262,1,56,10|0,0:3|0:3,0:0:0:0:
161,119,92833,2,0,L|152:213,1,56,10|0,0:3|0:3,0:0:0:0:
332,155,92999,1,8,0:3:0:0:
255,213,93166,1,8,0:3:0:0:
23,34,93333,6,0,P|39:20|58:12,1,41.9999987182618,6|6,0:3|0:3,0:0:0:0:
46,283,93667,6,0,P|56:200|92:75,1,210,6|0,0:3|0:3,0:0:0:0:
250,0,94000,1,8,1:3:0:0:
231,99,94167,1,4,1:3:0:0:
156,298,94333,1,0,1:3:0:0:
139,168,94499,1,4,1:3:0:0:
342,355,94666,5,12,1:3:0:0:
354,364,94749,1,4,0:3:0:0:
370,366,94833,1,4,0:3:0:0:
211,185,95000,1,4,1:3:0:0:
226,177,95083,1,4,0:3:0:0:
242,176,95167,1,4,0:3:0:0:
207,374,95333,1,8,1:3:0:0:
324,153,95500,1,4,1:3:0:0:
100,363,95667,6,0,P|267:327|326:325,1,178.500003404617,6|0,1:3|0:3,0:0:0:0:
439,367,96000,1,8,1:3:0:0:
477,265,96167,1,4,1:3:0:0:
321,163,96333,1,0,1:3:0:0:
298,85,96500,1,4,1:3:0:0:
446,127,96666,5,12,1:3:0:0:
455,119,96749,1,4,0:3:0:0:
466,114,96833,1,4,0:3:0:0:
299,261,96999,1,4,1:3:0:0:
290,253,97082,1,4,0:3:0:0:
279,248,97166,1,4,0:3:0:0:
378,76,97333,1,12,0:3:0:0:
481,276,97499,1,4,0:3:0:0:
441,17,97666,6,0,B|371:124|326:7|216:53,1,210,6|0,0:3|0:3,0:0:0:0:
171,111,97999,1,8,1:3:0:0:
300,165,98166,1,4,1:3:0:0:
28,93,98333,1,0,1:3:0:0:
114,44,98500,1,4,1:3:0:0:
29,192,98666,5,12,1:3:0:0:
25,180,98749,1,4,0:3:0:0:
20,168,98833,1,4,0:3:0:0:
220,251,98999,1,4,1:3:0:0:
224,239,99082,1,4,0:3:0:0:
229,227,99166,1,4,0:3:0:0:
87,367,99333,5,8,1:3:0:0:
160,164,99499,1,4,1:3:0:0:
0,358,99666,2,0,P|92:325|185:303,1,178.500003404617,6|0,1:3|0:3,0:0:0:0:
309,378,99999,1,8,1:3:0:0:
343,243,100166,1,4,1:3:0:0:
465,308,100333,1,0,1:3:0:0:
482,379,100499,1,4,1:3:0:0:
282,304,100666,5,12,1:3:0:0:
271,298,100749,1,4,0:3:0:0:
259,296,100833,1,4,0:3:0:0:
419,162,100999,1,4,1:3:0:0:
430,156,101082,1,4,0:3:0:0:
442,154,101166,1,4,0:3:0:0:
378,345,101333,6,0,L|370:300,1,35,10|4,0:3|0:3,0:0:0:0:
294,194,101583,1,4,0:3:0:0:
259,222,101666,6,0,L|282:10,1,210,6|0,0:3|0:3,0:0:0:0:
391,58,101999,1,8,1:3:0:0:
488,20,102166,1,4,1:3:0:0:
506,184,102333,1,0,1:3:0:0:
346,132,102499,1,4,1:3:0:0:
200,293,102666,5,12,1:3:0:0:
210,283,102749,1,4,0:3:0:0:
222,277,102833,1,4,0:3:0:0:
73,184,102999,1,4,1:3:0:0:
77,170,103082,1,4,0:3:0:0:
84,159,103166,1,4,0:3:0:0:
126,302,103333,5,8,1:3:0:0:
0,190,103499,1,4,1:3:0:0:
138,378,103666,2,0,P|152:279|195:162,1,178.500003404617,6|0,1:3|0:3,0:0:0:0:
226,145,103999,1,8,1:3:0:0:
84,62,104166,1,4,1:3:0:0:
246,0,104333,1,0,1:3:0:0:
207,67,104499,1,4,1:3:0:0:
429,159,104666,5,12,1:3:0:0:
439,150,104749,1,4,0:3:0:0:
452,144,104833,1,4,0:3:0:0:
352,32,104999,1,4,1:3:0:0:
342,23,105082,1,4,0:3:0:0:
329,17,105166,1,4,0:3:0:0:
300,179,105333,5,8,1:3:0:0:
509,37,105499,1,4,1:3:0:0:
225,190,105666,6,0,B|338:180|304:277|430:264,1,210,6|0,1:3|0:3,0:0:0:0:
507,210,105999,1,8,1:3:0:0:
459,97,106166,1,4,1:3:0:0:
337,267,106333,1,0,1:3:0:0:
315,352,106500,1,4,1:3:0:0:
131,291,106666,5,12,0:3:0:0:
119,293,106749,1,4,0:3:0:0:
108,298,106833,1,4,0:3:0:0:
268,186,106999,1,4,0:3:0:0:
280,188,107082,1,4,0:3:0:0:
291,193,107166,1,4,0:3:0:0:
180,122,107333,1,8,1:3:0:0:
220,384,107499,1,4,1:3:0:0:
0,259,107666,6,0,B|64:242|64:242|81:229|81:229|207:197,1,178.500003404617,6|0,1:3|0:3,0:0:0:0:
258,138,107999,1,8,1:3:0:0:
284,11,108166,1,4,1:3:0:0:
29,51,108333,1,0,1:3:0:0:
78,135,108499,1,4,1:3:0:0:
207,19,108666,6,0,L|374:42,1,132.999996448517,10|4,1:3|1:3,0:0:0:0:
478,81,108916,1,4,0:3:0:0:
470,97,109000,5,8,0:3:0:0:
409,139,109111,5,8,0:3:0:0:
415,210,109222,5,8,0:3:0:0:
475,242,109333,5,8,0:3:0:0:
507,271,109444,5,8,0:3:0:0:
512,316,109555,5,8,0:3:0:0:
434,353,109667,6,0,P|460:261|499:203,2,136.499993751526,6|4|4,1:3|0:3|0:3,0:0:0:0:
362,217,110333,1,4,1:3:0:0:
342,147,110500,1,0,1:3:0:0:
359,224,110666,1,0,1:3:0:0:
343,139,110833,1,4,1:3:0:0:
363,365,110999,6,0,B|292:315|195:305|195:305|190:338|169:363,1,227.499989585877,4|0,1:3|0:0,0:0:0:0:
78,362,111499,5,4,0:3:0:0:
71,355,111583,1,4,0:3:0:0:
63,350,111666,1,8,0:3:0:0:
126,299,111833,1,4,0:3:0:0:
18,153,111999,1,4,0:3:0:0:
0,299,112166,1,4,1:3:0:0:
129,215,112333,6,0,P|195:202|284:204,2,136.499993751526,4|4|4,1:3|0:3|0:3,0:0:0:0:
213,0,112999,2,0,P|227:48|225:95,1,90.9999958343508,8|0,1:3|0:0,0:0:0:0:
5,169,113333,2,0,P|39:132|81:110,1,90.9999958343508,4|0,1:3|0:3,0:0:0:0:
333,47,113666,1,8,0:3:0:0:
333,47,113749,1,8,0:3:0:0:
333,47,113833,2,0,L|321:152,1,59.5000011348725,10|0,0:3|0:3,0:0:0:0:
210,280,113999,2,0,L|198:175,1,59.5000011348725,2|0,0:3|0:3,0:0:0:0:
375,209,114166,1,4,0:3:0:0:
366,201,114249,1,4,0:3:0:0:
356,193,114333,5,12,0:3:0:0:
306,213,114416,1,8,0:3:0:0:
301,266,114499,1,8,0:3:0:0:
332,297,114583,1,8,0:3:0:0:
372,294,114666,1,8,0:3:0:0:
405,306,114749,1,8,0:3:0:0:
420,331,114833,1,8,0:3:0:0:
418,354,114916,1,8,0:3:0:0:
407,368,114999,6,0,P|417:279|435:217,2,136.499993751526,6|0|0,1:3|0:0|0:0,0:0:0:0:
512,187,115666,2,0,P|469:170|412:155,1,90.9999958343508,8|0,1:3|0:3,0:0:0:0:
264,237,115999,1,0,0:3:0:0:
171,209,116166,1,4,0:3:0:0:
316,0,116333,2,0,P|340:63|348:131,1,136.499993751526,8|0,1:3|0:3,0:0:0:0:
265,97,116666,2,0,P|218:65|170:59,1,90.9999958343508,0|4,1:3|0:3,0:0:0:0:
113,113,116916,1,4,0:3:0:0:
122,128,116999,1,8,0:3:0:0:
21,119,117166,1,0,0:3:0:0:
113,208,117333,1,0,0:3:0:0:
33,108,117499,1,0,0:3:0:0:
26,327,117666,6,0,B|49:290|76:277|76:277|118:294|164:272,2,136.499993751526,6|4|4,0:3|0:3|0:3,0:0:0:0:
175,353,118333,2,0,P|214:315|207:264,1,90.9999958343508,8|4,0:3|0:3,0:0:0:0:
113,208,118666,1,4,0:3:0:0:
199,192,118833,1,4,0:3:0:0:
288,340,118999,6,0,L|446:377,1,119.000002269745,8|4,0:3|0:3,0:0:0:0:
499,355,119249,1,4,0:3:0:0:
505,347,119333,2,0,L|496:266,1,59.5000011348725,8|0,0:3|0:3,0:0:0:0:
445,132,119499,1,4,0:3:0:0:
456,127,119583,1,4,0:3:0:0:
467,123,119666,5,10,0:3:0:0:
488,158,119749,1,8,0:3:0:0:
490,193,119833,1,8,0:3:0:0:
473,224,119916,1,8,0:3:0:0:
442,241,119999,5,4,0:3:0:0:
411,187,120083,1,4,0:3:0:0:
349,156,120166,1,4,0:3:0:0:
283,156,120249,1,4,0:3:0:0:
231,201,120333,5,6,1:3:0:0:
190,288,120499,1,4,0:3:0:0:
277,328,120666,1,4,0:3:0:0:
318,241,120833,1,4,0:3:0:0:
0,215,120999,5,12,1:3:0:0:
58,339,121166,1,4,0:3:0:0:
185,281,121333,1,4,0:3:0:0:
124,153,121499,1,4,0:3:0:0:
243,0,121666,5,12,1:3:0:0:
259,81,121833,1,4,0:3:0:0:
177,98,121999,1,4,0:3:0:0:
161,16,122166,1,4,0:3:0:0:
302,146,122333,1,12,0:3:0:0:
93,277,122499,5,4,1:3:0:0:
1,169,122666,1,4,0:3:0:0:
106,82,122833,1,4,1:3:0:0:
371,94,122999,6,0,B|487:68,1,119.000002269745,12|4,0:3|1:3,0:0:0:0:
335,264,123333,1,4,1:3:0:0:
313,169,123499,1,4,1:3:0:0:
459,301,123666,1,12,1:3:0:0:
486,228,123833,1,4,1:3:0:0:
227,147,123999,5,4,1:3:0:0:
396,370,124166,1,4,1:3:0:0:
191,336,124333,6,0,P|167:288|100:305,1,119.000002269745,12|0,1:3|0:3,0:0:0:0:
0,192,124666,2,0,P|54:200|76:149,1,119.000002269745,12|0,1:3|0:3,0:0:0:0:
0,304,124999,6,0,P|96:269|228:246,1,210,12|0,1:3|0:3,0:0:0:0:
306,264,125333,1,0,1:3:0:0:
267,354,125499,1,0,1:3:0:0:
205,75,125666,6,0,B|181:47|130:56|130:56|119:133|187:166,1,210,10|0,1:3|0:3,0:0:0:0:
249,166,125999,1,4,1:3:0:0:
301,44,126166,1,4,1:3:0:0:
497,88,126333,1,12,0:3:0:0:
443,172,126499,1,4,0:3:0:0:
359,118,126666,1,4,0:3:0:0:
450,19,126833,6,0,L|461:218,1,178.500003404617,4|4,1:3|0:3,0:0:0:0:
393,235,127166,1,4,0:3:0:0:
503,353,127333,2,0,P|386:323|261:308,1,210,6|0,0:3|0:3,0:0:0:0:
245,378,127666,1,12,0:3:0:0:
175,378,127749,1,8,0:3:0:0:
134,329,127833,1,8,0:3:0:0:
142,273,127916,1,8,0:3:0:0:
180,243,127999,1,12,0:3:0:0:
221,235,128083,1,8,0:3:0:0:
238,204,128166,1,8,0:3:0:0:
236,176,128249,1,8,0:3:0:0:
220,166,128333,6,0,B|75:127|129:223|98:260|-1:232|19:165,1,251.999992309571,14|4,1:3|0:3,0:0:0:0:
108,20,128833,2,0,B|72:98|80:189|151:302,1,251.999992309571,10|4,1:3|0:3,0:0:0:0:
380,298,129333,2,0,P|297:252|236:374,1,251.999992309571,10|0,1:3|0:3,0:0:0:0:
506,351,129833,5,4,0:3:0:0:
338,384,129999,2,0,B|328:349|304:355|303:311|303:311|340:242|263:181,1,188.999994232178,8|0,1:3|0:0,0:0:0:0:
183,236,130333,2,0,P|193:252|253:265,1,70,4|0,0:3|0:3,0:0:0:0:
381,309,130666,2,0,P|404:284|403:250,1,70,8|0,0:3|0:3,0:0:0:0:
70,68,130999,6,0,B|109:20|178:28|178:28|191:66|221:83|221:83|266:52|338:57,1,265.999992897034,14|4,1:3|0:3,0:0:0:0:
489,23,131499,2,0,B|485:67|450:77|450:77|428:106|424:131|424:131|378:130|352:158|352:158|347:200|374:232,1,265.999992897034,10|4,1:3|0:3,0:0:0:0:
261,321,131999,2,0,B|317:268|379:291|379:291|418:273|433:242|433:242|487:227|518:244,1,265.999992897034,10|4,1:3|0:3,0:0:0:0:
478,313,132416,5,0,0:3:0:0:
478,313,132499,2,0,L|489:415,1,66.4999982242585,10|0,0:3|0:3,0:0:0:0:
266,206,132666,2,0,L|279:140,1,66.4999982242585,14|12,0:3|0:3,0:0:0:0:
89,310,132833,1,12,0:3:0:0:
79,327,132916,1,12,0:3:0:0:
74,341,132999,5,8,0:3:0:0:
109,384,133083,1,8,0:3:0:0:
164,377,133166,1,8,0:3:0:0:
176,319,133249,1,8,0:3:0:0:
201,290,133333,1,12,0:3:0:0:
238,290,133416,1,8,0:3:0:0:
262,311,133499,1,8,0:3:0:0:
260,340,133583,1,8,0:3:0:0:
247,357,133666,5,14,0:3:0:0:
89,310,133833,1,4,0:3:0:0:
119,155,133999,1,4,0:3:0:0:
512,259,134166,5,12,1:3:0:0:
291,193,134333,1,4,0:3:0:0:
167,381,134499,1,4,0:3:0:0:
449,322,134666,5,12,1:3:0:0:
469,177,134833,1,4,0:3:0:0:
488,32,134999,1,4,0:3:0:0:
294,375,135166,5,12,1:3:0:0:
272,200,135333,1,4,0:3:0:0:
247,17,135499,1,4,0:3:0:0:
87,278,135666,5,12,1:3:0:0:
156,296,135833,1,4,0:3:0:0:
419,70,135999,5,12,1:3:0:0:
295,112,136166,1,4,0:3:0:0:
53,12,136333,5,14,1:3:0:0:
22,24,136416,1,8,0:3:0:0:
5,60,136499,1,8,0:3:0:0:
21,103,136583,1,8,0:3:0:0:
70,122,136666,1,8,0:3:0:0:
118,87,136749,1,8,0:3:0:0:
124,26,136833,5,10,1:3:0:0:
70,53,136916,1,8,0:3:0:0:
57,118,136999,1,8,0:3:0:0:
96,172,137083,1,8,0:3:0:0:
166,188,137166,1,8,0:3:0:0:
239,154,137249,1,8,0:3:0:0:
315,173,137333,1,10,1:3:0:0:
350,243,137416,1,8,0:3:0:0:
327,319,137499,1,8,0:3:0:0:
260,361,137583,1,8,0:3:0:0:
180,343,137666,6,0,L|183:298,1,42,10|0,1:3|0:3,0:0:0:0:
189,61,138333,2,0,L|186:102,1,42,0|0,1:3|0:3,0:0:0:0:
505,78,139000,6,0,B|328:-6|361:211|218:152,1,308.000009399414,6|8,1:3|0:3,0:0:0:0:
38,31,139499,1,0,0:3:0:0:
276,7,139666,1,4,1:3:0:0:
264,0,139750,2,0,P|217:64|203:93,1,62.9999980773926,4|4,0:0|0:3,0:0:0:0:
144,220,139917,1,0,1:3:0:0:
154,206,140000,2,0,P|121:133|101:107,1,62.9999980773926,8|0,0:0|0:3,0:0:0:0:
0,93,140166,1,0,1:3:0:0:
0,312,140333,6,0,P|34:246|110:258,1,125.999996154785,4|0,1:3|0:3,0:0:0:0:
328,364,140666,2,0,P|254:367|226:294,1,125.999996154785,8|0,1:3|0:3,0:0:0:0:
382,89,140999,2,0,L|549:48,1,125.999996154785,4|4,1:3|0:3,0:0:0:0:
489,297,141333,2,0,B|407:338|411:222|306:265,1,188.999994232178,8|0,1:3|0:3,0:0:0:0:
328,371,141666,6,0,P|366:276|353:153,1,188.999994232178,6|0,0:3|0:3,0:0:0:0:
322,121,141999,1,8,0:3:0:0:
504,0,142166,1,0,0:3:0:0:
494,169,142333,5,4,1:3:0:0:
488,154,142416,2,0,P|451:132|404:137,1,62.9999980773926,4|4,0:0|0:3,0:0:0:0:
275,192,142583,1,0,1:3:0:0:
271,204,142666,2,0,P|236:236|169:228,1,62.9999980773926,8|0,0:0|0:3,0:0:0:0:
106,205,142833,1,0,1:3:0:0:
277,0,142999,5,4,1:3:0:0:
244,118,143166,1,0,0:3:0:0:
39,312,143333,1,8,1:3:0:0:
21,236,143500,1,0,0:3:0:0:
167,122,143666,2,0,P|113:105|-3:92,1,125.999996154785,4|4,1:3|0:3,0:0:0:0:
163,352,143999,1,8,1:3:0:0:
324,127,144166,1,0,0:3:0:0:
0,354,144333,6,0,P|122:315|332:283,1,308.000009399414,6|8,1:3|0:3,0:0:0:0:
473,155,144833,2,0,B|446:85|346:131|386:218|448:224,1,188.999994232178,0|0,1:3|0:3,0:0:0:0:
500,223,145166,1,4,1:3:0:0:
361,318,145333,1,8,1:3:0:0:
443,379,145499,1,0,1:3:0:0:
414,109,145666,5,4,1:3:0:0:
307,374,145833,1,0,1:3:0:0:
15,181,145999,2,0,B|131:192|64:264|159:289,1,188.999994232178,8|0,1:3|0:0,0:0:0:0:
194,219,146333,1,4,0:3:0:0:
26,268,146500,1,4,1:3:0:0:
133,56,146666,2,0,B|175:83|163:141|62:174|30:46,1,188.999994232178,8|0,0:3|0:3,0:0:0:0:
40,14,147000,5,6,0:3:0:0:
265,14,147166,1,4,0:3:0:0:
285,35,147249,1,4,0:3:0:0:
286,67,147333,1,8,0:3:0:0:
446,99,147500,1,4,0:3:0:0:
436,141,147582,1,4,0:3:0:0:
397,169,147666,1,8,0:3:0:0:
466,358,147833,1,4,0:3:0:0:
346,313,148000,1,4,0:3:0:0:
120,205,148166,6,0,P|26:223|48:329,1,188.999994232178,6|0,1:3|0:3,0:0:0:0:
100,284,148499,1,0,1:3:0:0:
296,369,148666,1,2,1:3:0:0:
177,384,148833,1,0,1:3:0:0:
269,182,148999,5,10,0:3:0:0:
278,112,149083,1,8,0:3:0:0:
235,65,149166,1,8,0:3:0:0:
178,63,149249,1,8,0:3:0:0:
141,97,149333,1,12,0:3:0:0:
97,101,149416,1,8,0:3:0:0:
68,76,149499,1,8,0:3:0:0:
66,44,149583,1,8,0:3:0:0:
84,26,149666,5,14,1:3:0:0:
0,152,149833,1,4,0:3:0:0:
98,231,149999,1,4,0:3:0:0:
172,165,150166,1,4,0:3:0:0:
376,384,150333,5,12,1:3:0:0:
293,346,150499,1,4,1:3:0:0:
46,287,150666,1,4,1:3:0:0:
171,250,150833,1,4,1:3:0:0:
310,0,150999,5,12,1:3:0:0:
244,215,151166,1,4,0:3:0:0:
467,67,151333,5,4,1:3:0:0:
318,188,151499,1,4,0:3:0:0:
504,263,151666,5,12,1:3:0:0:
364,253,151833,1,4,0:3:0:0:
375,384,151999,5,4,1:3:0:0:
314,314,152166,1,4,0:3:0:0:
168,47,152333,5,12,1:3:0:0:
76,32,152499,1,4,0:3:0:0:
19,102,152666,1,4,0:3:0:0:
57,180,152833,1,4,0:3:0:0:
315,11,152999,5,12,1:3:0:0:
335,113,153166,1,4,1:3:0:0:
238,372,153333,1,4,1:3:0:0:
269,213,153500,1,4,1:3:0:0:
32,96,153666,5,12,1:3:0:0:
302,22,153833,1,4,0:3:0:0:
232,283,153999,5,4,1:3:0:0:
14,207,154166,1,4,0:3:0:0:
63,373,154333,5,12,1:3:0:0:
95,186,154499,1,4,0:3:0:0:
294,94,154666,5,4,1:3:0:0:
326,178,154833,1,4,0:3:0:0:
68,107,154999,6,0,B|200:-33|276:155|361:42,1,308.000009399414,14|4,1:3|0:3,0:0:0:0:
504,228,155499,2,0,P|448:180|369:213,1,125.999996154785,4|12,1:3|0:3,0:0:0:0:
298,383,155833,1,4,1:3:0:0:
209,293,155999,1,4,1:3:0:0:
282,254,156166,1,4,1:3:0:0:
417,381,156333,5,12,1:3:0:0:
145,236,156499,1,4,1:3:0:0:
268,94,156666,1,4,1:3:0:0:
358,126,156833,1,4,0:3:0:0:
98,175,156999,5,12,0:3:0:0:
230,368,157166,2,0,P|138:326|34:316,1,188.999994232178,4|0,1:3|0:3,0:0:0:0:
0,260,157499,1,0,1:3:0:0:
101,86,157666,5,14,1:3:0:0:
137,75,157749,1,8,0:3:0:0:
174,84,157833,1,8,0:3:0:0:
200,110,157916,1,8,0:3:0:0:
211,146,157999,5,14,0:3:0:0:
215,95,158083,1,8,0:3:0:0:
197,48,158166,1,8,0:3:0:0:
157,17,158249,1,8,0:3:0:0:
106,13,158333,5,14,0:3:0:0:
97,75,158416,1,8,0:3:0:0:
124,131,158499,1,8,0:3:0:0:
182,158,158583,1,8,0:3:0:0:
245,151,158666,5,14,0:3:0:0:
292,100,158749,1,8,0:3:0:0:
364,73,158833,1,8,0:3:0:0:
439,84,158916,1,8,0:3:0:0:
485,145,158999,6,0,P|494:179|494:226,1,62.9999980773926,14|0,0:3|0:3,0:0:0:0:
316,260,159166,2,0,P|341:234|382:210,1,62.9999980773926,4|0,0:3|0:3,0:0:0:0:
508,347,159333,2,0,P|474:337|432:314,1,62.9999980773926,4|0,0:3|0:3,0:0:0:0:
368,84,159499,6,0,L|386:172,1,62.9999980773926,4|0,0:3|0:3,0:0:0:0:
374,384,159666,1,4,0:3:0:0:
376,379,159749,1,0,0:3:0:0:
377,372,159833,2,0,L|380:286,1,62.9999980773926,8|8,0:3|0:3,0:0:0:0:
211,181,159999,5,8,0:3:0:0:
142,195,160083,1,8,0:3:0:0:
112,244,160166,1,8,0:3:0:0:
118,287,160249,1,8,0:3:0:0:
139,304,160333,6,0,B|195:281|195:281|201:271|201:271|269:242,1,140,6|8,0:3|0:3,0:0:0:0:
131,374,160833,1,4,0:3:0:0:
0,153,161166,5,4,0:3:0:0:
213,174,161333,2,0,B|157:151|157:151|149:140|149:140|7:79,1,210,8|4,0:3|0:3,0:0:0:0:
149,14,161999,2,0,P|217:36|207:97,1,140,8|4,0:3|0:3,0:0:0:0:
495,55,162666,5,8,0:3:0:0:
404,149,162833,2,0,L|424:-5,1,140,4|4,0:3|0:3,0:0:0:0:
301,197,163333,2,0,B|343:104|455:111|474:169,1,210,8|4,0:3|0:3,0:0:0:0:
287,268,163999,2,0,L|272:145,1,105,8|0,0:3|0:3,0:0:0:0:
212,257,164333,6,0,B|92:297|137:164|3:221,1,210.000008010865,6|8,0:3|0:3,0:0:0:0:
43,320,164833,1,4,0:3:0:0:
189,47,165166,5,4,0:3:0:0:
1,87,165333,2,0,P|122:104|219:140,1,210,8|4,0:3|0:3,0:0:0:0:
316,279,165999,2,0,P|389:257|461:248,1,140,8|4,0:3|0:3,0:0:0:0:
303,373,166666,5,8,0:3:0:0:
206,286,166833,2,0,P|122:301|118:356,1,140,4|4,0:3|0:3,0:0:0:0:
237,363,167333,2,0,L|247:210,1,140,8|4,0:3|0:3,0:0:0:0:
156,196,167833,1,4,0:3:0:0:
7,272,167999,6,0,L|43:264,1,31.4999990386963,10|0,0:3|0:0,0:0:0:0:
220,161,168333,5,14,0:3:0:0:
226,153,168416,1,4,0:3:0:0:
231,144,168499,2,0,L|225:89,1,56,12|4,0:3|0:3,0:0:0:0:
62,0,168666,1,12,0:3:0:0:
13,45,168749,1,4,0:3:0:0:
12,112,168833,1,4,0:3:0:0:
58,160,168916,1,4,0:3:0:0:
124,167,168999,5,12,0:3:0:0:
135,117,169083,1,4,0:3:0:0:
172,83,169166,1,4,0:3:0:0:
220,68,169249,1,4,0:3:0:0:
270,75,169333,5,12,0:3:0:0:
286,45,169416,1,4,0:3:0:0:
314,27,169499,1,4,0:3:0:0:
347,22,169583,1,4,0:3:0:0:
379,29,169666,5,12,0:3:0:0:
320,61,169749,1,8,0:3:0:0:
325,117,169833,1,8,0:3:0:0:
362,140,169916,1,8,0:3:0:0:
400,136,169999,1,8,0:3:0:0:
423,111,170083,1,8,0:3:0:0:
450,107,170166,1,8,0:3:0:0:
471,112,170249,1,8,0:3:0:0:
492,124,170333,6,0,L|449:190,1,56,14|4,0:3|0:3,0:0:0:0:
501,326,170499,2,0,L|429:350,1,56,12|4,0:3|0:3,0:0:0:0:
288,382,170666,5,12,0:3:0:0:
239,335,170749,1,4,0:3:0:0:
233,267,170833,1,4,0:3:0:0:
273,213,170916,1,4,0:3:0:0:
338,201,170999,5,12,0:3:0:0:
346,251,171083,1,4,0:3:0:0:
322,295,171166,1,4,0:3:0:0:
274,310,171249,1,4,0:3:0:0:
224,297,171333,5,12,0:3:0:0:
215,264,171416,1,4,0:3:0:0:
194,237,171499,1,4,0:3:0:0:
163,222,171583,1,4,0:3:0:0:
110,236,171666,5,12,0:3:0:0:
102,256,171749,1,8,0:3:0:0:
100,278,171833,1,8,0:3:0:0:
104,299,171916,1,8,0:3:0:0:
141,317,171999,5,8,0:3:0:0:
143,327,172083,1,8,0:3:0:0:
143,338,172166,1,8,0:3:0:0:
141,349,172249,1,8,0:3:0:0:
137,359,172333,5,14,0:3:0:0:
66,376,172416,1,4,0:3:0:0:
3,338,172499,1,12,0:3:0:0:
0,264,172583,1,4,0:3:0:0:
46,208,172666,1,12,0:3:0:0:
112,208,172749,1,4,0:3:0:0:
157,165,172833,1,4,0:3:0:0:
150,104,172916,1,4,0:3:0:0:
99,69,172999,5,12,0:3:0:0:
98,119,173083,1,4,0:3:0:0:
129,158,173166,1,4,0:3:0:0:
179,159,173249,1,4,0:3:0:0:
219,128,173333,5,12,0:3:0:0:
250,138,173416,1,4,0:3:0:0:
272,162,173499,1,4,0:3:0:0:
281,194,173583,1,4,0:3:0:0:
275,227,173666,5,12,0:3:0:0:
209,195,173749,1,8,0:3:0:0:
209,127,173833,1,8,0:3:0:0:
254,85,173916,1,8,0:3:0:0:
304,85,173999,1,8,0:3:0:0:
338,104,174083,1,8,0:3:0:0:
351,129,174166,2,0,P|358:157|356:185,1,35,8|8,0:3|0:3,0:0:0:0:
211,309,174333,5,14,0:3:0:0:
275,361,174416,1,4,0:3:0:0:
358,361,174499,1,12,0:3:0:0:
419,310,174583,1,4,0:3:0:0:
433,240,174666,1,12,0:3:0:0:
395,184,174749,1,4,0:3:0:0:
391,116,174833,1,4,0:3:0:0:
426,59,174916,1,4,0:3:0:0:
489,37,174999,5,12,0:3:0:0:
489,93,175083,1,4,0:3:0:0:
459,140,175166,1,4,0:3:0:0:
411,168,175249,1,4,0:3:0:0:
354,174,175333,5,12,0:3:0:0:
333,134,175416,1,4,0:3:0:0:
294,110,175499,1,4,0:3:0:0:
249,103,175583,1,4,0:3:0:0:
205,112,175666,5,8,0:3:0:0:
218,177,175749,1,8,0:3:0:0:
277,195,175833,1,12,0:3:0:0:
323,163,175916,1,12,0:3:0:0:
323,112,175999,1,12,0:3:0:0:
294,80,176083,1,12,0:3:0:0:
293,40,176166,1,12,0:3:0:0:
311,11,176249,1,12,0:3:0:0:
338,3,176333,6,0,L|327:99,1,84,14|0,0:3|0:3,0:0:0:0:
453,128,176666,2,0,L|339:144,1,62.9999980773926,0|0,1:3|0:3,0:0:0:0:
220,31,176833,2,0,L|106:15,1,62.9999980773926,0|0,1:3|0:3,0:0:0:0:
21,175,176999,1,8,0:3:0:0:
63,206,177083,1,8,0:3:0:0:
111,187,177166,1,8,0:3:0:0:
119,139,177249,1,8,0:3:0:0:
86,115,177333,6,0,P|65:154|62:193,1,84,14|0,1:3|0:3,0:0:0:0:
254,211,177666,2,0,L|184:200,1,62.9999980773926,0|0,1:3|0:3,0:0:0:0:
4,291,177833,2,0,L|74:280,1,62.9999980773926,0|0,1:3|0:3,0:0:0:0:
196,384,177999,1,8,0:3:0:0:
214,315,178083,1,8,0:3:0:0:
264,285,178166,1,8,0:3:0:0:
308,285,178249,1,8,0:3:0:0:
334,305,178333,6,0,P|355:321|412:322,1,84,14|0,1:3|0:3,0:0:0:0:
509,384,178666,2,0,L|497:294,1,62.9999980773926,0|0,1:3|0:3,0:0:0:0:
385,253,178833,2,0,L|397:163,1,62.9999980773926,0|0,1:3|0:3,0:0:0:0:
425,0,178999,5,12,0:3:0:0:
491,22,179083,1,12,0:3:0:0:
512,74,179166,1,12,0:3:0:0:
492,113,179249,1,12,0:3:0:0:
458,128,179333,6,0,L|360:112,1,84,14|0,1:3|0:3,0:0:0:0:
308,0,179666,2,0,P|322:32|318:86,1,62.9999980773926,0|0,1:3|0:3,0:0:0:0:
316,214,179833,2,0,P|290:184|245:160,1,62.9999980773926,0|0,1:3|0:3,0:0:0:0:
34,22,179999,5,4,0:3:0:0:
0,213,180166,1,4,0:3:0:0:
18,114,180333,6,0,L|115:98,1,84,6|0,1:3|0:3,0:0:0:0:
184,17,180666,2,0,P|187:53|161:104,1,62.9999980773926,0|0,1:3|0:3,0:0:0:0:
81,180,180833,2,0,P|77:211|85:241,1,62.9999980773926,0|0,1:3|0:3,0:0:0:0:
250,359,180999,1,8,0:3:0:0:
276,332,181083,1,8,0:3:0:0:
280,282,181166,1,8,0:3:0:0:
234,239,181249,1,8,0:3:0:0:
165,254,181333,6,0,L|161:352,1,84,14|0,1:3|0:3,0:0:0:0:
22,329,181666,2,0,L|98:314,1,62.9999980773926,0|0,1:3|0:3,0:0:0:0:
160,162,181833,2,0,L|237:170,1,62.9999980773926,0|0,1:3|0:3,0:0:0:0:
477,202,181999,1,8,0:3:0:0:
440,260,182083,1,8,0:3:0:0:
383,262,182166,1,8,0:3:0:0:
350,233,182249,1,8,0:3:0:0:
341,196,182333,6,0,L|371:100,1,84,14|0,0:3|0:3,0:0:0:0:
441,94,182666,2,0,L|426:23,1,62.9999980773926,0|0,1:3|0:3,0:0:0:0:
267,0,182833,2,0,L|252:71,1,62.9999980773926,0|0,1:3|0:3,0:0:0:0:
8,124,182999,1,8,1:3:0:0:
62,168,183083,1,8,0:3:0:0:
115,148,183166,1,8,0:3:0:0:
123,104,183249,1,8,0:3:0:0:
95,77,183333,6,0,P|74:123|75:177,1,84,14|0,0:3|0:3,0:0:0:0:
194,218,183666,2,0,L|185:136,1,62.9999980773926,4|0,1:3|0:3,0:0:0:0:
20,232,183833,2,0,L|13:294,1,62.9999980773926,4|0,1:3|0:3,0:0:0:0:
182,384,183999,1,4,0:3:0:0:
90,281,184166,1,4,0:3:0:0:
257,150,184333,6,0,L|251:83,1,52.5000020027161,6|4,0:3|0:3,0:0:0:0:
244,19,184499,1,4,0:3:0:0:
236,14,184583,1,4,0:3:0:0:
237,25,184666,1,4,1:3:0:0:
185,217,184833,1,4,1:3:0:0:
403,317,185333,6,0,L|409:250,1,52.5000020027161,6|4,0:3|0:3,0:0:0:0:
416,186,185499,1,4,0:3:0:0:
424,181,185583,1,4,0:3:0:0:
423,192,185666,1,4,1:3:0:0:
475,384,185833,1,4,1:3:0:0:
146,285,186333,5,6,0:3:0:0:
137,280,186416,1,4,0:3:0:0:
126,277,186499,1,4,0:3:0:0:
115,277,186583,1,4,0:3:0:0:
76,299,186666,1,4,1:3:0:0:
224,367,186833,1,4,1:3:0:0:
404,42,187333,5,6,0:3:0:0:
413,37,187416,1,4,0:3:0:0:
423,34,187499,1,4,0:3:0:0:
434,34,187583,1,4,0:3:0:0:
474,55,187666,1,4,1:3:0:0:
326,123,187833,1,4,1:3:0:0:
225,4,187999,2,0,L|229:89,1,52.5000020027161,10|0,1:3|0:3,0:0:0:0:
238,213,188166,2,0,L|235:160,1,52.5000020027161,10|0,1:3|0:3,0:0:0:0:
43,38,188333,5,6,0:3:0:0:
34,45,188416,1,4,0:3:0:0:
34,57,188499,1,4,0:3:0:0:
26,67,188583,1,4,0:3:0:0:
37,109,188666,1,4,1:3:0:0:
158,38,188833,1,4,1:3:0:0:
157,293,189333,5,6,0:3:0:0:
166,299,189416,1,4,0:3:0:0:
166,312,189499,1,4,0:3:0:0:
174,321,189583,1,4,0:3:0:0:
156,365,189666,1,4,1:3:0:0:
45,263,189833,1,4,1:3:0:0:
399,261,190333,5,6,0:3:0:0:
395,270,190416,1,4,0:3:0:0:
386,265,190499,1,4,0:3:0:0:
390,256,190583,1,4,0:3:0:0:
420,237,190666,1,4,1:3:0:0:
417,379,190833,1,4,1:3:0:0:
300,101,191333,5,6,0:3:0:0:
304,110,191416,1,4,0:3:0:0:
313,105,191499,1,4,0:3:0:0:
309,96,191583,1,4,0:3:0:0:
279,76,191666,1,4,1:3:0:0:
282,218,191833,1,4,1:3:0:0:
502,97,191999,1,8,0:3:0:0:
500,70,192083,1,8,0:3:0:0:
477,40,192166,1,8,0:3:0:0:
430,31,192249,1,8,0:3:0:0:
380,61,192333,6,0,B|411:101|388:137|388:137|388:192|447:213,1,157.500006008148,14|0,1:3|0:3,0:0:0:0:
486,168,192666,1,8,0:3:0:0:
321,358,192833,2,0,P|392:311|513:286,1,210.000008010865,6|4,1:3|0:3,0:0:0:0:
277,113,193333,2,0,B|287:193|287:193|283:202|283:202|294:275,1,157.500006008148,8|0,0:3|0:3,0:0:0:0:
363,241,193666,5,4,0:3:0:0:
212,169,193833,1,4,0:3:0:0:
63,355,193999,2,0,P|48:328|127:341,1,157.500006008148,8|0,0:3|0:3,0:0:0:0:
133,383,194333,1,4,0:3:0:0:
20,47,194666,6,0,B|61:114|61:114|116:58,1,157.500006008148,10|0,1:3|0:3,0:0:0:0:
73,0,194999,6,0,L|134:171,1,178.500003404617,6|0,1:3|0:3,0:0:0:0:
128,242,195333,1,4,0:3:0:0:
430,99,195499,2,0,L|184:57,1,238.00000453949,8|4,0:3|0:3,0:0:0:0:
512,277,195999,2,0,B|466:255|466:255|281:303,1,238.00000453949,8|4,0:3|0:3,0:0:0:0:
208,272,196499,6,0,L|211:186,1,59.5000011348725,10|0,0:3|0:3,0:0:0:0:
295,24,196666,1,14,0:3:0:0:
306,20,196749,1,4,0:3:0:0:
317,16,196833,1,4,0:3:0:0:
328,13,196916,1,4,0:3:0:0:
339,10,196999,5,8,0:3:0:0:
379,54,197083,1,8,0:3:0:0:
364,105,197166,1,8,0:3:0:0:
325,132,197249,1,8,0:3:0:0:
283,126,197333,1,8,0:3:0:0:
256,102,197416,1,8,0:3:0:0:
226,97,197499,1,8,0:3:0:0:
202,103,197583,1,8,0:3:0:0:
189,115,197666,5,12,0:3:0:0:
297,245,197833,1,4,0:3:0:0:
445,153,197999,1,4,0:3:0:0:
155,342,198166,5,12,1:3:0:0:
277,175,198333,1,4,0:3:0:0:
481,258,198499,1,4,0:3:0:0:
68,350,198666,5,12,1:3:0:0:
54,190,198833,1,4,0:3:0:0:
70,368,198999,1,4,0:3:0:0:
198,27,199166,5,12,1:3:0:0:
169,250,199333,1,4,0:3:0:0:
200,9,199499,1,4,0:3:0:0:
459,179,199666,5,12,1:3:0:0:
350,116,199833,1,4,0:3:0:0:
157,363,199999,2,0,L|259:377,1,70,4|0,0:3|0:3,0:0:0:0:
438,161,200333,5,10,1:3:0:0:
469,173,200416,1,8,0:3:0:0:
486,209,200499,1,8,0:3:0:0:
470,252,200583,1,8,0:3:0:0:
421,271,200666,1,8,0:3:0:0:
373,236,200749,1,8,0:3:0:0:
367,175,200833,5,10,1:3:0:0:
426,200,200916,1,8,0:3:0:0:
447,261,200999,1,8,0:3:0:0:
421,321,201083,1,8,0:3:0:0:
362,349,201166,1,8,0:3:0:0:
300,328,201249,1,8,0:3:0:0:
271,268,201333,1,10,1:3:0:0:
215,223,201416,1,8,0:3:0:0:
138,216,201499,1,8,0:3:0:0:
67,248,201583,1,8,0:3:0:0:
45,320,201666,6,0,L|82:314,1,35,10|0,1:3|0:3,0:0:0:0:
157,365,202166,1,4,0:3:0:0:
182,325,202249,1,4,0:3:0:0:
182,282,202333,1,8,0:3:0:0:
164,250,202416,1,8,0:3:0:0:
135,237,202499,1,8,0:3:0:0:
118,216,202583,1,8,0:3:0:0:
112,190,202666,2,0,P|119:162|139:137,1,52.5,8|0,0:3|0:3,0:0:0:0:
35,193,202999,5,12,0:3:0:0:
424,38,203166,1,12,0:3:0:0:
211,2,204333,5,12,0:3:0:0:
140,384,204500,1,4,0:3:0:0:
462,337,205666,5,12,0:3:0:0:
72,209,205833,1,4,0:3:0:0:
485,5,206666,5,2,1:3:0:0:
485,5,206999,6,0,L|480:103,1,87.5,2|0,1:3|0:3,0:0:0:0:
367,104,207499,1,4,0:3:0:0:
368,112,207583,1,4,0:3:0:0:
369,122,207666,1,8,1:3:0:0:
414,57,207833,1,0,0:3:0:0:
495,216,207999,1,0,1:3:0:0:
441,157,208166,1,0,0:3:0:0:
241,358,208333,6,0,P|340:326|443:302,1,210.000008010865,2|0,0:3|0:3,0:0:0:0:
401,384,208833,1,4,1:3:0:0:
416,233,208999,2,0,P|379:207|306:218,1,105.000004005432,8|0,0:3|1:3,0:0:0:0:
190,306,209333,1,4,1:3:0:0:
252,364,209499,1,0,1:3:0:0:
181,164,209666,5,4,1:3:0:0:
102,321,209833,1,4,1:3:0:0:
0,200,209999,2,0,L|130:219,1,105.000004005432,8|0,1:3|0:3,0:0:0:0:
236,99,210333,1,8,0:3:0:0:
201,14,210499,1,8,1:3:0:0:
122,25,210666,2,0,L|131:83,1,52.5,4|0,0:3|0:3,0:0:0:0:
166,161,210999,6,0,B|264:51|356:243|446:76,1,315.000012016297,2|4,0:3|0:3,0:0:0:0:
447,14,211583,1,4,0:3:0:0:
408,0,211666,1,8,0:3:0:0:
324,65,211833,1,4,0:3:0:0:
354,135,211999,1,4,0:3:0:0:
228,327,212166,2,0,L|238:246,1,52.5000020027161,4|4,1:3|0:3,0:0:0:0:
241,207,212333,1,8,0:3:0:0:
453,351,212500,6,0,L|443:270,1,52.5000020027161,4|4,1:3|0:3,0:0:0:0:
427,180,212666,2,0,L|435:232,1,52.5000020027161,8|0,1:3|0:3,0:0:0:0:
322,362,212833,2,0,L|329:310,1,52.5000020027161,0|0,1:3|0:3,0:0:0:0:
174,205,212999,1,8,0:3:0:0:
126,210,213083,1,8,0:3:0:0:
79,215,213166,1,8,0:3:0:0:
32,221,213249,1,8,0:3:0:0:
5,263,213333,1,8,0:3:0:0:
24,270,213416,1,8,0:3:0:0:
43,277,213499,1,8,0:3:0:0:
62,284,213583,1,8,0:3:0:0:
82,324,213666,6,0,B|200:305|200:305|258:343|258:343|413:309,1,308.000009399414,14|8,0:3|0:3,0:0:0:0:
491,211,214166,1,0,0:3:0:0:
226,119,214333,1,4,1:3:0:0:
223,134,214416,2,0,P|232:162|285:159,1,62.9999980773926,4|4,0:0|0:3,0:0:0:0:
342,28,214583,1,0,1:3:0:0:
335,23,214666,2,0,P|308:26|288:60,1,62.9999980773926,8|0,0:0|0:3,0:0:0:0:
368,217,214833,1,0,1:3:0:0:
509,90,214999,6,0,P|444:99|371:122,1,125.999996154785,4|0,1:3|0:3,0:0:0:0:
117,264,215333,2,0,P|179:273|240:291,1,125.999996154785,8|0,1:3|0:3,0:0:0:0:
20,97,215666,1,4,1:3:0:0:
231,202,215833,1,4,0:3:0:0:
168,12,215999,2,0,B|104:3|67:98|163:147,1,188.999994232178,8|0,1:3|0:0,0:0:0:0:
233,104,216333,5,4,1:3:0:0:
285,16,216499,1,4,0:3:0:0:
62,156,216666,1,12,1:3:0:0:
258,289,216833,2,0,L|191:296,1,62.9999980773926,0|0,1:3|0:3,0:0:0:0:
36,333,217000,1,4,1:3:0:0:
52,350,217083,2,0,L|130:362,1,62.9999980773926,4|0,0:0|0:3,0:0:0:0:
203,288,217249,2,0,L|351:277,1,125.999996154785,0|0,1:3|0:3,0:0:0:0:
367,343,217499,1,0,1:3:0:0:
512,190,217666,5,4,1:3:0:0:
468,0,217833,1,0,0:3:0:0:
396,261,217999,5,8,1:3:0:0:
424,134,218166,1,0,0:3:0:0:
493,320,218333,1,4,0:3:0:0:
264,187,218499,1,4,0:3:0:0:
397,10,218666,2,0,P|355:49|372:114,1,105,8|0,0:3|0:3,0:0:0:0:
452,116,219000,6,0,B|369:78|304:154|308:169|314:189|255:251|170:195,1,308.000009399414,6|8,0:3|0:3,0:0:0:0:
0,58,219500,2,0,P|54:109|110:84,1,125.999996154785,0|4,1:3|0:3,0:0:0:0:
265,87,219833,1,4,1:3:0:0:
17,198,219999,1,8,1:3:0:0:
161,18,220166,1,0,1:3:0:0:
304,171,220333,5,4,1:3:0:0:
88,85,220499,1,0,1:3:0:0:
0,295,220666,2,0,B|57:278|57:278|88:285|88:285|265:236,1,251.999992309571,8|4,1:3|0:3,0:0:0:0:
428,318,221166,1,4,0:3:0:0:
277,384,221333,1,8,0:3:0:0:
399,204,221499,5,4,0:3:0:0:
421,207,221583,1,4,0:3:0:0:
441,221,221666,1,8,0:3:0:0:
352,99,221833,1,4,0:3:0:0:
381,79,221916,1,4,0:3:0:0:
411,75,221999,1,8,0:3:0:0:
239,230,222166,1,4,0:3:0:0:
268,254,222249,1,4,0:3:0:0:
305,264,222333,1,8,0:3:0:0:
149,63,222499,1,4,0:3:0:0:
177,20,222583,1,4,0:3:0:0:
223,0,222666,1,8,0:3:0:0:
30,215,222833,1,4,0:3:0:0:
40,276,222916,1,4,0:3:0:0:
89,314,223000,2,0,P|116:328|162:335,1,62.9999980773926,8|8,0:3|0:3,0:0:0:0:
350,276,223166,5,8,0:3:0:0:
393,250,223249,1,8,0:3:0:0:
437,253,223333,1,8,0:3:0:0:
467,275,223416,1,8,0:3:0:0:
479,303,223499,1,8,0:3:0:0:
477,328,223583,1,8,0:3:0:0:
444,358,223666,6,0,B|428:270|428:270|446:213|446:213|447:106,2,231.000007049561,8|8|8,0:3|0:3|0:3,0:0:0:0:
364,175,224333,5,6,1:3:0:0:
354,162,224416,1,4,0:3:0:0:
341,152,224499,1,4,0:3:0:0:
326,145,224583,1,4,0:3:0:0:
310,142,224666,1,4,0:3:0:0:
294,144,224749,1,4,0:3:0:0:
279,150,224833,1,4,0:3:0:0:
267,159,224916,1,4,0:3:0:0:
203,202,224999,6,0,L|195:102,1,98,12|0,1:3|0:3,0:0:0:0:
124,23,225666,5,4,1:3:0:0:
109,17,225749,1,4,0:3:0:0:
93,15,225833,1,4,0:3:0:0:
77,18,225916,1,4,0:3:0:0:
63,25,225999,1,4,0:3:0:0:
53,36,226083,1,4,0:3:0:0:
48,50,226166,1,4,0:3:0:0:
46,65,226249,1,4,0:3:0:0:
89,126,226333,6,0,L|191:107,1,98,12|0,1:3|0:3,0:0:0:0:
283,23,226999,5,4,1:3:0:0:
298,25,227083,1,4,0:3:0:0:
313,27,227166,1,4,0:3:0:0:
328,29,227249,1,4,0:3:0:0:
343,31,227333,1,4,0:3:0:0:
358,33,227416,1,4,0:3:0:0:
373,35,227499,1,4,0:3:0:0:
388,37,227583,1,4,0:3:0:0:
462,12,227666,6,0,P|481:51|469:108,1,98,12|0,1:3|0:3,0:0:0:0:
358,160,228333,5,4,1:3:0:0:
358,160,228416,1,4,0:3:0:0:
358,160,228499,2,0,L|353:96,1,52.5000020027161,4|4,0:3|0:3,0:0:0:0:
482,261,228666,1,4,1:3:0:0:
482,261,228749,1,4,0:3:0:0:
482,261,228832,2,0,L|477:325,1,52.5000020027161,4|4,0:3|0:3,0:0:0:0:
230,285,228999,6,0,L|322:277,1,73.4999977569581,12|0,1:3|0:3,0:0:0:0:
501,180,229166,2,0,L|427:186,1,73.4999977569581,8|0,0:3|0:3,0:0:0:0:
225,293,229333,6,0,L|317:285,1,73.4999977569581,8|0,1:3|0:3,0:0:0:0:
510,174,229500,2,0,L|436:180,1,73.4999977569581,8|0,0:3|0:3,0:0:0:0:
243,372,229666,5,14,1:3:0:0:
227,369,229749,1,4,0:3:0:0:
211,366,229833,1,4,0:3:0:0:
195,363,229916,1,4,0:3:0:0:
179,360,229999,1,4,0:3:0:0:
163,357,230083,1,4,0:3:0:0:
147,354,230166,1,4,0:3:0:0:
131,351,230249,1,4,0:3:0:0:
63,382,230333,6,0,L|51:281,1,98,12|0,0:3|0:3,0:0:0:0:
0,214,230999,5,4,1:3:0:0:
16,211,231082,1,4,0:3:0:0:
32,208,231166,1,4,0:3:0:0:
48,205,231249,1,4,0:3:0:0:
64,202,231332,1,4,0:3:0:0:
80,199,231416,1,4,0:3:0:0:
96,196,231499,1,4,0:3:0:0:
112,193,231582,1,4,0:3:0:0:
181,247,231666,6,0,L|193:146,1,98,12|0,0:3|0:3,0:0:0:0:
154,55,232333,5,4,1:3:0:0:
163,43,232416,1,4,0:3:0:0:
176,35,232499,1,4,0:3:0:0:
190,30,232583,1,4,0:3:0:0:
205,30,232666,1,4,0:3:0:0:
219,33,232749,1,4,0:3:0:0:
233,39,232833,1,4,0:3:0:0:
244,48,232916,1,4,0:3:0:0:
261,122,232999,6,0,L|359:132,1,98,12|0,0:3|0:3,0:0:0:0:
423,70,233666,5,6,1:3:0:0:
436,76,233749,1,4,0:3:0:0:
447,86,233833,1,4,1:3:0:0:
455,99,233916,1,4,0:3:0:0:
457,114,233999,2,0,P|449:152|426:175,1,52.5000020027161,6|4,1:3|0:3,0:0:0:0:
304,192,234166,2,0,P|307:218|320:241,1,52.5000020027161,4|4,1:3|0:3,0:0:0:0:
473,258,234333,5,12,0:3:0:0:
498,321,234416,1,8,0:3:0:0:
454,366,234499,1,8,0:3:0:0:
396,359,234583,1,8,0:3:0:0:
383,343,234666,5,8,1:3:0:0:
318,320,234749,1,8,0:3:0:0:
252,340,234833,1,8,0:3:0:0:
208,377,234916,1,8,0:3:0:0:
185,371,234999,5,14,1:3:0:0:
59,360,235166,1,0,0:3:0:0:
28,250,235333,1,8,0:3:0:0:
85,185,235499,1,0,0:3:0:0:
357,256,235666,5,4,1:3:0:0:
320,69,235833,1,4,1:3:0:0:
152,135,235999,5,8,1:3:0:0:
120,276,236166,1,0,1:3:0:0:
347,3,236333,5,4,1:3:0:0:
69,185,236499,1,0,0:3:0:0:
386,204,236666,5,8,1:3:0:0:
139,130,236833,1,0,0:3:0:0:
256,350,236999,5,4,1:3:0:0:
215,173,237166,1,4,0:3:0:0:
85,341,237333,5,8,1:3:0:0:
214,258,237499,1,0,0:3:0:0:
487,46,237666,5,4,1:3:0:0:
394,37,237833,1,0,0:3:0:0:
302,28,237999,1,8,1:3:0:0:
107,12,238166,1,0,0:3:0:0:
119,254,238333,5,4,1:3:0:0:
226,95,238499,1,4,1:3:0:0:
46,179,238666,5,8,1:3:0:0:
10,113,238833,1,0,1:3:0:0:
354,101,238999,5,4,1:3:0:0:
465,343,239166,1,0,0:3:0:0:
348,88,239333,5,8,1:3:0:0:
273,334,239499,1,0,0:3:0:0:
352,72,239666,5,4,1:3:0:0:
180,183,239833,1,4,0:3:0:0:
361,63,239999,5,8,1:3:0:0:
198,16,240166,1,0,0:3:0:0:
447,257,240333,6,0,B|381:273|381:273|366:266|366:266|169:313,1,231.000007049561,6|0,1:3|0:3,0:0:0:0:
190,364,240666,1,8,0:3:0:0:
0,258,240833,2,0,P|34:301|108:294,1,125.999996154785,0|4,1:3|0:3,0:0:0:0:
354,159,241166,1,4,1:3:0:0:
107,175,241333,1,8,1:3:0:0:
58,369,241499,1,0,1:3:0:0:
128,72,241666,5,4,1:3:0:0:
294,239,241833,1,0,1:3:0:0:
0,149,241999,2,0,P|116:107|280:72,1,251.999992309571,8|4,1:3|0:3,0:0:0:0:
481,27,242499,1,4,1:3:0:0:
439,121,242666,1,8,0:3:0:0:
280,5,242833,1,0,1:3:0:0:
272,222,242999,6,0,P|200:223|191:152,1,125.999996154785,4|0,1:3|0:3,0:0:0:0:
370,0,243333,1,8,0:3:0:0:
411,288,243500,2,0,P|483:289|492:218,1,125.999996154785,0|4,1:3|0:3,0:0:0:0:
288,17,243833,1,4,0:3:0:0:
76,175,243999,5,12,0:3:0:0:
57,169,244083,1,4,0:3:0:0:
38,164,244166,1,4,0:3:0:0:
19,159,244249,1,4,0:3:0:0:
4,154,244333,5,12,0:3:0:0:
71,115,244416,1,8,0:3:0:0:
148,125,244499,1,8,0:3:0:0:
210,172,244583,1,8,0:3:0:0:
227,247,244666,1,12,0:3:0:0:
284,298,244749,1,8,0:3:0:0:
361,314,244833,1,8,0:3:0:0:
436,293,244916,1,8,0:3:0:0:
491,238,244999,1,12,0:3:0:0:
512,161,245083,1,8,0:3:0:0:
493,85,245166,1,8,0:3:0:0:
440,27,245249,1,8,0:3:0:0:
362,10,245333,2,0,P|316:16|260:47,1,62.9999980773926,12|0,0:3|0:3,0:0:0:0:
91,226,245499,5,8,0:3:0:0:
93,238,245583,1,8,0:3:0:0:
95,250,245666,2,0,L|342:212,1,210,6|0,1:3|0:3,0:0:0:0:
358,303,245999,1,8,1:3:0:0:
471,334,246166,1,4,0:3:0:0:
512,163,246332,1,0,1:3:0:0:
436,181,246499,1,4,0:3:0:0:
283,289,246666,5,12,1:3:0:0:
278,302,246749,1,4,0:3:0:0:
279,315,246832,1,4,0:3:0:0:
358,134,246999,1,4,1:3:0:0:
362,147,247082,1,4,0:3:0:0:
362,160,247165,1,4,0:3:0:0:
209,138,247332,1,8,1:3:0:0:
424,258,247499,1,4,1:3:0:0:
279,55,247666,6,0,B|226:64|226:64|211:60|211:60|96:82,1,168,6|0,1:3|0:3,0:0:0:0:
45,17,247999,1,8,1:3:0:0:
10,124,248166,1,4,3:3:0:0:
167,218,248332,1,0,1:3:0:0:
182,289,248499,1,4,3:3:0:0:
43,218,248666,5,12,1:3:0:0:
33,213,248749,1,4,0:3:0:0:
22,210,248832,1,4,0:3:0:0:
188,146,248999,1,4,1:3:0:0:
198,141,249082,1,4,0:3:0:0:
209,138,249165,1,4,0:3:0:0:
99,77,249332,1,8,1:3:0:0:
23,313,249499,1,4,1:3:0:0:
206,221,249666,6,0,B|304:201|277:306|383:275,1,168,6|0,1:3|0:3,0:0:0:0:
431,240,249999,1,8,1:3:0:0:
365,191,250166,1,4,3:3:0:0:
288,354,250332,1,0,1:3:0:0:
180,365,250499,1,4,3:3:0:0:
274,237,250666,5,12,1:3:0:0:
272,227,250749,1,4,0:3:0:0:
269,217,250832,1,4,0:3:0:0:
412,334,250999,1,4,1:3:0:0:
409,344,251082,1,4,0:3:0:0:
407,354,251165,1,4,0:3:0:0:
481,248,251332,1,8,1:3:0:0:
190,285,251499,1,4,1:3:0:0:
509,167,251666,6,0,B|444:148|444:148|430:152|430:152|316:119,1,168,2|0,1:3|0:3,0:0:0:0:
331,32,251999,1,8,1:3:0:0:
425,17,252166,1,4,3:3:0:0:
285,179,252332,1,0,1:3:0:0:
45,55,252499,1,4,0:3:0:0:
45,55,252582,1,4,0:3:0:0:
45,55,252666,6,0,L|141:41,1,70,10|0,0:3|0:3,0:0:0:0:
258,25,252832,2,0,L|188:35,1,70,10|0,0:3|0:3,0:0:0:0:
22,156,252999,2,0,L|118:129,1,70,10|0,0:3|0:3,0:0:0:0:
306,116,253166,2,0,L|236:110,1,70,10|0,0:3|0:3,0:0:0:0:
9,277,253332,2,0,L|96:216,1,70,10|0,0:3|0:3,0:0:0:0:
356,214,253499,2,0,L|289:192,1,70,10|0,0:3|0:3,0:0:0:0:
159,384,253666,5,14,1:3:0:0:
112,353,253749,1,4,0:3:0:0:
108,297,253832,1,4,0:3:0:0:
134,255,253916,1,4,0:3:0:0:
170,234,253999,1,12,0:3:0:0:
204,236,254082,1,4,0:3:0:0:
234,254,254166,1,4,0:3:0:0:
268,256,254249,1,4,0:3:0:0:
298,238,254332,1,4,0:3:0:0:
315,207,254416,1,4,0:3:0:0:
313,172,254499,1,4,0:3:0:0:
291,144,254582,1,4,0:3:0:0:
238,142,254666,5,12,1:3:0:0:
239,148,254749,1,4,0:3:0:0:
240,154,254832,1,4,0:3:0:0:
241,160,254916,1,4,0:3:0:0:
250,199,254999,5,4,1:3:0:0:
249,205,255082,1,4,0:3:0:0:
248,211,255165,1,4,0:3:0:0:
247,217,255249,1,4,0:3:0:0:
216,246,255332,6,0,L|323:262,1,70,12|4,1:3|0:3,0:0:0:0:
474,157,255499,2,0,L|367:173,1,70,4|4,1:3|0:3,0:0:0:0:
198,35,255666,5,4,1:3:0:0:
139,12,255749,1,4,0:3:0:0:
78,28,255832,1,4,0:3:0:0:
49,84,255916,1,4,0:3:0:0:
65,144,255999,1,12,0:3:0:0:
107,167,256082,1,4,0:3:0:0:
156,171,256166,1,4,0:3:0:0:
189,195,256249,1,4,0:3:0:0:
197,235,256332,1,4,0:3:0:0:
187,268,256416,1,4,0:3:0:0:
166,287,256499,1,4,0:3:0:0:
138,290,256582,1,4,0:3:0:0:
102,260,256666,5,12,1:3:0:0:
95,258,256749,1,4,0:3:0:0:
88,256,256832,1,4,0:3:0:0:
81,254,256916,1,4,0:3:0:0:
49,229,256999,5,4,1:3:0:0:
42,231,257082,1,4,0:3:0:0:
35,233,257165,1,4,0:3:0:0:
28,235,257249,1,4,0:3:0:0:
1,267,257332,6,0,L|11:355,1,70,12|4,1:3|0:3,0:0:0:0:
116,171,257499,2,0,L|126:83,1,70,4|4,1:3|0:3,0:0:0:0:
217,346,257666,5,4,1:3:0:0:
280,374,257749,1,4,0:3:0:0:
348,358,257832,1,4,0:3:0:0:
393,303,257916,1,4,0:3:0:0:
379,241,257999,1,12,0:3:0:0:
336,205,258082,1,4,0:3:0:0:
321,150,258166,1,4,0:3:0:0:
331,102,258249,1,4,0:3:0:0:
361,73,258332,1,4,0:3:0:0:
402,65,258416,1,4,0:3:0:0:
435,74,258499,1,4,0:3:0:0:
460,97,258582,1,4,0:3:0:0:
454,148,258666,5,12,1:3:0:0:
447,146,258749,1,4,0:3:0:0:
440,144,258832,1,4,0:3:0:0:
433,142,258916,1,4,0:3:0:0:
402,171,258999,5,4,1:3:0:0:
395,173,259082,1,4,0:3:0:0:
388,175,259165,1,4,0:3:0:0:
381,177,259249,1,4,0:3:0:0:
345,156,259332,5,12,1:3:0:0:
310,150,259416,1,4,0:3:0:0:
275,144,259499,2,0,L|170:127,1,70,4|4,1:3|0:3,0:0:0:0:
33,0,259666,5,12,1:3:0:0:
145,355,259832,1,12,0:3:0:0:
320,247,260665,5,12,0:3:0:0:
352,206,260749,1,12,0:3:0:0:
334,162,260832,2,0,P|324:145|293:119,1,35,12|4,0:3|0:3,0:0:0:0:
224,49,260999,1,12,0:3:0:0:
211,67,261082,1,12,0:3:0:0:
210,83,261165,2,0,L|258:95,1,35,12|4,0:3|0:3,0:0:0:0:
424,144,261332,1,12,0:3:0:0:
355,12,261499,1,4,0:3:0:0:
232,355,261665,5,6,0:3:0:0:
256,192,261749,12,0,269666,0:3:0:0:
