osu file format v14

[General]
AudioFilename: audio.ogg
AudioLeadIn: 0
PreviewTime: 201583
Countdown: 0
SampleSet: Drum
StackLeniency: 0.4
Mode: 0
LetterboxInBreaks: 0
WidescreenStoryboard: 1

[Editor]
Bookmarks: 19000,34999,50999,72333,93667,109667,128333,160333,176333,192333,207000,224333,245666
DistanceSpacing: 0.5
BeatDivisor: 4
GridSize: 16
TimelineZoom: 2.3

[Metadata]
Title:Wandering, Never Wondering (There Exists A Shade)
TitleUnicode:Wandering, Never Wondering (There Exists A Shade)
Artist:Foreground Eclipse
ArtistUnicode:Foreground Eclipse
Creator:GYGY
Version:Extra Collab
Source:東方地霊殿 ~ Subterranean Animism.
Tags:Anxient bongo Kowari Xevia merami meramipop teto japanese melodic metal video game ZUN 東方project touhou chireiden th11 SA koishi komeiji ラストリモート 東方地霊殿 4th album extra stage theme last remote Stories That Last Through The Sleepless Nights c85 comiket 85 FGE FE
BeatmapID:3661526
BeatmapSetID:1785945

[Difficulty]
HPDrainRate:5
CircleSize:4.1
OverallDifficulty:9
ApproachRate:9.3
SliderMultiplier:1.4
SliderTickRate:1

[Events]
//Background and Video events
0,0,"cc6ba5ef3e546dba8d1cc6eb71792f653f6bea13 (2).jpg",0,0
//Break Periods
//Storyboard Layer 0 (Background)
//Storyboard Layer 1 (Fail)
//Storyboard Layer 2 (Pass)
//Storyboard Layer 3 (Foreground)
//Storyboard Layer 4 (Overlay)
//Storyboard Sound Samples

[TimingPoints]
834,333.333333333333,4,3,1,45,1,0
1167,-100,4,3,35,45,0,0
1833,-100,4,3,1,45,0,0
2667,-166.666666666667,4,3,1,45,0,0
3000,333.333333333333,3,3,3,45,1,0
10333,-76.9230769230769,3,3,3,55,0,0
10666,-62.5,3,3,3,65,0,0
10999,-100,3,3,5,75,0,0
11333,-100,3,3,13,75,0,0
11666,-100,3,3,24,75,0,0
11999,-100,3,3,6,75,0,0
12333,-100,3,3,13,75,0,0
12666,-100,3,3,24,75,0,0
12999,-100,3,3,6,75,0,0
13333,-100,3,3,13,75,0,0
13666,-100,3,3,24,75,0,0
13999,-100,3,3,6,75,0,0
14333,-100,3,3,13,75,0,0
14666,-100,3,3,24,75,0,0
14999,-100,3,3,5,75,0,0
15333,-100,3,3,13,75,0,0
15666,-100,3,3,24,75,0,0
15999,-100,3,3,6,75,0,0
16333,-100,3,3,13,75,0,0
16666,-100,3,3,24,75,0,0
16999,-100,3,3,13,75,0,0
17333,-100,3,3,24,75,0,0
17666,-100,3,3,6,75,0,0
18666,-166.666666666667,3,3,5,75,0,0
18999,-66.6666666666667,3,3,2,60,0,0
19083,-66.6666666666667,3,3,1,60,0,0
22999,-66.6666666666667,3,3,2,60,0,0
23083,-66.6666666666667,3,3,1,60,0,0
26666,-133.333333333333,3,3,1,60,0,0
26916,-133.333333333333,3,3,1,60,0,0
26999,-66.6666666666667,3,3,2,60,0,0
27083,-66.6666666666667,3,3,1,60,0,0
30999,-66.6666666666667,3,3,2,60,0,0
31083,-66.6666666666667,3,3,1,60,0,0
34666,-58.8235294117647,3,3,1,60,0,0
35000,333.333333333333,4,3,5,65,1,0
35083,-100,4,3,13,65,0,0
35333,-100,4,3,5,65,0,0
35416,-100,4,3,13,65,0,0
35666,-100,4,3,5,65,0,0
35749,-100,4,3,13,65,0,0
36000,-100,4,3,5,65,0,0
36083,-100,4,3,13,65,0,0
36166,-100,4,3,2,65,0,0
36250,-100,4,3,13,65,0,0
36333,-100,4,3,24,65,0,0
36416,-100,4,3,35,65,0,0
36666,-100,4,3,5,65,0,0
36750,-100,4,3,2,65,0,0
37000,-100,4,3,5,65,0,0
37166,-100,4,3,13,65,0,0
37333,-100,4,3,5,65,0,0
37750,-100,4,3,13,65,0,0
38000,-100,4,3,5,65,0,0
38083,-100,4,3,13,65,0,0
38333,-100,4,3,5,65,0,0
38416,-100,4,3,13,65,0,0
38666,-100,4,3,5,65,0,0
38749,-100,4,3,13,65,0,0
38999,-100,4,3,2,65,0,0
39416,-100,4,3,13,65,0,0
39666,-100,4,3,5,65,0,0
39749,-100,4,3,13,65,0,0
39999,-100,4,3,1,65,0,0
40333,-100,4,3,5,65,0,0
40416,-100,4,3,13,65,0,0
40666,-100,4,3,5,65,0,0
40749,-100,4,3,13,65,0,0
40999,-100,4,3,5,65,0,0
41082,-100,4,3,13,65,0,0
41333,-100,4,3,5,65,0,0
41416,-100,4,3,13,65,0,0
41499,-100,4,3,2,65,0,0
41583,-100,4,3,13,65,0,0
41666,-100,4,3,24,65,0,0
41749,-100,4,3,35,65,0,0
41999,-100,4,3,5,65,0,0
42083,-100,4,3,2,65,0,0
42249,-100,4,3,5,65,0,0
42499,-100,4,3,35,65,0,0
42999,-100,4,3,5,65,0,0
43083,-100,4,3,13,65,0,0
43333,-100,4,3,5,65,0,0
43417,-100,4,3,13,65,0,0
43666,-100,4,3,5,65,0,0
43750,-100,4,3,13,65,0,0
43999,-100,4,3,5,65,0,0
44083,-100,4,3,13,65,0,0
44333,-100,4,3,5,65,0,0
44417,-100,4,3,13,65,0,0
44999,-100,4,3,24,65,0,0
45333,-100,4,3,35,65,0,0
45666,-125,4,3,2,50,0,0
45749,-125,4,3,1,50,0,0
48333,-125,4,3,2,50,0,0
48416,-125,4,3,1,50,0,0
50999,-111.111111111111,4,3,3,50,0,0
54499,-111.111111111111,4,3,3,5,0,0
54583,-111.111111111111,4,3,3,50,0,0
54749,-111.111111111111,4,3,3,5,0,0
54833,-111.111111111111,4,3,3,50,0,0
60999,-76.9230769230769,4,3,24,50,0,0
61166,-76.9230769230769,4,3,3,50,0,0
61333,-66.6666666666667,4,3,3,50,0,0
61499,-74.0740740740741,4,3,3,50,0,0
61666,-76.9230769230769,4,3,3,50,0,0
70333,-100,4,3,3,56,0,0
70666,-83.3333333333333,4,3,3,62,0,0
70999,-71.4285714285714,4,3,3,74,0,0
71333,-62.5,4,3,3,74,0,0
71666,-55.5555555555556,4,3,3,84,0,0
72333,-55.5555555555556,4,3,2,66,0,0
72416,-55.5555555555556,4,3,3,66,0,0
72999,-66.6666666666667,4,3,3,66,0,0
92333,-66.6666666666667,4,3,13,66,0,0
92666,-66.6666666666667,4,3,1,66,0,0
92999,-66.6666666666667,4,3,35,66,0,0
93333,-125,4,3,2,66,0,0
93666,-100,3,3,2,66,0,0
93667,333.333333333333,3,3,2,66,1,0
93667,-66.6666666666667,3,3,2,66,0,0
93751,-66.6666666666667,3,3,1,66,0,0
97667,-66.6666666666667,3,3,2,66,0,0
97751,-66.6666666666667,3,3,1,66,0,0
101333,-133.333333333333,3,3,3,66,0,0
101583,-133.333333333333,3,3,3,66,0,0
101666,-66.6666666666667,3,3,2,66,0,0
101751,-66.6666666666667,3,3,1,66,0,0
105666,-66.6666666666667,3,3,2,66,0,0
105750,-66.6666666666667,3,3,1,66,0,0
108666,-66.6666666666667,3,3,1,66,0,0
109111,-66.6666666666667,3,3,13,66,0,0
109333,-66.6666666666667,3,3,1,66,0,0
109444,-66.6666666666667,3,3,24,66,0,0
109667,333.333333333333,4,3,2,56,1,0
109667,-83.3333333333333,4,3,2,56,0,0
109750,-83.3333333333333,4,3,3,56,0,0
113833,-66.6666666666667,4,3,3,56,0,0
114333,-66.6666666666667,4,3,24,56,0,0
114667,-66.6666666666667,4,3,35,56,0,0
115000,-66.6666666666667,4,3,3,56,0,0
115500,-83.3333333333333,4,3,3,56,0,0
120333,-83.3333333333333,4,3,5,56,0,0
120416,-83.3333333333333,4,3,3,56,0,0
123000,-71.4285714285714,4,3,3,56,0,0
127666,-71.4285714285714,4,3,13,56,0,0
128000,-71.4285714285714,4,3,24,56,0,0
128333,-50,4,3,3,67,0,0
130666,-400,4,3,3,67,0,0
130916,-400,4,3,3,5,0,0
131000,-47.6190476190476,4,3,3,67,0,0
132666,-47.6190476190476,4,3,3,67,0,0
133000,-47.6190476190476,4,3,13,67,0,0
133333,-47.6190476190476,4,3,24,67,0,0
133666,-50,4,3,3,67,0,0
136333,-47.6190476190476,4,3,3,67,0,0
137666,-125,4,3,3,55,0,0
138333,-100,4,3,3,55,0,0
139000,-55.5555555555556,4,3,2,82,0,1
139083,-55.5555555555556,4,3,3,82,0,1
142083,-55.5555555555556,4,3,3,5,0,1
142166,-55.5555555555556,4,3,3,82,0,1
144333,-55.5555555555556,4,3,2,82,0,1
144416,-55.5555555555556,4,3,3,82,0,1
149333,-55.5555555555556,4,3,13,82,0,1
149666,-60.6060606060606,4,3,3,82,0,0
160000,-60.6060606060606,4,3,13,82,0,0
160166,-60.6060606060606,4,3,24,82,0,0
160333,333.333333333333,3,3,2,66,1,0
160333,-125,4,3,7,50,0,0
164333,-100,4,3,7,50,0,0
164833,-125,4,3,7,50,0,0
168000,-200,4,3,3,65,0,0
168333,-71.4285714285714,4,3,3,70,0,0
169666,-71.4285714285714,4,3,13,70,0,0
170000,-71.4285714285714,4,3,24,70,0,0
170333,-71.4285714285714,4,3,6,70,0,0
171750,-71.4285714285714,4,3,13,70,0,0
171833,-71.4285714285714,4,3,24,70,0,0
171916,-71.4285714285714,4,3,35,70,0,0
172000,-71.4285714285714,4,3,6,70,0,0
172083,-71.4285714285714,4,3,13,70,0,0
172166,-71.4285714285714,4,3,24,70,0,0
172249,-71.4285714285714,4,3,35,70,0,0
172333,-71.4285714285714,4,3,5,70,0,0
173833,-71.4285714285714,4,3,13,70,0,0
174000,-71.4285714285714,4,3,24,70,0,0
174166,-71.4285714285714,4,3,35,70,0,0
174333,-71.4285714285714,4,3,5,70,0,0
175833,-71.4285714285714,4,3,5,70,0,0
176000,-71.4285714285714,4,3,35,70,0,0
176166,-71.4285714285714,4,3,35,70,0,0
176333,-52.6315789473684,4,3,7,70,0,0
178083,-52.6315789473684,4,3,13,70,0,0
178166,-52.6315789473684,4,3,24,70,0,0
178250,-52.6315789473684,4,3,35,70,0,0
178333,-52.6315789473684,4,3,7,70,0,0
179083,-52.6315789473684,4,3,13,70,0,0
179166,-52.6315789473684,4,3,24,70,0,0
179250,-52.6315789473684,4,3,35,70,0,0
179333,-52.6315789473684,4,3,7,70,0,0
180000,-52.6315789473684,4,3,35,70,0,0
180333,-52.6315789473684,4,3,7,70,0,0
182083,-52.6315789473684,4,3,13,70,0,0
182166,-52.6315789473684,4,3,24,70,0,0
182250,-52.6315789473684,4,3,35,70,0,0
182333,-52.6315789473684,4,3,7,70,0,0
183083,-52.6315789473684,4,3,13,70,0,0
183166,-52.6315789473684,4,3,24,70,0,0
183250,-52.6315789473684,4,3,35,70,0,0
183333,-52.6315789473684,4,3,7,70,0,0
184000,-52.6315789473684,4,3,35,70,0,0
192000,-58.8235294117647,4,3,6,60,0,0
192333,333.333333333333,4,3,2,56,1,0
192333,-76.9230769230769,4,3,7,67,0,0
192833,-66.6666666666667,4,3,7,67,0,0
194666,-83.3333333333333,4,3,7,67,0,0
195000,-66.6666666666667,4,3,7,67,0,0
196500,-66.6666666666667,4,3,6,67,0,0
197166,-66.6666666666667,4,3,2,67,0,0
197333,-66.6666666666667,4,3,13,67,0,0
197500,-66.6666666666667,4,3,24,67,0,0
197666,-66.6666666666667,4,3,6,67,0,0
200000,-166.666666666667,4,3,6,67,0,0
200333,-66.6666666666667,4,3,6,67,0,0
201666,-125,4,3,6,67,0,0
202166,-66.6666666666667,4,3,6,67,0,0
202416,-66.6666666666667,4,3,13,67,0,0
202499,-66.6666666666667,4,3,24,67,0,0
202583,-66.6666666666667,4,3,35,67,0,0
202666,-125,4,3,7,67,0,0
203000,-125,4,3,8,67,0,0
206666,-125,4,3,1,67,0,0
207000,-142.857142857143,4,3,7,67,0,0
208333,-83.3333333333333,4,3,7,67,0,0
213333,-83.3333333333333,4,3,13,67,0,0
213666,-55.5555555555556,4,3,2,82,0,1
213750,-55.5555555555556,4,3,3,82,0,1
222999,-62.5,4,3,3,82,0,0
223416,-62.5,4,3,13,82,0,0
223500,-62.5,4,3,24,82,0,0
223583,-62.5,4,3,35,82,0,0
223666,-62.5,4,3,7,82,0,0
224333,-71.4285714285714,4,3,7,75,0,0
225000,-250,4,3,7,75,0,0
228500,-66.6666666666667,4,3,7,75,0,0
230333,-250,4,3,7,75,0,0
233666,-250,4,3,3,75,0,0
234000,-66.6666666666667,4,3,3,75,0,0
234666,-66.6666666666667,4,3,24,75,0,0
234750,-66.6666666666667,4,3,3,75,0,0
234833,-66.6666666666667,4,3,3,75,0,0
234916,-66.6666666666667,4,3,3,75,0,0
234999,-55.5555555555556,4,3,3,82,0,1
245500,-55.5555555555556,4,3,24,75,0,1
245666,333.333333333333,3,3,2,60,1,0
245666,-66.6666666666667,3,3,2,60,0,0
245749,-66.6666666666667,3,3,1,60,0,0
252666,-66.6666666666667,3,3,3,60,0,0
252999,-58.8235294117647,3,3,3,60,0,0
253332,-52.6315789473684,3,3,3,60,0,0
253666,-47.6190476190476,3,3,7,65,0,1
254666,-47.6190476190476,3,3,7,65,0,1
259666,-47.6190476190476,3,3,8,75,0,0
260665,-47.6190476190476,3,3,24,65,0,0
260999,-47.6190476190476,3,3,35,65,0,0
261332,-47.6190476190476,3,3,7,65,0,0
261665,-217.391304347826,3,3,7,80,0,1
261749,-250,3,3,7,5,0,0
269332,-200,3,3,35,5,0,0
269999,-200,3,3,35,5,0,0

[Colours]
Combo1 : 205,205,205
Combo2 : 237,235,194
Combo3 : 198,255,119
Combo4 : 7,237,168

[HitObjects]
117,55,834,5,4,0:3:0:0:
121,41,917,1,4,0:3:0:0:
126,26,1000,1,8,0:3:0:0:
34,46,1167,1,4,0:3:0:0:
25,158,1333,2,0,L|109:130,1,70,8|4,0:3|0:3,0:0:0:0:
83,246,1667,2,0,L|167:274,1,70,8|4,0:3|0:3,0:0:0:0:
209,221,1917,1,4,0:3:0:0:
220,212,2000,1,8,0:3:0:0:
295,311,2167,6,0,L|306:356,2,35,4|4|10,0:3|0:3|0:3,0:0:0:0:
224,370,2500,1,4,0:3:0:0:
217,362,2583,1,4,0:3:0:0:
207,356,2667,2,0,L|132:365,1,62.9999980773926,4|0,0:3|0:3,0:0:0:0:
103,298,3000,6,0,B|251:256|224:396|367:348,1,280,6|4,3:3|0:3,0:0:0:0:
95,305,3999,5,4,0:3:0:0:
87,310,4666,1,4,0:3:0:0:
406,209,4999,6,0,B|484:271|478:367|404:431|325:332,1,280,6|4,0:3|0:3,0:0:0:0:
395,203,5999,5,4,0:3:0:0:
389,209,6666,1,4,0:3:0:0:
356,9,6999,6,0,B|325:49|344:85|344:85|398:30|497:52|507:131,1,280,2|4,0:3|0:3,0:0:0:0:
364,6,7999,5,4,0:3:0:0:
373,2,8666,1,4,0:3:0:0:
328,161,8999,6,0,B|266:172|212:169|196:106|162:32|59:94,1,280,2|4,0:3|0:3,0:0:0:0:
47,304,9999,6,0,L|158:287,1,105,2|0,0:3|0:3,0:0:0:0:
169,295,10333,6,0,L|25:317,1,136.499993751526,2|0,0:3|0:3,0:0:0:0:
23,327,10666,6,0,L|204:299,1,168,2|0,0:3|0:3,0:0:0:0:
273,351,10999,5,14,0:3:0:0:
300,323,11083,1,8,0:3:0:0:
337,313,11166,1,8,0:3:0:0:
369,319,11249,1,8,0:3:0:0:
390,337,11333,1,12,0:3:0:0:
415,348,11416,1,8,0:3:0:0:
442,349,11499,1,8,0:3:0:0:
467,336,11583,1,8,0:3:0:0:
473,322,11666,2,0,L|481:269,3,35,12|8|8|8,0:3|0:3|0:3|0:3,0:0:0:0:
415,215,11999,5,14,0:3:0:0:
411,175,12083,1,8,0:3:0:0:
408,141,12166,1,8,0:3:0:0:
405,113,12249,1,8,0:3:0:0:
425,93,12333,1,4,0:3:0:0:
429,76,12416,1,8,0:3:0:0:
432,65,12499,1,8,0:3:0:0:
435,54,12583,1,8,0:3:0:0:
461,36,12666,2,0,L|522:47,3,35,12|8|8|8,0:3|0:3|0:3|0:3,0:0:0:0:
325,10,12999,5,14,0:3:0:0:
283,2,13083,1,8,0:3:0:0:
243,15,13166,1,8,0:3:0:0:
223,48,13249,1,8,0:3:0:0:
219,83,13333,1,12,0:3:0:0:
227,113,13416,1,8,0:3:0:0:
247,131,13499,1,8,0:3:0:0:
269,140,13583,1,8,0:3:0:0:
289,141,13666,2,0,P|313:131|330:95,3,35,12|8|8|8,0:3|0:3|0:3|0:3,0:0:0:0:
333,220,13999,5,14,0:3:0:0:
293,224,14083,1,8,0:3:0:0:
259,227,14166,1,8,0:3:0:0:
231,230,14249,1,8,0:3:0:0:
211,210,14333,1,12,0:3:0:0:
194,206,14416,1,8,0:3:0:0:
183,203,14499,1,8,0:3:0:0:
172,200,14583,1,8,0:3:0:0:
147,217,14666,2,0,L|154:279,3,35,12|12|12|8,0:3|0:3|0:3|0:3,0:0:0:0:
44,242,14999,5,14,0:3:0:0:
15,280,15083,1,8,0:3:0:0:
19,319,15166,1,8,0:3:0:0:
36,345,15249,1,8,0:3:0:0:
60,359,15333,1,12,0:3:0:0:
83,361,15416,1,8,0:3:0:0:
103,355,15499,2,0,P|125:335|149:326,1,35,8|8,0:3|0:3,0:0:0:0:
210,338,15666,1,12,0:3:0:0:
219,341,15749,1,8,0:3:0:0:
228,344,15833,2,0,L|222:285,1,35,8|8,0:3|0:3,0:0:0:0:
183,203,15999,5,14,0:3:0:0:
171,162,16083,1,8,0:3:0:0:
141,143,16166,1,8,0:3:0:0:
109,142,16249,1,8,0:3:0:0:
84,156,16333,1,12,0:3:0:0:
56,158,16416,1,8,0:3:0:0:
30,146,16499,1,8,0:3:0:0:
16,125,16583,1,8,0:3:0:0:
18,104,16666,2,0,L|61:95,3,35,12|8|8|8,0:3|0:3|0:3|0:3,0:0:0:0:
163,25,16999,5,14,0:3:0:0:
211,13,17083,1,8,0:3:0:0:
255,21,17166,1,8,0:3:0:0:
280,49,17249,1,8,0:3:0:0:
284,83,17333,1,12,0:3:0:0:
303,107,17416,1,8,0:3:0:0:
332,117,17499,1,8,0:3:0:0:
359,112,17583,1,8,0:3:0:0:
379,98,17666,5,12,0:3:0:0:
365,95,17749,1,8,0:3:0:0:
351,92,17833,1,8,0:3:0:0:
337,90,17916,1,0,0:3:0:0:
323,88,17999,5,14,0:3:0:0:
281,120,18083,1,8,0:3:0:0:
276,172,18166,1,8,0:3:0:0:
308,213,18249,1,0,0:3:0:0:
358,227,18333,1,14,0:3:0:0:
407,211,18416,1,8,0:3:0:0:
454,221,18499,1,8,0:3:0:0:
482,252,18583,1,0,0:3:0:0:
485,290,18666,2,0,L|411:303,1,62.9999980773926,14|0,0:3|0:3,0:0:0:0:
361,353,18999,6,0,B|324:340|324:340|252:360|252:360|178:338,1,157.500006008148,6|0,0:3|0:3,0:0:0:0:
131,378,19333,1,8,1:3:0:0:
240,268,19499,1,4,0:0:0:0:
54,233,19666,2,0,P|120:221|184:203,1,105.000004005432,0|4,1:3|1:3,0:0:0:0:
229,5,19999,5,12,1:3:0:0:
216,42,20083,1,4,0:3:0:0:
210,75,20166,1,4,0:3:0:0:
84,144,20333,1,4,1:3:0:0:
69,108,20416,1,4,0:3:0:0:
49,76,20499,1,4,0:3:0:0:
293,74,20666,5,8,1:3:0:0:
243,180,20833,1,0,1:3:0:0:
243,180,20916,1,0,0:0:0:0:
243,180,20999,6,0,P|251:249|257:340,1,157.500006008148,6|0,1:3|0:3,0:0:0:0:
321,383,21333,1,8,1:3:0:0:
157,334,21499,1,4,1:3:0:0:
370,266,21666,2,0,P|410:248|467:215,1,105.000004005432,0|4,1:3|1:3,0:0:0:0:
417,62,21999,5,12,1:3:0:0:
412,92,22083,1,4,0:3:0:0:
409,119,22166,1,4,0:3:0:0:
208,253,22333,1,4,1:3:0:0:
197,215,22416,1,4,0:3:0:0:
184,178,22499,1,4,0:3:0:0:
417,378,22666,6,0,P|432:345|417:313,1,52.5000020027161,12|4,1:3|0:3,0:0:0:0:
479,236,22833,2,0,P|445:211|396:208,1,52.5000020027161,4|0,0:3|0:0,0:0:0:0:
288,364,22999,6,0,P|314:298|360:213,1,157.500006008148,6|0,1:3|0:3,0:0:0:0:
381,144,23333,1,8,1:3:0:0:
261,214,23499,1,4,1:3:0:0:
206,27,23666,2,0,P|225:77|240:133,1,105.000004005432,0|4,1:3|1:3,0:0:0:0:
128,163,23999,5,12,1:3:0:0:
101,150,24083,1,4,0:3:0:0:
68,138,24166,1,4,0:3:0:0:
157,331,24333,1,4,1:3:0:0:
188,340,24416,1,4,0:3:0:0:
218,351,24499,1,4,0:3:0:0:
30,379,24666,6,0,P|13:350|26:321,1,52.5000020027161,8|0,1:3|0:0,0:0:0:0:
29,241,24833,2,0,P|57:221|95:230,1,52.5000020027161,0|0,1:3|0:0,0:0:0:0:
184,240,24999,6,0,B|274:230|245:188|345:175,1,157.500006008148,4|0,1:3|0:3,0:0:0:0:
400,223,25333,1,8,1:3:0:0:
315,380,25499,1,4,1:3:0:0:
493,255,25666,2,0,P|504:190|515:140,1,105.000004005432,0|4,1:3|1:3,0:0:0:0:
404,350,25999,5,4,1:3:0:0:
441,364,26083,1,4,0:3:0:0:
478,381,26166,1,4,0:3:0:0:
429,202,26332,1,4,1:3:0:0:
387,188,26416,1,4,0:3:0:0:
347,179,26499,1,4,0:3:0:0:
224,325,26666,6,0,P|257:344|261:386,1,78.7500030040742,12|0,1:3|0:3,0:0:0:0:
249,296,26999,6,0,P|257:230|274:121,1,157.500006008148,6|0,1:3|0:3,0:0:0:0:
255,65,27333,1,8,1:3:0:0:
122,9,27499,1,4,1:3:0:0:
341,24,27666,2,0,P|398:18|457:9,1,105.000004005432,0|4,1:3|1:3,0:0:0:0:
142,150,27999,5,12,1:3:0:0:
100,153,28083,1,4,0:3:0:0:
68,181,28166,1,4,0:3:0:0:
294,215,28333,1,12,1:3:0:0:
326,241,28417,1,4,0:3:0:0:
365,244,28500,1,4,0:3:0:0:
255,45,28666,5,12,1:3:0:0:
185,314,28833,1,0,1:3:0:0:
172,306,28916,1,0,0:0:0:0:
183,300,28999,6,0,B|274:322|235:353|325:374,1,157.500006008148,6|0,1:3|0:3,0:0:0:0:
398,354,29333,1,8,1:3:0:0:
285,227,29499,1,4,1:3:0:0:
411,114,29666,2,0,P|391:187|381:253,1,105.000004005432,0|4,1:3|1:3,0:0:0:0:
403,367,29999,5,12,1:3:0:0:
414,328,30083,1,4,0:3:0:0:
433,291,30166,1,4,0:3:0:0:
217,136,30333,1,4,1:3:0:0:
240,175,30416,1,4,0:3:0:0:
261,215,30499,1,4,0:3:0:0:
335,29,30666,6,0,P|355:12|381:7,1,52.5000020027161,12|4,1:3|0:3,0:0:0:0:
326,178,30833,2,0,P|341:207|369:228,1,52.5000020027161,4|0,0:3|0:0,0:0:0:0:
507,131,30999,6,0,P|430:114|329:105,1,157.500006008148,6|0,1:3|0:3,0:0:0:0:
273,81,31333,1,8,1:3:0:0:
331,289,31499,1,4,1:3:0:0:
458,198,31666,2,0,P|438:261|433:325,1,105.000004005432,0|4,1:3|1:3,0:0:0:0:
319,377,31999,5,12,1:3:0:0:
279,363,32083,1,4,0:3:0:0:
233,348,32166,1,4,0:3:0:0:
46,251,32333,1,4,1:3:0:0:
60,209,32416,1,4,0:3:0:0:
101,182,32499,1,4,0:3:0:0:
16,373,32666,6,0,P|53:369|82:336,1,52.5000020027161,8|0,1:3|0:0,0:0:0:0:
124,277,32833,2,0,P|139:255|179:244,1,52.5000020027161,0|0,1:3|0:0,0:0:0:0:
206,145,32999,6,0,P|269:191|305:271,1,157.500006008148,6|0,1:3|0:3,0:0:0:0:
247,317,33333,1,8,1:3:0:0:
98,197,33499,1,4,1:3:0:0:
219,34,33666,2,0,P|198:112|190:157,1,105.000004005432,0|4,1:3|1:3,0:0:0:0:
305,136,33999,5,12,1:3:0:0:
332,108,34083,1,4,0:3:0:0:
349,74,34166,1,4,0:3:0:0:
376,220,34333,1,4,1:3:0:0:
415,241,34416,1,4,0:3:0:0:
460,245,34499,1,4,0:3:0:0:
375,375,34666,2,0,B|360:345|326:330|326:330|316:340|316:340|279:315|207:319,1,178.500003404617,8|0,0:3|0:0,0:0:0:0:
151,279,35000,6,0,P|127:291|111:311,3,35,10|8|8|8,0:3|0:3|0:3|0:3,0:0:0:0:
40,316,35333,2,0,P|27:339|26:365,3,35,12|8|8|8,0:3|0:3|0:3|0:3,0:0:0:0:
29,218,35666,1,12,0:3:0:0:
66,226,35750,1,8,0:3:0:0:
96,217,35833,1,8,0:3:0:0:
112,198,35916,1,8,0:3:0:0:
115,180,36000,2,0,P|111:148|102:122,1,35,12|8,0:3|0:3,0:0:0:0:
23,8,36166,5,12,0:3:0:0:
14,52,36250,1,8,0:3:0:0:
40,79,36333,1,8,0:3:0:0:
70,83,36416,1,8,0:3:0:0:
90,70,36500,1,8,0:3:0:0:
98,54,36583,1,8,0:3:0:0:
95,43,36666,5,12,0:3:0:0:
46,67,36750,1,8,0:3:0:0:
44,119,36833,1,8,0:3:0:0:
66,158,36916,1,8,0:3:0:0:
101,173,37000,2,0,P|121:163|146:158,3,35,12|8|8|8,0:3|0:3|0:3|0:3,0:0:0:0:
191,104,37333,2,0,P|210:115|229:132,3,35,12|8|8|8,0:3|0:3|0:3|0:3,0:0:0:0:
239,202,37666,5,14,0:3:0:0:
282,231,37750,1,8,0:3:0:0:
327,227,37833,1,8,0:3:0:0:
357,198,37916,1,8,0:3:0:0:
358,180,38000,5,12,0:3:0:0:
322,146,38083,1,8,0:3:0:0:
322,100,38166,1,8,0:3:0:0:
344,68,38250,1,8,0:3:0:0:
378,60,38333,5,12,0:3:0:0:
391,64,38416,1,8,0:3:0:0:
404,68,38500,1,8,0:3:0:0:
417,72,38583,1,8,0:3:0:0:
430,76,38666,1,12,0:3:0:0:
443,80,38749,1,8,0:3:0:0:
456,84,38833,2,0,P|443:104|446:139,1,35,8|8,0:3|0:3,0:0:0:0:
495,235,38999,5,12,0:3:0:0:
495,235,39083,2,0,L|486:337,1,70,8|0,0:3|0:3,0:0:0:0:
425,363,39333,2,0,L|381:356,3,35,12|8|8|8,0:3|0:3|0:3|0:3,0:0:0:0:
358,285,39666,2,0,L|314:292,3,35,12|8|8|8,0:3|0:3|0:3|0:3,0:0:0:0:
267,365,39999,2,0,P|251:354|235:337,1,35,14|0,0:3|0:3,0:0:0:0:
166,315,40166,2,0,P|168:296|177:274,1,35,14|0,0:3|0:3,0:0:0:0:
262,193,40333,5,14,0:3:0:0:
274,144,40416,1,8,0:3:0:0:
255,102,40499,1,8,0:3:0:0:
214,88,40583,1,8,0:3:0:0:
180,95,40666,5,12,0:3:0:0:
164,76,40749,1,8,0:3:0:0:
162,58,40833,1,8,0:3:0:0:
168,41,40916,1,8,0:3:0:0:
177,31,40999,2,0,L|226:35,3,35,12|8|8|8,0:3|0:3|0:3|0:3,0:0:0:0:
294,42,41333,2,0,L|301:-7,1,35,12|8,0:3|0:3,0:0:0:0:
181,168,41499,2,0,L|188:217,1,35,8|8,0:3|0:3,0:0:0:0:
104,121,41666,5,12,0:3:0:0:
93,122,41749,1,8,0:3:0:0:
82,123,41833,1,8,0:3:0:0:
71,125,41916,1,8,0:3:0:0:
60,127,41999,1,12,0:3:0:0:
38,131,42083,2,0,L|32:190,1,35,8|8,0:3|0:3,0:0:0:0:
17,290,42249,1,8,0:3:0:0:
37,330,42332,2,0,P|80:343|146:321,1,105,12|8,0:3|0:3,0:0:0:0:
241,290,42666,5,8,0:3:0:0:
238,300,42749,1,8,0:3:0:0:
235,310,42833,1,8,0:3:0:0:
232,320,42916,1,8,0:3:0:0:
230,330,42999,5,14,0:3:0:0:
265,364,43083,1,8,0:3:0:0:
313,364,43166,1,8,0:3:0:0:
345,327,43249,1,8,0:3:0:0:
390,307,43333,1,12,0:3:0:0:
428,308,43416,1,8,0:3:0:0:
461,316,43499,1,8,0:3:0:0:
479,337,43583,1,8,0:3:0:0:
486,360,43666,5,12,0:3:0:0:
449,372,43749,1,8,0:3:0:0:
414,354,43833,1,8,0:3:0:0:
398,318,43916,1,8,0:3:0:0:
404,287,43999,2,0,P|409:269|416:248,3,35,12|8|8|8,0:3|0:3|0:3|0:3,0:0:0:0:
472,193,44333,5,12,0:3:0:0:
508,160,44416,1,8,0:3:0:0:
511,111,44499,1,8,0:3:0:0:
482,70,44583,1,8,0:3:0:0:
434,59,44666,5,4,0:3:0:0:
435,72,44749,1,4,0:3:0:0:
436,86,44833,1,4,0:3:0:0:
437,99,44916,1,4,0:3:0:0:
438,112,44999,5,12,0:3:0:0:
412,141,45083,1,8,0:3:0:0:
374,148,45166,1,8,0:3:0:0:
342,133,45249,1,8,0:3:0:0:
326,109,45333,1,8,0:3:0:0:
309,96,45416,1,8,0:3:0:0:
291,92,45499,1,8,0:3:0:0:
273,94,45583,1,8,0:3:0:0:
258,103,45666,6,0,L|292:279,1,168,6|4,0:3|0:3,0:0:0:0:
246,98,46499,1,4,0:3:0:0:
9,71,46999,6,0,P|55:57|184:34,1,168,4|4,0:3|0:3,0:0:0:0:
53,218,47833,1,4,0:3:0:0:
16,146,47999,1,8,0:3:0:0:
47,225,48166,1,4,0:3:0:0:
201,154,48333,6,0,B|165:171|151:232|192:223|165:295|120:299,1,168,2|4,0:3|0:3,0:0:0:0:
206,147,49166,1,4,0:3:0:0:
30,340,49666,6,0,P|128:307|212:299,1,168,6|8,0:3|0:3,0:0:0:0:
198,313,50499,5,8,0:3:0:0:
225,345,50583,1,8,0:3:0:0:
265,355,50666,1,8,0:3:0:0:
303,339,50749,1,8,0:3:0:0:
324,305,50833,1,8,0:3:0:0:
353,288,50916,1,8,0:3:0:0:
383,288,50999,6,0,P|353:347|276:371,1,125.999996154785,14|0,1:3|0:3,0:0:0:0:
273,374,51499,1,0,0:3:0:0:
380,187,51666,2,0,B|416:175|426:140|416:103|465:76,1,125.999996154785,0|0,1:3|0:3,0:0:0:0:
467,81,52166,1,0,0:0:0:0:
278,164,52333,6,0,P|254:91|225:18,1,125.999996154785,4|0,1:3|0:3,0:0:0:0:
186,213,52833,2,0,B|139:209|143:165|117:145|61:138,1,125.999996154785,4|4,0:3|0:3,0:0:0:0:
4,196,53249,1,0,0:0:0:0:
22,227,53333,2,0,P|41:273|50:309,1,62.9999980773926,8|0,0:3|0:3,0:0:0:0:
155,353,53666,6,0,P|164:326|209:210,1,125.999996154785,4|0,1:3|0:0,0:0:0:0:
214,229,54166,1,4,0:3:0:0:
307,364,54333,2,0,P|327:323|362:311,1,62.9999980773926,0|0,1:3|0:0,0:0:0:0:
366,328,54583,2,0,P|326:327|300:294,1,62.9999980773926,0|0,1:3|0:0,0:0:0:0:
305,285,54833,1,0,1:3:0:0:
502,310,54999,6,0,B|486:337|433:316|410:261|405:227,1,125.999996154785,4|0,1:3|0:0,0:0:0:0:
284,44,55499,2,0,P|333:93|401:127,1,125.999996154785,4|4,0:3|0:3,0:0:0:0:
481,160,55916,1,0,0:0:0:0:
495,138,55999,1,8,1:3:0:0:
327,195,56166,1,0,1:3:0:0:
193,17,56333,6,0,P|217:88|239:162,1,125.999996154785,2|0,1:3|0:0,0:0:0:0:
101,196,56833,2,0,B|140:156|118:88|66:98,1,125.999996154785,4|0,1:3|0:3,0:0:0:0:
12,288,57333,2,0,P|80:300|126:316,1,94.499997116089,0|0,1:3|0:3,0:0:0:0:
170,338,57666,6,0,P|199:367|244:376,1,62.9999980773926,4|0,1:3|0:3,0:0:0:0:
214,140,57999,2,0,P|184:148|145:193,1,62.9999980773926,0|4,1:3|0:3,0:0:0:0:
360,294,58333,2,0,P|370:254|354:206,1,62.9999980773926,4|4,1:3|0:3,0:0:0:0:
231,220,58666,2,0,P|258:267|286:326,1,94.499997116089,8|0,1:3|0:3,0:0:0:0:
309,371,58999,6,0,P|377:380|444:341,1,125.999996154785,4|0,1:3|0:0,0:0:0:0:
485,103,59499,2,0,P|468:190|463:242,1,125.999996154785,4|0,0:3|0:3,0:0:0:0:
467,255,59999,1,0,0:3:0:0:
376,130,60166,1,0,0:3:0:0:
460,2,60333,2,0,P|381:15|307:17,1,125.999996154785,4|0,0:3|0:0,0:0:0:0:
507,184,60833,1,2,0:3:0:0:
278,184,60999,6,0,P|284:217|299:267,1,45.4999979171754,8|8,0:3|0:3,0:0:0:0:
330,356,61166,1,8,0:3:0:0:
334,328,61249,1,8,0:3:0:0:
316,305,61333,6,0,P|293:309|237:295,1,52.5000020027161,8|0,1:3|0:0,0:0:0:0:
134,249,61499,2,0,P|99:222|91:196,1,47.2500001802444,0|0,1:3|0:0,0:0:0:0:
51,150,61666,6,0,P|36:107|18:65,1,90.9999958343508,6|0,1:3|0:3,0:0:0:0:
194,295,61999,2,0,P|175:338|154:402,1,90.9999958343508,4|0,0:3|0:3,0:0:0:0:
3,379,62333,6,0,P|22:336|43:272,1,90.9999958343508,4|0,1:3|0:3,0:0:0:0:
202,168,62666,2,0,P|183:125|162:61,1,90.9999958343508,4|0,0:3|0:3,0:0:0:0:
9,198,62999,6,0,P|52:194|98:175,1,90.9999958343508,4|0,1:3|0:0,0:0:0:0:
223,272,63333,2,0,P|266:276|312:295,1,90.9999958343508,4|0,0:3|0:0,0:0:0:0:
307,118,63666,5,4,0:3:0:0:
391,249,63833,1,4,1:3:0:0:
391,249,63916,1,4,0:3:0:0:
391,249,63999,1,4,0:3:0:0:
348,373,64166,1,0,0:3:0:0:
495,312,64333,5,4,1:3:0:0:
433,384,64499,1,0,1:3:0:0:
481,227,64666,1,4,1:3:0:0:
330,181,64833,5,0,1:3:0:0:
394,100,64999,1,4,1:3:0:0:
502,141,65166,1,0,1:3:0:0:
307,183,65333,5,4,1:3:0:0:
201,140,65499,1,0,1:3:0:0:
207,23,65666,6,0,P|271:37|324:59,1,90.9999958343508,4|0,1:3|0:3,0:0:0:0:
115,188,65999,2,0,P|51:174|-2:152,1,90.9999958343508,4|0,1:3|0:3,0:0:0:0:
19,16,66333,2,0,B|95:40|68:65|138:86,1,136.499993751526,4|0,1:3|0:3,0:0:0:0:
195,134,66666,1,4,1:3:0:0:
108,263,66833,1,0,1:3:0:0:
200,382,66999,6,0,P|213:317|225:275,1,90.9999958343508,6|0,1:3|1:3,0:0:0:0:
401,188,67333,2,0,P|388:253|376:295,1,90.9999958343508,4|0,1:3|1:3,0:0:0:0:
282,197,67666,2,0,L|320:381,1,181.999991668702,4|4,1:3|0:3,0:0:0:0:
478,242,68166,6,0,P|464:305|466:345,2,90.9999958343508,0|4|0,1:3|0:3|1:3,0:0:0:0:
347,137,68666,2,0,P|408:117|442:95,1,90.9999958343508,4|0,1:3|1:3,0:0:0:0:
203,107,68999,2,0,P|164:82|132:50,1,90.9999958343508,4|0,1:3|0:0,0:0:0:0:
292,14,69333,2,0,P|280:80|267:166,1,136.499993751526,4|0,1:3|0:3,0:0:0:0:
246,179,69666,6,0,P|260:247|276:370,1,181.999991668702,6|4,1:3|0:3,0:0:0:0:
274,358,70166,1,0,0:0:0:0:
143,46,70333,6,0,L|157:160,1,105,6|0,0:3|0:3,0:0:0:0:
142,164,70666,6,0,L|126:27,1,125.999996154785,6|0,0:3|0:3,0:0:0:0:
109,31,70999,6,0,L|128:182,1,146.999995513916,6|0,0:3|0:3,0:0:0:0:
114,189,71333,6,0,L|93:17,1,168,6|0,0:3|0:3,0:0:0:0:
74,16,71666,5,6,0:3:0:0:
97,201,71833,1,4,0:3:0:0:
193,51,71999,6,0,P|225:34|264:38,1,62.9999980773926,12|0,0:3|0:0,0:0:0:0:
328,124,72166,2,0,P|367:114|389:85,1,62.9999980773926,0|0,0:0|0:3,0:0:0:0:
482,18,72333,6,0,L|353:-1,1,125.999996154785,6|4,1:3|0:3,0:0:0:0:
503,145,72666,1,8,0:3:0:0:
438,278,72833,1,8,0:3:0:0:
443,292,72916,1,8,0:3:0:0:
447,304,72999,2,0,B|355:274|335:371|232:344,1,210.000008010865,4|4,1:3|0:3,0:0:0:0:
30,286,73499,1,8,0:3:0:0:
138,384,73666,6,0,P|157:315|165:244,1,105.000004005432,0|4,1:3|0:3,0:0:0:0:
8,160,73999,2,0,B|33:213|106:237|177:167,1,157.500006008148,8|0,0:3|0:3,0:0:0:0:
231,81,74333,1,4,0:3:0:0:
248,5,74499,1,4,0:3:0:0:
50,23,74666,1,8,1:3:0:0:
150,113,74833,1,4,1:3:0:0:
361,1,74999,6,0,P|419:21|439:83,1,105.000004005432,4|4,1:3|0:3,0:0:0:0:
238,174,75333,1,8,0:3:0:0:
324,99,75499,1,8,0:3:0:0:
332,101,75583,1,8,0:3:0:0:
339,103,75666,2,0,B|353:145|353:145|348:168|348:168|360:216,1,105.000004005432,4|4,1:3|0:3,0:0:0:0:
428,243,75916,2,0,B|414:285|414:285|419:308|419:308|407:356,1,105.000004005432,0|0,1:3|0:3,0:0:0:0:
339,378,76166,1,8,1:3:0:0:
143,295,76333,6,0,P|66:312|45:355,1,105.000004005432,0|4,1:3|0:3,0:0:0:0:
197,377,76666,2,0,P|188:243|195:178,1,157.500006008148,8|0,0:3|0:3,0:0:0:0:
269,194,76999,1,4,0:3:0:0:
301,276,77166,1,4,0:3:0:0:
118,371,77333,1,8,1:3:0:0:
6,207,77499,1,4,1:3:0:0:
160,98,77666,6,0,P|142:145|83:164,1,105.000004005432,2|4,0:3|0:3,0:0:0:0:
0,76,77999,1,8,0:3:0:0:
215,38,78166,1,8,0:3:0:0:
223,43,78249,1,8,0:3:0:0:
232,49,78333,1,4,0:3:0:0:
120,9,78499,1,4,0:3:0:0:
212,151,78666,2,0,P|265:133|324:121,1,105.000004005432,0|12,1:3|0:3,0:0:0:0:
512,43,78999,6,0,P|471:102|476:141,1,105.000004005432,0|4,1:3|0:3,0:0:0:0:
308,33,79333,2,0,P|371:65|385:102,1,105.000004005432,8|0,0:3|0:3,0:0:0:0:
395,245,79666,1,4,1:3:0:0:
373,171,79833,1,4,0:3:0:0:
490,231,79999,1,8,1:3:0:0:
476,308,80166,1,0,0:0:0:0:
478,318,80249,1,0,0:3:0:0:
480,328,80333,5,4,0:3:0:0:
392,376,80499,1,4,0:3:0:0:
255,240,80666,2,0,B|275:222|309:231|309:231|323:280|298:328,1,157.500006008148,8|8,0:3|0:3,0:0:0:0:
237,376,80999,2,0,P|178:339|136:347,1,105.000004005432,4|4,0:3|0:3,0:0:0:0:
0,244,81333,2,0,P|59:207|101:215,1,105.000004005432,0|8,0:3|0:3,0:0:0:0:
156,257,81666,5,4,0:3:0:0:
53,344,81833,1,4,0:3:0:0:
0,109,81999,2,0,B|51:117|51:117|54:123|54:123|181:141,1,157.500006008148,8|0,0:3|0:0,0:0:0:0:
217,90,82333,1,4,0:3:0:0:
271,149,82499,1,4,0:3:0:0:
99,54,82666,2,0,L|167:45,1,52.5000020027161,8|0,1:3|0:3,0:0:0:0:
266,25,82833,2,0,L|334:16,1,52.5000020027161,0|0,1:3|0:3,0:0:0:0:
455,142,82999,6,0,B|475:38|475:38|417:51,1,157.500006008148,6|0,1:3|0:0,0:0:0:0:
356,86,83333,1,8,0:3:0:0:
386,212,83499,1,8,0:3:0:0:
396,210,83583,1,8,0:3:0:0:
406,208,83666,1,4,1:3:0:0:
284,284,83833,2,0,B|344:241|424:366|490:306,1,210.000008010865,4|8,0:3|0:3,0:0:0:0:
292,379,84333,5,4,1:3:0:0:
202,357,84499,1,4,0:3:0:0:
9,288,84666,2,0,B|40:364|40:364|149:325,1,157.500006008148,8|0,0:3|0:0,0:0:0:0:
166,279,84999,1,4,0:3:0:0:
35,127,85166,2,0,P|29:193|68:217,1,105.000004005432,4|8,1:3|0:3,0:0:0:0:
215,98,85499,2,0,P|248:59|234:11,1,105.000004005432,4|4,1:3|0:3,0:0:0:0:
25,7,85833,5,4,0:3:0:0:
117,156,85999,1,8,1:3:0:0:
160,34,86166,1,8,1:3:0:0:
152,29,86249,1,8,0:3:0:0:
141,23,86333,1,4,1:3:0:0:
74,78,86499,1,0,1:3:0:0:
197,202,86666,1,0,1:3:0:0:
360,75,86833,1,8,1:3:0:0:
251,266,86999,6,0,P|315:220|365:231,1,105.000004005432,0|4,1:3|0:3,0:0:0:0:
500,186,87333,2,0,P|449:173|423:124,1,105.000004005432,8|0,1:3|0:3,0:0:0:0:
399,314,87666,1,4,1:3:0:0:
428,383,87833,1,0,0:3:0:0:
506,266,87999,2,0,L|443:251,1,52.5000020027161,8|0,1:3|0:3,0:0:0:0:
334,372,88166,2,0,L|271:387,1,52.5000020027161,0|0,1:3|0:3,0:0:0:0:
73,333,88333,6,0,P|133:303|184:293,1,105.000004005432,6|4,1:3|1:3,0:0:0:0:
320,293,88666,1,8,1:3:0:0:
207,383,88833,1,8,0:3:0:0:
208,372,88916,1,8,0:3:0:0:
209,361,88999,2,0,P|205:261|186:132,1,210.000008010865,4|0,0:3|0:3,0:0:0:0:
14,82,89499,2,0,B|-8:138|42:198|117:127,1,157.500006008148,8|0,1:3|0:0,0:0:0:0:
160,76,89833,5,4,1:3:0:0:
83,29,89999,1,8,1:3:0:0:
199,4,90166,1,0,1:3:0:0:
125,215,90333,2,0,P|111:277|108:322,1,105.000004005432,4|4,1:3|0:3,0:0:0:0:
269,174,90666,2,0,P|307:224|340:255,1,105.000004005432,8|0,0:3|0:0,0:0:0:0:
511,23,90999,5,4,1:3:0:0:
489,93,91166,1,4,0:3:0:0:
310,24,91333,2,0,P|303:88|361:112,1,105.000004005432,8|4,0:3|0:3,0:0:0:0:
413,125,91583,1,4,0:3:0:0:
411,108,91666,1,8,0:3:0:0:
461,267,91833,1,4,0:3:0:0:
466,237,91916,1,4,0:3:0:0:
483,215,91999,1,8,0:3:0:0:
415,366,92166,5,4,0:3:0:0:
401,329,92249,1,4,0:3:0:0:
369,302,92333,1,8,0:3:0:0:
332,299,92416,1,8,0:3:0:0:
303,309,92499,1,8,0:3:0:0:
286,325,92583,1,8,0:3:0:0:
259,336,92666,2,0,P|225:332|181:319,1,52.5000020027161,10|0,0:3|0:3,0:0:0:0:
43,335,92833,2,0,P|37:302|39:255,1,52.5000020027161,10|0,0:3|0:3,0:0:0:0:
152,198,92999,1,8,0:3:0:0:
132,276,93166,1,8,0:3:0:0:
26,132,93333,6,0,P|58:137|91:147,1,56,6|6,0:3|0:3,0:0:0:0:
204,4,93667,6,0,B|170:7|145:22|145:22|191:23|233:58,1,157.500006008148,6|0,0:3|0:3,0:0:0:0:
306,51,94000,1,8,1:3:0:0:
416,78,94167,1,4,1:3:0:0:
239,157,94333,1,0,1:3:0:0:
141,191,94500,1,4,1:3:0:0:
351,224,94667,5,12,1:3:0:0:
357,237,94750,1,4,0:3:0:0:
363,251,94833,1,4,0:3:0:0:
203,371,95000,1,4,1:3:0:0:
209,358,95083,1,4,0:3:0:0:
216,344,95166,1,4,0:3:0:0:
234,164,95333,5,8,1:3:0:0:
331,377,95500,1,4,1:3:0:0:
335,367,95583,1,0,0:0:0:0:
325,366,95667,6,0,P|380:345|484:324,1,157.500006008148,6|0,1:3|0:3,0:0:0:0:
498,252,96000,1,8,1:3:0:0:
402,233,96167,1,4,1:3:0:0:
279,74,96333,1,0,1:3:0:0:
367,53,96500,1,4,1:3:0:0:
300,202,96667,5,12,1:3:0:0:
302,187,96750,1,4,0:3:0:0:
302,174,96833,1,4,0:3:0:0:
464,71,97000,1,4,1:3:0:0:
461,85,97083,1,4,0:3:0:0:
459,99,97167,1,4,0:3:0:0:
408,243,97333,5,12,0:3:0:0:
350,29,97500,1,4,0:3:0:0:
355,39,97583,1,0,0:0:0:0:
363,33,97667,6,0,P|276:42|193:63,1,157.500006008148,6|0,0:3|0:3,0:0:0:0:
138,18,98000,1,8,1:3:0:0:
29,45,98167,1,4,1:3:0:0:
165,161,98333,1,0,1:3:0:0:
266,191,98500,1,4,1:3:0:0:
40,224,98667,5,12,1:3:0:0:
44,238,98750,1,4,0:3:0:0:
48,252,98833,1,4,0:3:0:0:
217,364,99000,1,4,1:3:0:0:
214,351,99083,1,4,0:3:0:0:
211,340,99167,1,4,0:3:0:0:
92,134,99333,5,8,1:3:0:0:
70,367,99500,1,4,1:3:0:0:
71,380,99583,1,0,0:0:0:0:
63,382,99667,6,0,P|106:315|171:267,1,157.500006008148,6|0,1:3|0:3,0:0:0:0:
227,220,100000,1,8,1:3:0:0:
312,263,100167,1,4,1:3:0:0:
426,383,100333,1,0,1:3:0:0:
508,325,100500,1,4,1:3:0:0:
309,173,100667,5,12,1:3:0:0:
312,156,100750,1,4,0:3:0:0:
316,141,100833,1,4,0:3:0:0:
362,339,101000,1,4,1:3:0:0:
357,354,101083,1,4,0:3:0:0:
353,372,101166,1,4,0:3:0:0:
431,246,101333,6,0,B|457:247|477:226|462:228|490:201|512:208,1,78.7500030040742,10|4,0:3|0:3,0:0:0:0:
502,220,101666,6,0,P|406:238|315:268,1,157.500006008148,6|0,0:3|0:3,0:0:0:0:
277,223,102000,1,8,1:3:0:0:
218,133,102166,1,4,1:3:0:0:
70,106,102333,1,0,1:3:0:0:
9,35,102500,1,4,1:3:0:0:
103,193,102666,5,12,1:3:0:0:
95,206,102750,1,4,0:3:0:0:
90,219,102833,1,4,0:3:0:0:
222,46,103000,1,4,1:3:0:0:
237,55,103083,1,4,0:3:0:0:
250,62,103166,1,4,0:3:0:0:
100,18,103333,5,8,1:3:0:0:
196,219,103500,1,4,1:3:0:0:
187,226,103583,1,0,0:0:0:0:
184,217,103666,6,0,B|222:210|266:231|296:270|327:273|349:256,1,157.500006008148,6|0,1:3|0:3,0:0:0:0:
409,242,104000,1,8,1:3:0:0:
388,327,104166,1,4,1:3:0:0:
211,379,104333,1,0,1:3:0:0:
126,311,104500,1,4,1:3:0:0:
280,312,104666,5,12,1:3:0:0:
287,326,104750,1,4,0:3:0:0:
293,339,104833,1,4,0:3:0:0:
487,365,105000,1,4,1:3:0:0:
493,352,105083,1,4,0:3:0:0:
500,338,105166,1,4,0:3:0:0:
379,384,105333,5,8,1:3:0:0:
409,172,105500,1,4,1:3:0:0:
400,185,105583,1,0,0:0:0:0:
414,188,105666,6,0,P|341:138|241:150,1,157.500006008148,6|0,1:3|0:3,0:0:0:0:
204,101,106000,1,8,1:3:0:0:
101,121,106166,1,4,1:3:0:0:
296,243,106333,1,0,1:3:0:0:
399,265,106500,1,4,1:3:0:0:
494,108,106666,5,12,0:3:0:0:
490,124,106750,1,4,0:3:0:0:
488,140,106833,1,4,0:3:0:0:
287,54,107000,1,4,0:3:0:0:
290,38,107083,1,4,0:3:0:0:
292,22,107166,1,4,0:3:0:0:
437,7,107333,5,8,1:3:0:0:
300,213,107500,1,4,1:3:0:0:
303,227,107583,1,0,0:0:0:0:
315,221,107666,6,0,P|237:234|133:281,1,157.500006008148,6|0,1:3|0:3,0:0:0:0:
77,237,108000,1,8,1:3:0:0:
97,354,108166,1,4,1:3:0:0:
187,156,108333,1,0,1:3:0:0:
225,44,108500,1,4,1:3:0:0:
59,12,108666,2,0,L|80:122,1,105.000004005432,10|4,1:3|1:3,0:0:0:0:
78,115,108916,1,4,0:3:0:0:
78,115,109000,5,8,0:3:0:0:
118,186,109111,5,8,0:3:0:0:
91,245,109222,5,8,0:3:0:0:
43,270,109333,5,8,0:3:0:0:
27,316,109444,5,8,0:3:0:0:
45,348,109555,5,8,0:3:0:0:
66,354,109667,6,0,P|136:323|187:309,2,125.999996154785,6|4|4,1:3|0:3|0:3,0:0:0:0:
249,377,110333,2,0,B|299:375|305:306|285:283|234:283|200:295|167:250|214:167,1,251.999992309571,4|4,1:3|1:3,0:0:0:0:
326,83,111000,6,0,B|387:110|419:177|399:232|331:258|286:195,1,251.999992309571,4|4,1:3|0:3,0:0:0:0:
256,136,111583,1,4,0:3:0:0:
257,125,111667,1,8,0:3:0:0:
186,94,111833,1,4,0:3:0:0:
8,139,112000,1,4,0:3:0:0:
150,24,112167,1,4,1:3:0:0:
109,241,112333,6,0,P|105:168|79:112,2,125.999996154785,4|4|4,1:3|0:3|0:3,0:0:0:0:
0,61,113000,2,0,P|34:40|95:20,1,83.9999974365235,8|0,1:3|0:3,0:0:0:0:
178,136,113333,2,0,P|217:129|281:135,1,83.9999974365235,4|0,1:3|0:3,0:0:0:0:
428,9,113667,5,8,0:3:0:0:
428,9,113750,1,8,0:3:0:0:
428,9,113833,2,0,L|436:91,1,52.5000020027161,10|0,0:3|0:3,0:0:0:0:
343,118,114000,2,0,L|351:36,1,52.5000020027161,2|0,0:3|0:3,0:0:0:0:
490,213,114167,1,4,0:3:0:0:
502,205,114250,1,4,0:3:0:0:
512,200,114333,5,12,0:3:0:0:
477,159,114416,1,8,0:3:0:0:
430,159,114499,1,8,0:3:0:0:
399,182,114583,1,8,0:3:0:0:
395,213,114667,2,0,P|377:235|345:249,1,52.5000020027161,8|8,0:3|0:3,0:0:0:0:
303,300,114833,2,0,P|275:291|252:265,1,52.5000020027161,8|8,0:3|0:3,0:0:0:0:
82,253,115000,6,0,B|9:273|23:366|23:366|76:308|165:316,1,262.500010013581,6|0,1:3|0:0,0:0:0:0:
193,362,115500,1,4,1:3:0:0:
192,242,115667,2,0,P|187:200|174:155,1,83.9999974365235,8|0,1:3|0:3,0:0:0:0:
34,0,116000,2,0,P|22:40|17:82,1,83.9999974365235,0|4,0:3|0:3,0:0:0:0:
19,176,116333,6,0,P|70:174|92:195,1,83.9999974365235,8|0,1:3|0:0,0:0:0:0:
161,15,116667,2,0,P|191:55|187:85,1,83.9999974365235,0|4,1:3|0:3,0:0:0:0:
106,92,116916,1,4,0:3:0:0:
96,89,117000,1,8,0:3:0:0:
262,18,117166,1,0,0:3:0:0:
367,108,117333,1,0,0:3:0:0:
459,141,117500,1,0,0:3:0:0:
337,10,117666,6,0,B|335:54|335:54|329:63|329:63|327:135,2,125.999996154785,6|4|4,0:3|0:3|0:3,0:0:0:0:
465,246,118333,2,0,P|425:217|379:207,1,83.9999974365235,8|4,0:3|0:3,0:0:0:0:
392,326,118666,2,0,P|343:336|305:363,1,83.9999974365235,4|4,0:3|0:3,0:0:0:0:
201,276,119000,5,8,0:3:0:0:
323,257,119166,1,4,0:3:0:0:
127,244,119333,1,8,0:3:0:0:
183,375,119500,1,4,0:3:0:0:
166,370,119583,1,4,0:3:0:0:
149,365,119666,1,10,0:3:0:0:
119,366,119750,5,8,0:3:0:0:
87,353,119833,1,8,0:3:0:0:
62,319,119916,1,8,0:3:0:0:
65,276,120000,1,4,0:3:0:0:
98,238,120083,1,4,0:3:0:0:
134,209,120166,1,4,0:3:0:0:
141,162,120250,1,4,0:3:0:0:
113,119,120333,5,6,1:3:0:0:
11,84,120500,1,4,0:3:0:0:
3,172,120666,1,4,0:3:0:0:
77,32,120833,1,4,0:3:0:0:
238,172,121000,5,12,1:3:0:0:
309,108,121166,1,4,0:3:0:0:
257,30,121333,1,4,0:3:0:0:
164,51,121500,1,4,0:3:0:0:
229,182,121666,5,12,1:3:0:0:
324,188,121833,1,4,0:3:0:0:
362,269,122000,1,4,0:3:0:0:
464,258,122166,1,4,0:3:0:0:
363,47,122333,5,12,0:3:0:0:
476,8,122500,1,4,1:3:0:0:
444,94,122666,1,4,0:3:0:0:
266,28,122833,1,4,1:3:0:0:
133,207,123000,6,0,B|264:183,1,97.9999970092774,12|4,0:3|1:3,0:0:0:0:
405,181,123333,1,4,1:3:0:0:
462,269,123500,1,4,1:3:0:0:
344,368,123666,1,12,1:3:0:0:
366,270,123833,1,4,1:3:0:0:
475,369,124000,5,4,1:3:0:0:
326,189,124166,1,4,1:3:0:0:
179,370,124333,6,0,P|161:324|152:262,1,97.9999970092774,12|0,1:3|0:3,0:0:0:0:
26,167,124666,2,0,P|81:181|135:202,1,97.9999970092774,12|0,1:3|0:3,0:0:0:0:
344,88,125000,2,0,P|332:21|265:27,1,146.999995513916,12|0,1:3|0:3,0:0:0:0:
269,103,125333,1,0,1:3:0:0:
184,34,125500,1,0,1:3:0:0:
46,251,125666,6,0,P|132:228|222:216,1,146.999995513916,10|0,1:3|0:3,0:0:0:0:
242,270,126000,1,4,1:3:0:0:
512,262,126166,2,0,B|433:243|451:408|352:361,1,195.999994018555,4|4,1:3|0:3,0:0:0:0:
282,351,126666,1,4,0:3:0:0:
386,186,126833,6,0,P|371:237|368:302,2,97.9999970092774,4|0|4,1:3|0:0|0:3,0:0:0:0:
199,370,127333,2,0,P|179:319|151:276,1,97.9999970092774,6|0,0:3|1:0,0:0:0:0:
52,102,127666,1,12,0:3:0:0:
4,145,127750,1,8,0:3:0:0:
10,203,127833,1,8,0:3:0:0:
46,235,127916,1,8,0:3:0:0:
85,233,128000,1,12,0:3:0:0:
106,212,128083,1,8,0:3:0:0:
126,199,128166,1,8,0:3:0:0:
150,196,128250,1,8,0:3:0:0:
169,200,128333,6,0,B|204:172|204:172|127:154|127:154|125:157|125:157|16:135,1,210,14|0,1:3|0:0,0:0:0:0:
0,84,128666,1,4,0:3:0:0:
100,15,128833,2,0,L|144:306,1,280,10|4,1:3|0:3,0:0:0:0:
104,370,129250,1,0,0:0:0:0:
62,384,129333,2,0,B|74:349|74:349|171:325|171:325|178:331|178:331|272:308|272:308|281:269,1,280,10|0,1:3|0:3,0:0:0:0:
379,112,129833,2,0,B|369:181|369:181|373:186|373:186|360:274,2,140,4|8|0,0:3|1:3|0:0,0:0:0:0:
327,59,130250,1,0,0:3:0:0:
316,48,130333,2,0,B|290:13|290:13|378:24|378:24|379:28|379:28|468:41,1,210,4|0,0:3|0:0,0:0:0:0:
475,42,130666,6,0,L|503:46,1,26.25,8|0,0:3|0:0,0:0:0:0:
468,112,131000,6,0,B|461:134|461:134|484:215|484:215|492:220|492:220|515:307|515:307|499:333,1,220.499993270874,14|0,1:3|0:0,0:0:0:0:
457,384,131333,1,4,0:3:0:0:
360,217,131500,2,0,B|247:249|247:249|242:243|242:243|232:285|232:285|226:279|226:279|94:318,1,293.999991027832,10|4,1:3|0:3,0:0:0:0:
51,384,131916,1,0,0:0:0:0:
7,364,132000,2,0,B|32:331|32:331|20:248|20:248|13:242|13:242|-4:135,1,220.499993270874,10|0,1:3|0:0,0:0:0:0:
16,60,132333,5,4,0:3:0:0:
50,72,132416,1,0,0:3:0:0:
89,87,132500,2,0,B|124:103|124:103|94:146,1,73.4999977569581,10|0,0:3|0:3,0:0:0:0:
0,239,132666,2,0,L|113:222,1,73.4999977569581,14|12,0:3|0:3,0:0:0:0:
227,208,132833,1,12,0:3:0:0:
203,211,132916,1,12,0:3:0:0:
184,214,133000,5,8,0:3:0:0:
213,172,133083,1,8,0:3:0:0:
243,130,133166,1,8,0:3:0:0:
274,88,133250,1,8,0:3:0:0:
265,52,133333,1,12,0:3:0:0:
267,73,133416,1,8,0:3:0:0:
270,95,133500,1,8,0:3:0:0:
272,116,133583,1,8,0:3:0:0:
274,136,133666,5,14,0:3:0:0:
398,209,133833,1,4,0:3:0:0:
499,115,134000,1,4,0:3:0:0:
297,117,134166,5,12,1:3:0:0:
176,75,134333,1,4,0:3:0:0:
98,161,134500,1,4,0:3:0:0:
330,5,134666,5,12,1:3:0:0:
272,135,134833,1,4,0:3:0:0:
341,301,135000,1,4,0:3:0:0:
407,221,135166,5,12,1:3:0:0:
213,196,135333,1,4,0:3:0:0:
61,318,135500,1,4,0:3:0:0:
0,210,135666,5,12,1:3:0:0:
249,303,135833,1,4,0:3:0:0:
160,383,136000,5,12,1:3:0:0:
53,138,136166,1,4,0:3:0:0:
160,10,136333,5,14,1:3:0:0:
203,17,136416,1,8,0:3:0:0:
246,25,136500,1,8,0:3:0:0:
289,32,136583,1,8,0:3:0:0:
332,40,136666,2,0,B|416:56,1,73.4999977569581,8|8,0:3|0:3,0:0:0:0:
245,243,136833,5,10,1:3:0:0:
229,202,136916,1,8,0:3:0:0:
214,161,137000,1,8,0:3:0:0:
199,120,137083,1,8,0:3:0:0:
184,79,137166,2,0,B|155:-2,1,73.4999977569581,8|8,0:3|0:3,0:0:0:0:
404,53,137333,5,10,1:3:0:0:
376,87,137416,1,8,0:3:0:0:
348,120,137500,1,8,0:3:0:0:
320,154,137583,1,8,0:3:0:0:
292,187,137666,6,0,B|346:199|377:157|411:120|453:127,1,168,10|0,1:3|0:3,0:0:0:0:
437,237,138333,6,0,B|401:245|377:163|343:77|299:90,1,210,0|0,1:3|0:3,0:0:0:0:
507,177,139000,6,0,P|469:275|438:374,1,188.999994232178,6|0,1:3|0:0,0:0:0:0:
357,384,139333,1,8,0:3:0:0:
161,303,139500,1,0,0:3:0:0:
177,289,139583,1,0,0:0:0:0:
165,275,139666,6,0,P|165:321|238:333,1,125.999996154785,4|4,1:3|0:3,0:0:0:0:
254,233,139916,6,0,P|212:210|166:266,1,125.999996154785,0|0,1:3|0:3,0:0:0:0:
245,331,140166,6,0,P|265:318|252:284,1,62.9999980773926,0|0,1:3|0:0,0:0:0:0:
22,186,140333,5,4,1:3:0:0:
222,133,140500,1,0,0:3:0:0:
353,128,140666,5,8,1:3:0:0:
190,46,140833,1,0,0:3:0:0:
12,16,141000,5,4,1:3:0:0:
92,136,141166,1,4,0:3:0:0:
214,326,141333,5,8,1:3:0:0:
10,266,141500,1,0,0:0:0:0:
88,374,141666,6,0,P|112:302|156:188,1,188.999994232178,6|0,0:3|0:3,0:0:0:0:
218,146,142000,2,0,P|236:193|237:234,1,62.9999980773926,8|0,0:3|0:0,0:0:0:0:
86,38,142166,1,0,0:3:0:0:
103,56,142250,1,0,0:0:0:0:
87,75,142333,6,0,P|99:32|173:35,1,125.999996154785,4|4,1:3|0:3,0:0:0:0:
135,120,142583,6,0,P|91:131|57:65,1,125.999996154785,0|0,1:3|0:3,0:0:0:0:
149,55,142833,6,0,P|164:70|144:102,1,62.9999980773926,0|0,1:3|0:0,0:0:0:0:
6,248,143000,5,4,1:3:0:0:
237,205,143166,1,0,0:3:0:0:
391,384,143333,5,8,1:3:0:0:
174,309,143500,1,0,0:3:0:0:
318,156,143666,5,4,1:3:0:0:
381,305,143833,1,4,0:3:0:0:
503,174,144000,5,8,1:3:0:0:
512,50,144166,1,0,0:3:0:0:
350,16,144333,6,0,P|383:74|422:193,1,188.999994232178,6|0,1:3|0:0,0:0:0:0:
463,252,144666,2,0,P|435:231|424:196,1,62.9999980773926,8|0,0:3|0:0,0:0:0:0:
456,352,144833,6,0,B|469:346|483:348|483:348|457:331|402:347|367:376|321:361,1,188.999994232178,0|0,1:3|0:3,0:0:0:0:
246,384,145166,2,0,P|215:345|224:317,1,62.9999980773926,4|0,1:3|0:0,0:0:0:0:
90,189,145333,2,0,P|125:164|172:180,1,62.9999980773926,8|0,1:3|0:0,0:0:0:0:
334,219,145500,2,0,P|303:221|266:231,1,62.9999980773926,0|0,1:3|0:0,0:0:0:0:
45,305,145666,6,0,P|23:264|41:219,1,62.9999980773926,4|0,1:3|0:0,0:0:0:0:
7,85,145833,2,0,P|39:82|74:111,1,62.9999980773926,0|0,1:3|0:0,0:0:0:0:
183,224,146000,6,0,B|186:146|122:104|127:133|66:88|69:5,1,251.999992309571,8|4,1:3|0:3,0:0:0:0:
195,237,146500,2,0,P|181:296|175:371,2,125.999996154785,4|8|0,1:3|0:3|1:0,0:0:0:0:
378,251,147000,6,0,B|415:303|518:293|532:218|470:208,1,188.999994232178,6|4,0:3|0:3,0:0:0:0:
378,110,147333,5,8,0:3:0:0:
471,384,147500,1,4,0:3:0:0:
277,330,147666,5,8,0:3:0:0:
317,184,147833,1,4,0:3:0:0:
231,98,148000,5,4,0:3:0:0:
369,384,148166,2,0,B|281:353|337:285|231:246,1,188.999994232178,6|0,1:3|0:3,0:0:0:0:
158,248,148500,2,0,P|149:292|145:324,1,62.9999980773926,0|0,1:3|0:0,0:0:0:0:
19,159,148666,2,0,P|14:127|7:97,1,62.9999980773926,2|0,1:3|0:0,0:0:0:0:
123,42,148833,2,0,P|152:33|187:20,1,62.9999980773926,0|0,1:3|0:0,0:0:0:0:
77,251,149000,5,10,0:3:0:0:
80,222,149083,1,8,0:3:0:0:
100,191,149166,1,8,0:3:0:0:
128,168,149250,1,8,0:3:0:0:
163,150,149333,1,12,0:3:0:0:
214,138,149416,1,8,0:3:0:0:
262,126,149500,1,8,0:3:0:0:
297,86,149583,1,8,0:3:0:0:
288,32,149666,5,14,1:3:0:0:
388,154,149833,1,4,0:3:0:0:
248,207,150000,1,4,0:3:0:0:
155,93,150166,1,4,0:3:0:0:
237,226,150333,5,12,1:3:0:0:
117,253,150500,1,4,1:3:0:0:
28,150,150666,1,4,1:3:0:0:
149,117,150833,1,4,1:3:0:0:
122,274,151000,5,12,1:3:0:0:
288,373,151166,1,4,0:3:0:0:
185,384,151333,5,4,1:3:0:0:
352,284,151500,1,4,0:3:0:0:
254,243,151666,5,12,1:3:0:0:
481,366,151833,1,4,0:3:0:0:
381,384,152000,5,4,1:3:0:0:
493,267,152166,1,4,0:3:0:0:
393,205,152333,6,0,P|407:123|448:33,1,173.250001652241,12|0,1:3|0:0,0:0:0:0:
505,5,152666,1,4,0:3:0:0:
348,53,152833,1,4,0:3:0:0:
510,165,153000,5,12,1:3:0:0:
387,195,153166,1,4,1:3:0:0:
347,304,153333,1,4,1:3:0:0:
224,334,153499,1,4,1:3:0:0:
265,219,153666,5,12,1:3:0:0:
37,279,153833,1,4,0:3:0:0:
119,346,154000,5,4,1:3:0:0:
0,103,154166,1,4,0:3:0:0:
0,203,154333,5,12,1:3:0:0:
156,15,154500,1,4,0:3:0:0:
63,28,154666,5,4,1:3:0:0:
241,78,154833,1,4,0:3:0:0:
142,189,155000,2,0,B|179:176|235:205|277:239|302:238|317:221,1,173.250001652241,14|0,1:3|0:0,0:0:0:0:
323,157,155333,5,4,0:3:0:0:
29,383,155500,2,0,P|38:297|44:194,1,173.250001652241,4|0,1:3|0:0,0:0:0:0:
23,138,155833,5,4,1:3:0:0:
140,279,156000,1,4,1:3:0:0:
113,384,156166,1,4,1:3:0:0:
299,371,156333,5,12,1:3:0:0:
217,332,156500,1,4,1:3:0:0:
363,306,156666,2,0,B|407:311|444:280|438:254|460:219|513:217,1,173.250001652241,4|0,1:3|0:0,0:0:0:0:
510,294,157000,1,12,0:3:0:0:
327,125,157166,2,0,P|356:195|374:254,2,115.500001101494,4|0|0,1:3|0:0|1:3,0:0:0:0:
207,76,157666,5,14,1:3:0:0:
212,50,157750,1,8,0:3:0:0:
195,28,157833,2,0,P|151:42|140:69,1,57.7500005507469,8|8,0:3|0:3,0:0:0:0:
115,130,158000,5,14,0:3:0:0:
74,131,158083,1,8,0:3:0:0:
39,152,158166,2,0,P|51:185|78:202,1,57.7500005507469,8|8,0:3|0:3,0:0:0:0:
146,236,158333,5,14,0:3:0:0:
128,279,158416,1,8,0:3:0:0:
146,317,158500,2,0,P|186:324|210:312,1,57.7500005507469,8|8,0:3|0:3,0:0:0:0:
255,200,158666,5,14,0:3:0:0:
303,221,158750,1,8,0:3:0:0:
356,205,158833,2,0,P|345:171|324:151,1,57.7500005507469,8|8,0:3|0:3,0:0:0:0:
124,141,159000,5,14,0:3:0:0:
305,330,159166,1,4,0:3:0:0:
394,384,159333,5,4,0:3:0:0:
446,233,159500,1,4,0:3:0:0:
361,106,159666,5,4,0:3:0:0:
476,52,159833,2,0,L|463:152,1,57.7500005507469,8|8,0:3|0:3,0:0:0:0:
306,43,160000,1,8,0:3:0:0:
271,38,160083,1,8,0:3:0:0:
236,33,160166,1,8,0:3:0:0:
201,28,160250,1,8,0:3:0:0:
166,23,160333,6,0,L|66:10,1,84,6|0,0:3|0:0,0:0:0:0:
65,9,160666,1,8,0:3:0:0:
7,160,160833,2,0,P|43:105|105:107,1,112,4|4,0:3|0:3,0:0:0:0:
187,202,161333,2,0,P|88:180|0:170,1,168,8|4,0:3|0:3,0:0:0:0:
210,117,162000,5,8,0:3:0:0:
178,347,162333,2,0,P|154:343|130:285,1,84,4|0,0:3|0:0,0:0:0:0:
136,274,162666,1,8,0:3:0:0:
327,304,162833,2,0,P|264:293|214:276,1,112,4|4,0:3|0:3,0:0:0:0:
343,82,163333,6,0,B|393:117|378:189|332:149|314:212|323:245,1,168,8|4,0:3|0:3,0:0:0:0:
400,262,164000,1,8,0:3:0:0:
482,46,164333,6,0,B|398:29|422:108|321:78,1,140,6|8,0:3|0:3,0:0:0:0:
210,5,164833,2,0,P|243:51|265:103,1,112,4|4,0:3|0:3,0:0:0:0:
66,135,165333,6,0,B|56:92|91:-9|178:58|153:97,1,168,8|4,0:3|0:3,0:0:0:0:
31,242,166000,2,0,P|90:223|155:212,1,112,8|4,0:3|0:3,0:0:0:0:
108,303,166666,1,8,0:3:0:0:
211,166,166832,6,0,P|265:176|319:194,1,112,4|4,0:3|0:3,0:0:0:0:
381,347,167333,2,0,P|319:357|291:269,1,168,8|4,0:3|0:3,0:0:0:0:
413,159,168000,2,0,P|403:186|401:214,1,52.5,10|0,0:3|0:3,0:0:0:0:
494,153,168333,6,0,L|503:96,1,48.9999985046387,14|4,0:3|0:3,0:0:0:0:
416,0,168500,2,0,L|425:57,1,48.9999985046387,12|4,0:3|0:3,0:0:0:0:
331,136,168666,1,12,0:3:0:0:
294,161,168750,1,4,0:3:0:0:
250,160,168833,1,4,0:3:0:0:
215,132,168916,1,4,0:3:0:0:
210,87,169000,5,12,0:3:0:0:
179,102,169083,1,4,0:3:0:0:
144,101,169166,1,4,0:3:0:0:
116,80,169250,1,4,0:3:0:0:
104,47,169333,5,12,0:3:0:0:
94,69,169416,1,4,0:3:0:0:
73,83,169500,1,4,0:3:0:0:
49,90,169583,1,4,0:3:0:0:
25,84,169666,5,12,0:3:0:0:
8,130,169750,1,8,0:3:0:0:
27,169,169833,1,8,0:3:0:0:
59,180,169916,1,8,0:3:0:0:
86,169,170000,2,0,P|117:168|152:185,3,48.9999985046387,8|8|8|8,0:3|0:3|0:3|0:3,0:0:0:0:
13,332,170333,2,0,L|5:273,1,48.9999985046387,14|4,0:3|0:3,0:0:0:0:
102,243,170500,2,0,L|94:302,1,48.9999985046387,12|4,0:3|0:3,0:0:0:0:
225,379,170666,5,12,0:3:0:0:
269,381,170750,1,4,0:3:0:0:
310,366,170833,1,4,0:3:0:0:
337,331,170916,1,4,0:3:0:0:
342,286,171000,5,12,0:3:0:0:
314,306,171083,1,4,0:3:0:0:
280,312,171166,1,4,0:3:0:0:
246,304,171250,1,4,0:3:0:0:
223,278,171333,5,12,0:3:0:0:
246,283,171416,1,4,0:3:0:0:
270,281,171500,1,4,0:3:0:0:
290,267,171583,1,4,0:3:0:0:
304,247,171666,5,12,0:3:0:0:
289,246,171750,1,8,0:3:0:0:
275,240,171833,1,8,0:3:0:0:
263,230,171916,1,8,0:3:0:0:
257,216,172000,1,8,0:3:0:0:
257,186,172083,1,8,0:3:0:0:
273,155,172166,2,0,P|291:139|326:126,1,48.9999985046387,8|8,0:3|0:3,0:0:0:0:
451,24,172333,5,14,0:3:0:0:
483,71,172416,1,4,0:3:0:0:
467,128,172500,1,12,0:3:0:0:
422,164,172583,1,4,0:3:0:0:
363,159,172666,1,12,0:3:0:0:
320,117,172750,1,4,0:3:0:0:
311,69,172833,1,4,0:3:0:0:
286,31,172916,1,4,0:3:0:0:
251,13,173000,5,12,0:3:0:0:
257,41,173083,1,4,0:3:0:0:
254,70,173166,1,4,0:3:0:0:
239,95,173250,1,4,0:3:0:0:
215,112,173333,5,12,0:3:0:0:
211,92,173416,1,4,0:3:0:0:
199,75,173500,1,4,0:3:0:0:
185,61,173583,1,4,0:3:0:0:
167,53,173666,5,12,0:3:0:0:
122,47,173750,1,8,0:3:0:0:
79,71,173833,1,8,0:3:0:0:
74,109,173916,1,8,0:3:0:0:
86,136,174000,2,0,P|109:154|147:154,3,48.9999985046387,8|8|8|8,0:3|0:3|0:3|0:3,0:0:0:0:
8,287,174333,5,14,0:3:0:0:
70,239,174416,1,4,0:3:0:0:
149,239,174500,1,12,0:3:0:0:
206,284,174583,1,4,0:3:0:0:
239,343,174666,1,12,0:3:0:0:
299,363,174750,1,4,0:3:0:0:
356,354,174833,1,4,0:3:0:0:
393,315,174916,1,4,0:3:0:0:
401,266,175000,5,12,0:3:0:0:
367,286,175083,1,4,0:3:0:0:
328,289,175166,1,4,0:3:0:0:
295,267,175250,1,4,0:3:0:0:
284,229,175333,5,12,0:3:0:0:
308,244,175416,1,4,0:3:0:0:
337,248,175500,1,4,0:3:0:0:
364,239,175583,1,4,0:3:0:0:
384,218,175666,5,8,0:3:0:0:
431,191,175750,1,8,0:3:0:0:
479,195,175833,1,12,0:3:0:0:
502,232,175916,1,12,0:3:0:0:
491,270,176000,2,0,P|481:301|481:339,3,48.9999985046387,12|12|12|12,0:3|0:3|0:3|0:3,0:0:0:0:
371,141,176333,6,0,B|294:119|294:119|272:82|272:82|190:60,1,199.499994672775,14|0,0:3|0:3,0:0:0:0:
119,14,176666,2,0,B|93:39|93:39|114:86,1,66.4999982242585,0|0,1:3|0:3,0:0:0:0:
150,306,176833,2,0,B|176:281|176:281|164:254,1,66.4999982242585,0|0,1:3|0:3,0:0:0:0:
0,185,177000,1,8,0:3:0:0:
45,177,177083,1,8,0:3:0:0:
90,170,177166,1,8,0:3:0:0:
136,163,177250,1,8,0:3:0:0:
181,155,177333,6,0,B|214:149|214:149|318:231|318:231|360:220,1,199.499994672775,14|0,1:3|0:3,0:0:0:0:
442,196,177666,2,0,L|511:179,1,66.4999982242585,0|0,1:3|0:3,0:0:0:0:
359,61,177833,2,0,L|376:130,1,66.4999982242585,0|0,1:3|0:3,0:0:0:0:
426,347,178000,1,8,0:3:0:0:
381,335,178083,1,8,0:3:0:0:
336,323,178166,1,8,0:3:0:0:
290,311,178250,1,8,0:3:0:0:
244,299,178333,6,0,B|92:259|92:259|45:300,1,199.499994672775,14|0,1:3|0:3,0:0:0:0:
0,350,178666,2,0,B|40:371|40:371|63:356,1,66.4999982242585,0|0,1:3|0:3,0:0:0:0:
124,186,178833,2,0,L|103:95,1,66.4999982242585,0|0,1:3|0:3,0:0:0:0:
92,40,179000,1,12,0:3:0:0:
136,51,179083,1,12,0:3:0:0:
180,62,179166,1,12,0:3:0:0:
225,74,179250,1,12,0:3:0:0:
269,86,179333,6,0,B|306:96|306:96|351:207|351:207|392:219,1,199.499994672775,14|0,1:3|0:3,0:0:0:0:
462,136,179666,2,0,B|457:103|457:103|434:128,1,66.4999982242585,0|0,1:3|0:3,0:0:0:0:
477,320,179833,2,0,L|493:389,1,66.4999982242585,0|0,1:3|0:3,0:0:0:0:
370,323,180000,1,4,0:3:0:0:
396,223,180166,1,4,0:3:0:0:
242,111,180333,6,0,L|276:332,1,199.499994672775,6|0,1:3|0:3,0:0:0:0:
207,381,180666,2,0,B|176:380|176:380|206:350,1,66.4999982242585,0|0,1:3|0:3,0:0:0:0:
330,197,180833,2,0,B|327:184|327:184|354:147|354:147|351:131,1,66.4999982242585,0|0,1:3|0:3,0:0:0:0:
139,89,181000,1,8,0:3:0:0:
147,134,181083,1,8,0:3:0:0:
155,179,181166,1,8,0:3:0:0:
163,225,181250,1,8,0:3:0:0:
172,270,181333,6,0,B|136:275|136:275|15:383,1,199.499994672775,14|0,1:3|0:3,0:0:0:0:
0,295,181666,2,0,L|9:223,1,66.4999982242585,0|0,1:3|0:3,0:0:0:0:
36,36,181833,2,0,B|19:66|19:66|55:93,1,66.4999982242585,0|0,1:3|0:3,0:0:0:0:
131,44,182000,1,8,0:3:0:0:
177,37,182083,1,8,0:3:0:0:
224,30,182167,1,8,0:3:0:0:
270,24,182250,1,8,0:3:0:0:
316,18,182333,6,0,B|353:69|353:69|309:248,1,199.499994672775,14|0,0:3|0:3,0:0:0:0:
224,206,182666,2,0,B|217:238|217:238|249:270,1,66.4999982242585,0|0,1:3|0:3,0:0:0:0:
425,209,182833,2,0,B|432:177|432:177|400:145,1,66.4999982242585,0|0,1:3|0:3,0:0:0:0:
229,125,183000,1,8,1:3:0:0:
183,132,183083,1,8,0:3:0:0:
136,139,183167,1,8,0:3:0:0:
90,145,183250,1,8,0:3:0:0:
44,151,183333,6,0,B|34:177|34:177|57:322|57:322|49:348,1,199.499994672775,14|0,0:3|0:3,0:0:0:0:
121,382,183666,2,0,L|194:369,1,66.4999982242585,4|0,1:3|0:3,0:0:0:0:
337,341,183833,2,0,B|358:317|358:317|307:301,1,66.4999982242585,4|0,1:3|0:3,0:0:0:0:
169,276,184000,1,4,0:3:0:0:
369,237,184166,1,4,0:3:0:0:
237,180,184333,5,6,0:3:0:0:
232,155,184416,1,4,0:3:0:0:
227,130,184499,1,4,0:3:0:0:
223,111,184582,1,0,0:0:0:0:
218,92,184666,1,4,1:3:0:0:
282,6,184833,1,4,1:3:0:0:
391,375,185333,5,6,0:3:0:0:
396,349,185416,1,4,0:3:0:0:
401,323,185500,1,4,0:3:0:0:
404,303,185582,1,4,0:3:0:0:
407,282,185666,1,4,1:3:0:0:
220,350,185833,1,4,1:3:0:0:
455,30,186332,5,6,0:3:0:0:
429,36,186417,1,4,0:3:0:0:
403,42,186500,1,4,0:3:0:0:
379,47,186582,1,4,0:3:0:0:
356,53,186666,1,4,1:3:0:0:
455,196,186833,1,4,1:3:0:0:
210,24,187333,5,6,0:3:0:0:
203,48,187416,1,4,0:3:0:0:
197,74,187500,1,4,0:3:0:0:
190,98,187582,1,4,0:3:0:0:
184,121,187666,1,4,1:3:0:0:
18,166,187833,1,4,1:3:0:0:
93,36,188000,2,0,L|106:125,1,66.4999982242585,10|0,1:3|0:3,0:0:0:0:
120,207,188166,2,0,L|136:299,1,66.4999982242585,10|0,1:3|0:3,0:0:0:0:
241,314,188333,5,6,0:3:0:0:
218,326,188417,1,4,0:3:0:0:
195,338,188500,1,4,0:3:0:0:
173,349,188582,1,4,0:3:0:0:
152,361,188666,1,4,1:3:0:0:
36,260,188833,1,4,1:3:0:0:
388,381,189333,5,6,0:3:0:0:
382,355,189416,1,4,0:3:0:0:
376,329,189500,1,4,0:3:0:0:
370,303,189582,1,4,0:3:0:0:
365,280,189666,1,4,1:3:0:0:
511,220,189833,1,4,1:3:0:0:
198,100,190333,5,6,0:3:0:0:
195,125,190416,1,4,0:3:0:0:
192,151,190500,1,4,0:3:0:0:
188,180,190582,1,4,0:3:0:0:
185,202,190666,1,4,1:3:0:0:
98,41,190833,1,4,1:3:0:0:
364,276,191333,5,6,0:3:0:0:
399,267,191416,1,4,0:3:0:0:
434,258,191500,1,4,0:3:0:0:
469,250,191582,1,4,0:3:0:0:
510,239,191666,1,4,1:3:0:0:
280,174,191833,1,4,1:3:0:0:
451,120,192000,6,0,B|443:92|443:92|414:80,1,59.5000011348725,8|8,0:3|0:3,0:0:0:0:
294,20,192166,2,0,B|265:12|265:12|240:32,1,59.5000011348725,8|8,0:3|0:3,0:0:0:0:
150,160,192333,6,0,B|113:136|81:140|81:140|145:99|215:102,1,181.999991668702,14|8,1:3|0:3,0:0:0:0:
120,384,192833,2,0,B|51:383|53:318|65:263|116:325|97:218,1,210.000008010865,6|4,1:3|0:3,0:0:0:0:
286,337,193333,2,0,P|220:319|154:314,1,105.000004005432,8|0,0:3|0:0,0:0:0:0:
366,261,193666,1,4,0:3:0:0:
468,382,193833,1,4,0:3:0:0:
461,378,193916,1,0,0:0:0:0:
451,374,194000,2,0,B|448:329|448:329|455:318|455:318|459:236,1,105.000004005432,8|0,0:3|0:0,0:0:0:0:
308,61,194333,2,0,P|293:115|379:150,1,157.500006008148,4|0,0:3|0:3,0:0:0:0:
512,80,194666,6,0,B|470:69|470:69|445:82|445:82|372:74,1,125.999996154785,10|0,1:3|0:3,0:0:0:0:
255,4,195000,6,0,B|166:-5|166:-5|200:113,1,210.000008010865,6|4,1:3|0:3,0:0:0:0:
0,200,195500,2,0,B|43:126|121:157|121:157|136:193|189:202,1,210.000008010865,8|4,0:3|0:3,0:0:0:0:
351,300,196000,2,0,B|283:384|254:272|164:336,1,157.500006008148,8|0,0:3|0:0,0:0:0:0:
121,364,196333,5,4,0:3:0:0:
121,364,196416,1,0,0:0:0:0:
121,364,196500,2,0,L|105:271,1,52.5000020027161,10|0,0:3|0:3,0:0:0:0:
255,173,196666,2,0,L|239:266,1,52.5000020027161,14|4,0:3|0:3,0:0:0:0:
416,363,196833,1,4,0:3:0:0:
426,360,196916,1,4,0:3:0:0:
436,358,197000,5,8,0:3:0:0:
468,317,197083,1,8,0:3:0:0:
458,265,197166,1,8,0:3:0:0:
418,238,197250,1,8,0:3:0:0:
376,234,197333,1,8,0:3:0:0:
356,203,197416,1,8,0:3:0:0:
353,171,197500,1,8,0:3:0:0:
367,149,197583,1,8,0:3:0:0:
385,139,197666,5,12,0:3:0:0:
250,164,197833,1,4,0:3:0:0:
115,190,198000,1,4,0:3:0:0:
371,354,198166,5,12,1:3:0:0:
208,323,198333,1,4,0:3:0:0:
46,292,198500,1,4,0:3:0:0:
349,193,198666,5,12,1:3:0:0:
372,81,198833,1,4,0:3:0:0:
264,42,199000,1,4,0:3:0:0:
360,214,199166,5,12,1:3:0:0:
252,253,199333,1,4,0:3:0:0:
275,365,199500,1,4,0:3:0:0:
502,254,199666,5,12,1:3:0:0:
373,200,199833,1,4,0:3:0:0:
103,94,200000,2,0,L|112:156,1,62.9999980773926,4|0,0:3|0:0,0:0:0:0:
77,288,200333,5,10,1:3:0:0:
105,307,200416,1,8,0:3:0:0:
141,313,200500,1,8,0:3:0:0:
176,304,200583,1,8,0:3:0:0:
200,277,200666,2,0,P|213:250|224:201,1,52.5000020027161,8|8,0:3|0:3,0:0:0:0:
192,126,200833,5,10,1:3:0:0:
224,103,200916,1,8,0:3:0:0:
267,96,201000,1,8,0:3:0:0:
308,107,201083,1,8,0:3:0:0:
336,138,201166,2,0,P|351:169|364:226,1,52.5000020027161,8|8,0:3|0:3,0:0:0:0:
312,321,201333,5,10,1:3:0:0:
340,358,201416,1,8,0:3:0:0:
396,373,201500,1,8,0:3:0:0:
454,350,201583,1,8,0:3:0:0:
476,285,201666,6,0,L|489:144,1,140,10|0,1:3|0:3,0:0:0:0:
429,37,202166,2,0,L|438:89,1,52.5000020027161,4|4,0:3|0:3,0:0:0:0:
362,267,202333,1,8,0:3:0:0:
300,295,202416,1,8,0:3:0:0:
244,276,202500,1,8,0:3:0:0:
227,231,202583,1,8,0:3:0:0:
235,190,202666,2,0,L|343:202,1,84,8|0,0:3|0:3,0:0:0:0:
371,130,203000,5,12,0:3:0:0:
112,248,203166,1,12,0:3:0:0:
221,375,204333,5,12,0:3:0:0:
170,93,204499,1,4,0:3:0:0:
463,3,205666,5,12,0:3:0:0:
412,285,205832,1,4,0:3:0:0:
25,187,206666,5,2,1:3:0:0:
25,187,207000,6,0,B|42:180|42:180|96:195|96:195|100:202|100:202|150:215|150:215|177:211,1,146.999995513916,2|4,1:3|0:3,0:0:0:0:
187,203,207583,1,4,0:3:0:0:
207,191,207666,2,0,P|221:230|225:257,1,48.9999985046387,8|0,1:3|0:3,0:0:0:0:
268,331,208000,2,0,P|274:307|283:284,1,48.9999985046387,0|0,1:3|0:3,0:0:0:0:
317,216,208333,6,0,P|228:277|171:330,1,167.999994873047,2|0,0:3|0:3,0:0:0:0:
76,368,208833,6,0,P|66:322|52:285,2,83.9999974365235,4|8|0,1:3|0:3|1:3,0:0:0:0:
4,216,209333,2,0,P|52:205|96:212,1,83.9999974365235,4|0,1:3|1:3,0:0:0:0:
168,123,209666,1,4,1:3:0:0:
150,250,209833,1,4,1:3:0:0:
22,115,210000,2,0,B|65:129|105:93|90:76|123:42|171:47,1,167.999994873047,8|8,1:3|0:3,0:0:0:0:
277,156,210500,2,0,P|265:216|259:271,2,83.9999974365235,8|4|0,1:3|0:3|1:0,0:0:0:0:
361,296,211000,6,0,P|256:275|162:378,1,251.999992309571,2|4,0:3|0:3,0:0:0:0:
193,380,211583,1,4,0:3:0:0:
223,381,211666,2,0,P|234:338|220:285,1,83.9999974365235,8|4,0:3|0:3,0:0:0:0:
156,209,212000,1,4,0:3:0:0:
342,380,212166,1,4,1:3:0:0:
350,377,212250,1,4,0:3:0:0:
346,372,212333,5,8,0:3:0:0:
449,264,212500,1,4,1:3:0:0:
453,256,212582,1,4,0:3:0:0:
446,255,212667,5,8,1:3:0:0:
444,105,212833,1,0,1:3:0:0:
441,98,212917,1,0,0:3:0:0:
436,102,213000,5,8,0:3:0:0:
448,148,213083,1,8,0:3:0:0:
421,184,213166,1,8,0:3:0:0:
371,184,213250,1,8,0:3:0:0:
366,167,213333,1,8,0:3:0:0:
320,133,213416,1,8,0:3:0:0:
267,151,213500,1,8,0:3:0:0:
251,208,213583,1,8,0:3:0:0:
284,253,213666,6,0,P|194:277|98:322,1,188.999994232178,14|0,0:3|0:0,0:0:0:0:
42,379,214000,1,8,0:3:0:0:
117,97,214166,1,0,0:3:0:0:
110,107,214250,1,0,0:0:0:0:
121,112,214333,6,0,P|94:74|27:106,1,125.999996154785,4|4,1:3|0:3,0:0:0:0:
71,197,214583,6,0,P|118:191|124:119,1,125.999996154785,0|0,1:3|0:3,0:0:0:0:
22,112,214833,6,0,P|13:134|43:154,1,62.9999980773926,0|0,1:3|0:0,0:0:0:0:
245,59,215000,5,4,1:3:0:0:
326,293,215166,1,0,0:3:0:0:
132,381,215333,5,8,1:3:0:0:
181,234,215500,1,0,0:3:0:0:
344,123,215666,5,4,1:3:0:0:
232,166,215833,1,4,0:3:0:0:
438,345,216000,5,8,1:3:0:0:
260,248,216166,1,0,0:0:0:0:
466,185,216333,6,0,P|412:241|342:337,1,188.999994232178,4|0,1:3|0:0,0:0:0:0:
275,380,216666,1,12,1:3:0:0:
398,104,216833,2,0,P|359:95|324:82,1,62.9999980773926,0|0,1:3|0:3,0:0:0:0:
165,58,217000,6,0,P|161:102|232:125,1,125.999996154785,4|0,1:3|0:3,0:0:0:0:
225,32,217250,6,0,P|187:6|132:57,1,125.999996154785,0|0,1:3|0:3,0:0:0:0:
215,97,217500,6,0,P|234:88|226:51,1,62.9999980773926,0|0,1:3|0:0,0:0:0:0:
13,144,217666,5,4,1:3:0:0:
277,269,217833,1,0,0:3:0:0:
47,293,218000,5,8,1:3:0:0:
113,210,218166,1,0,0:3:0:0:
0,219,218333,5,4,0:3:0:0:
236,374,218500,1,4,0:3:0:0:
46,384,218666,5,8,0:3:0:0:
105,100,218833,1,0,0:0:0:0:
164,336,219000,6,0,P|195:244|244:151,1,188.999994232178,6|0,0:3|0:0,0:0:0:0:
216,74,219333,1,8,0:3:0:0:
302,298,219500,6,0,B|341:315|388:282|393:263|442:230|487:255,1,188.999994232178,0|0,1:3|0:0,0:0:0:0:
330,221,219833,2,0,P|321:158|319:131,1,62.9999980773926,4|0,1:3|0:0,0:0:0:0:
449,325,220000,2,0,P|411:368|359:372,1,62.9999980773926,8|0,1:3|0:0,0:0:0:0:
244,384,220166,2,0,P|187:372|158:329,1,62.9999980773926,0|0,1:3|0:0,0:0:0:0:
161,171,220333,6,0,P|188:193|191:234,1,62.9999980773926,4|0,1:3|0:0,0:0:0:0:
58,297,220500,2,0,P|31:275|28:234,1,62.9999980773926,0|0,1:3|0:0,0:0:0:0:
54,135,220666,6,0,P|103:221|184:370,1,251.999992309571,8|4,1:3|0:3,0:0:0:0:
297,158,221166,2,0,P|276:216|262:292,2,125.999996154785,4|8|4,0:3|0:3|0:3,0:0:0:0:
262,79,221666,5,8,0:3:0:0:
252,59,221750,1,0,0:0:0:0:
261,40,221833,2,0,P|289:28|340:32,1,62.9999980773926,4|4,0:3|0:3,0:0:0:0:
297,158,222000,5,8,0:3:0:0:
331,163,222083,1,0,0:0:0:0:
355,190,222166,2,0,P|354:224|331:255,1,62.9999980773926,4|4,0:3|0:3,0:0:0:0:
221,260,222333,5,8,0:3:0:0:
254,297,222416,1,0,0:0:0:0:
237,343,222500,2,0,P|199:353|159:330,1,62.9999980773926,4|4,0:3|0:3,0:0:0:0:
86,216,222666,5,8,0:3:0:0:
54,260,222750,1,0,0:0:0:0:
0,253,222833,2,0,P|-4:216|13:181,1,62.9999980773926,4|4,0:3|0:3,0:0:0:0:
44,49,223000,5,8,0:3:0:0:
68,358,223166,1,8,0:3:0:0:
75,365,223250,1,8,0:3:0:0:
79,356,223333,2,0,P|95:331|120:302,3,56,8|8|8|8,0:3|0:3|0:3|0:3,0:0:0:0:
217,181,223666,5,8,0:3:0:0:
512,384,223916,5,8,0:3:0:0:
499,64,224166,5,8,0:3:0:0:
408,303,224333,1,6,1:3:0:0:
428,281,224416,1,4,0:3:0:0:
439,248,224500,1,4,0:3:0:0:
430,209,224583,1,4,0:3:0:0:
392,180,224666,1,4,0:3:0:0:
368,127,224750,1,4,0:3:0:0:
388,73,224833,1,4,0:3:0:0:
439,47,224916,1,4,0:3:0:0:
499,64,225000,2,0,P|521:103|507:161,1,98,12|0,1:3|0:3,0:0:0:0:
309,196,225666,5,4,1:3:0:0:
284,205,225750,1,4,0:3:0:0:
253,207,225833,1,4,0:3:0:0:
218,192,225916,1,4,0:3:0:0:
196,154,226000,1,4,0:3:0:0:
161,120,226083,1,4,0:3:0:0:
110,109,226166,1,4,0:3:0:0:
51,125,226250,1,4,0:3:0:0:
24,179,226333,2,0,L|39:287,1,98,12|0,1:3|0:3,0:0:0:0:
205,370,227000,5,4,1:3:0:0:
221,364,227083,1,4,0:3:0:0:
236,350,227166,1,4,0:3:0:0:
249,325,227250,1,4,0:3:0:0:
248,289,227333,1,4,0:3:0:0:
221,254,227416,1,4,0:3:0:0:
168,248,227500,1,4,0:3:0:0:
129,279,227583,1,4,0:3:0:0:
131,342,227666,2,0,L|238:323,1,98,12|0,1:3|0:3,0:0:0:0:
322,373,228333,5,4,1:3:0:0:
322,373,228416,1,4,0:3:0:0:
322,373,228500,2,0,L|328:306,1,52.5000020027161,4|4,0:3|0:3,0:0:0:0:
400,216,228666,1,4,1:3:0:0:
400,216,228749,1,4,0:3:0:0:
400,216,228833,2,0,L|406:283,1,52.5000020027161,4|4,0:3|0:3,0:0:0:0:
456,356,229000,6,0,L|389:344,1,52.5000020027161,12|0,1:3|0:3,0:0:0:0:
271,254,229166,2,0,L|338:242,1,52.5000020027161,8|0,0:3|0:3,0:0:0:0:
466,361,229333,2,0,L|391:348,1,52.5000020027161,8|0,1:3|0:3,0:0:0:0:
260,248,229499,2,0,L|335:234,1,52.5000020027161,8|0,0:3|0:3,0:0:0:0:
489,40,229666,5,14,1:3:0:0:
504,56,229750,1,4,0:3:0:0:
510,86,229833,1,4,0:3:0:0:
500,121,229916,1,4,0:3:0:0:
465,147,230000,1,4,0:3:0:0:
416,137,230083,1,4,0:3:0:0:
383,92,230166,1,4,0:3:0:0:
333,80,230250,1,4,0:3:0:0:
280,93,230333,2,0,L|174:81,1,98,12|0,0:3|0:3,0:0:0:0:
83,35,231000,5,4,1:3:0:0:
61,29,231083,1,4,0:3:0:0:
32,33,231166,1,4,0:3:0:0:
7,52,231250,1,4,0:3:0:0:
0,93,231333,1,4,0:3:0:0:
24,133,231416,1,4,0:3:0:0:
71,143,231500,1,4,0:3:0:0:
122,131,231583,1,4,0:3:0:0:
166,164,231666,2,0,P|180:209|149:258,1,98,12|0,0:3|0:3,0:0:0:0:
36,358,232333,5,4,1:3:0:0:
54,341,232416,1,4,0:3:0:0:
81,329,232500,1,4,0:3:0:0:
121,322,232583,1,4,0:3:0:0:
173,330,232666,1,4,0:3:0:0:
211,365,232750,1,4,0:3:0:0:
267,384,232833,1,4,0:3:0:0:
326,374,232916,1,4,0:3:0:0:
369,322,233000,6,0,L|362:216,1,98,12|0,0:3|0:3,0:0:0:0:
300,136,233666,5,6,1:3:0:0:
293,108,233750,1,4,0:3:0:0:
299,76,233833,1,4,1:3:0:0:
321,43,233916,1,4,0:3:0:0:
355,22,234000,2,0,P|387:14|434:22,1,52.5000020027161,6|4,1:3|0:3,0:0:0:0:
508,70,234166,1,4,1:3:0:0:
424,173,234333,5,12,0:3:0:0:
426,160,234416,1,8,0:3:0:0:
427,146,234500,1,8,0:3:0:0:
430,133,234583,1,8,0:3:0:0:
433,117,234666,5,8,1:3:0:0:
375,106,234750,1,8,0:3:0:0:
318,95,234833,1,8,0:3:0:0:
254,82,234916,1,8,0:3:0:0:
192,71,235000,6,0,B|123:78|123:78|85:101|85:101|3:110,1,188.999994232178,14|0,1:3|0:0,0:0:0:0:
68,10,235333,2,0,L|95:168,1,125.999996154785,8|0,0:3|0:3,0:0:0:0:
139,328,235666,1,4,1:3:0:0:
40,360,235833,1,4,1:3:0:0:
240,227,236000,1,8,1:3:0:0:
147,201,236167,1,0,1:3:0:0:
370,374,236333,5,4,1:3:0:0:
226,376,236500,1,0,0:3:0:0:
418,236,236666,5,8,1:3:0:0:
361,360,236833,1,0,0:3:0:0:
326,118,237000,5,4,1:3:0:0:
414,222,237167,1,4,0:3:0:0:
185,150,237333,5,8,1:3:0:0:
316,114,237500,1,0,0:3:0:0:
506,304,237666,6,0,P|412:263|273:235,1,188.999994232178,4|0,1:3|0:0,0:0:0:0:
241,281,238000,1,8,1:3:0:0:
185,59,238166,1,0,0:3:0:0:
491,36,238333,6,0,P|502:94|449:120,1,125.999996154785,4|4,1:3|1:3,0:0:0:0:
373,62,238583,2,0,P|417:24|466:56,1,125.999996154785
381,161,238833,1,0,1:3:0:0:
99,2,239000,5,4,1:3:0:0:
190,218,239166,1,0,0:3:0:0:
0,110,239333,5,8,1:3:0:0:
180,134,239500,1,0,0:3:0:0:
18,284,239666,5,4,1:3:0:0:
104,165,239833,1,4,0:3:0:0:
181,368,240000,5,8,1:3:0:0:
113,252,240166,1,0,0:3:0:0:
278,312,240333,6,0,P|325:327|464:333,1,188.999994232178,6|0,1:3|0:3,0:0:0:0:
506,268,240666,1,8,0:3:0:0:
334,63,240833,2,0,B|260:80|239:186|273:224|351:215,1,188.999994232178,0|0,1:3|0:0,0:0:0:0:
360,173,241166,1,4,1:3:0:0:
417,258,241333,1,8,1:3:0:0:
486,148,241500,1,0,1:3:0:0:
339,275,241666,5,4,1:3:0:0:
184,205,241833,1,0,1:3:0:0:
212,8,242000,2,0,B|237:65|219:113|87:116|50:60|53:17,1,251.999992309571,8|4,1:3|0:3,0:0:0:0:
21,233,242500,2,0,B|71:187|152:322|211:277,1,188.999994232178,4|0,1:3|0:0,0:0:0:0:
253,244,242833,1,0,1:3:0:0:
114,361,243000,6,0,L|100:200,1,125.999996154785,4|0,1:3|0:3,0:0:0:0:
313,322,243333,1,8,0:3:0:0:
197,77,243500,2,0,L|183:238,1,125.999996154785,0|4,1:3|0:3,0:0:0:0:
369,271,243833,1,4,0:3:0:0:
454,89,244000,5,12,0:3:0:0:
456,76,244083,1,4,0:3:0:0:
458,63,244166,1,4,0:3:0:0:
461,50,244250,1,4,0:3:0:0:
464,37,244333,5,12,0:3:0:0:
417,17,244416,1,8,0:3:0:0:
366,25,244500,1,8,0:3:0:0:
336,65,244583,1,8,0:3:0:0:
337,115,244666,1,12,0:3:0:0:
368,154,244750,1,8,0:3:0:0:
415,170,244833,1,8,0:3:0:0:
445,209,244916,1,8,0:3:0:0:
455,265,245000,1,12,0:3:0:0:
431,316,245083,1,8,0:3:0:0:
375,345,245166,1,8,0:3:0:0:
312,334,245250,1,8,0:3:0:0:
270,286,245333,2,0,P|234:262|185:248,1,62.9999980773926,12|0,0:3|0:3,0:0:0:0:
49,325,245500,5,8,0:3:0:0:
46,337,245583,1,8,0:3:0:0:
44,348,245666,6,0,B|74:334|129:336|162:372|218:344,1,157.500006008148,6|0,1:3|0:3,0:0:0:0:
263,297,245999,1,8,1:3:0:0:
150,253,246166,1,4,0:3:0:0:
0,155,246332,1,0,1:3:0:0:
113,111,246499,1,4,0:3:0:0:
308,167,246666,5,12,1:3:0:0:
312,179,246749,1,4,0:3:0:0:
317,191,246832,1,4,0:3:0:0:
182,73,246999,1,4,1:3:0:0:
178,61,247082,1,4,0:3:0:0:
173,49,247165,1,4,0:3:0:0:
308,0,247332,1,8,1:3:0:0:
182,208,247499,1,4,1:3:0:0:
192,215,247582,1,0,0:0:0:0:
196,205,247666,6,0,P|144:258|133:337,1,157.500006008148,6|0,1:3|0:3,0:0:0:0:
199,379,247999,1,8,1:3:0:0:
308,325,248166,1,4,3:3:0:0:
512,340,248332,1,0,1:3:0:0:
403,286,248499,1,4,3:3:0:0:
255,177,248666,5,12,1:3:0:0:
247,162,248749,1,4,0:3:0:0:
236,147,248832,1,4,0:3:0:0:
409,60,248999,1,4,1:3:0:0:
417,75,249082,1,4,0:3:0:0:
428,90,249165,1,4,0:3:0:0:
279,8,249332,1,8,1:3:0:0:
371,197,249499,1,4,1:3:0:0:
357,191,249582,1,0,0:0:0:0:
370,185,249666,6,0,P|325:245|205:246,1,157.500006008148,6|0,1:3|0:3,0:0:0:0:
177,286,249999,1,8,1:3:0:0:
94,367,250166,1,4,3:3:0:0:
53,172,250332,1,0,1:3:0:0:
31,60,250499,1,4,3:3:0:0:
153,195,250666,5,12,1:3:0:0:
157,179,250749,1,4,0:3:0:0:
159,161,250832,1,4,0:3:0:0:
261,335,250999,1,4,1:3:0:0:
257,351,251082,1,4,0:3:0:0:
255,369,251165,1,4,0:3:0:0:
108,316,251332,1,8,1:3:0:0:
295,182,251499,1,4,1:3:0:0:
306,191,251582,1,0,0:0:0:0:
296,195,251666,6,0,B|302:161|352:145|382:153|430:143|438:111,1,157.500006008148,2|0,1:3|0:3,0:0:0:0:
386,64,251999,1,8,1:3:0:0:
464,197,252166,1,4,3:3:0:0:
375,332,252332,1,0,1:3:0:0:
255,379,252499,1,4,0:3:0:0:
255,379,252582,1,4,0:3:0:0:
255,379,252666,6,0,L|184:356,1,52.5000020027161,10|0,0:3|0:3,0:0:0:0:
73,373,252832,2,0,L|144:350,1,52.5000020027161,10|0,0:3|0:3,0:0:0:0:
292,307,252999,6,0,L|197:276,1,59.5000011348725,10|0,0:3|0:3,0:0:0:0:
48,298,253166,2,0,L|142:267,1,59.5000011348725,10|0,0:3|0:3,0:0:0:0:
329,235,253332,6,0,L|206:195,1,66.4999982242585,10|0,0:3|0:3,0:0:0:0:
23,223,253499,2,0,L|145:183,1,66.4999982242585,10|0,0:3|0:3,0:0:0:0:
302,142,253666,5,14,1:3:0:0:
244,146,253749,1,4,0:3:0:0:
187,125,253832,1,4,0:3:0:0:
148,85,253916,1,4,0:3:0:0:
144,28,253999,5,12,0:3:0:0:
155,73,254082,1,4,0:3:0:0:
139,122,254166,1,4,0:3:0:0:
97,151,254249,1,4,0:3:0:0:
45,150,254332,5,4,0:3:0:0:
76,174,254416,1,4,0:3:0:0:
125,184,254499,2,0,P|118:144|97:86,1,73.4999977569581,4|4,0:3|0:3,0:0:0:0:
25,276,254666,5,12,1:3:0:0:
28,296,254749,1,4,0:3:0:0:
43,312,254832,2,0,P|69:330|121:333,1,73.4999977569581,4|4,0:3|0:3,0:0:0:0:
194,384,254999,6,0,P|225:378|264:343,3,73.4999977569581,4|4|4|4,1:3|0:3|0:3|0:3,0:0:0:0:
351,328,255332,6,0,P|369:302|372:250,3,73.4999977569581,12|4|4|4,1:3|0:3|1:3|0:3,0:0:0:0:
253,184,255666,5,4,1:3:0:0:
293,229,255749,1,4,0:3:0:0:
306,284,255832,1,4,0:3:0:0:
275,331,255916,1,4,0:3:0:0:
218,347,255999,5,12,0:3:0:0:
262,326,256082,1,4,0:3:0:0:
312,333,256166,1,4,0:3:0:0:
355,357,256249,1,4,0:3:0:0:
400,365,256332,5,4,0:3:0:0:
369,323,256416,1,4,0:3:0:0:
382,293,256499,2,0,P|418:314|448:360,1,73.4999977569581,4|4,0:3|0:3,0:0:0:0:
494,251,256666,5,12,1:3:0:0:
490,232,256749,1,4,0:3:0:0:
477,215,256832,2,0,P|448:191|392:186,1,73.4999977569581,4|4,0:3|0:3,0:0:0:0:
339,115,256999,6,0,P|301:118|258:154,3,73.4999977569581,4|4|4|4,1:3|0:3|0:3|0:3,0:0:0:0:
170,141,257332,6,0,P|145:170|141:226,3,73.4999977569581,12|4|4|4,1:3|0:3|1:3|0:3,0:0:0:0:
184,365,257666,5,4,1:3:0:0:
243,372,257749,1,4,0:3:0:0:
285,334,257832,1,4,0:3:0:0:
289,274,257916,1,4,0:3:0:0:
245,229,257999,5,12,0:3:0:0:
251,277,258082,1,4,0:3:0:0:
221,310,258166,1,4,0:3:0:0:
174,317,258249,1,4,0:3:0:0:
141,295,258332,5,4,0:3:0:0:
179,287,258416,1,4,0:3:0:0:
192,260,258499,2,0,P|167:246|119:238,1,73.4999977569581,4|4,0:3|0:3,0:0:0:0:
19,363,258666,5,12,1:3:0:0:
4,346,258749,1,4,0:3:0:0:
0,325,258832,2,0,P|19:291|65:271,1,73.4999977569581,4|4,0:3|0:3,0:0:0:0:
96,169,258999,6,0,P|133:158|180:176,3,73.4999977569581,4|4|4|4,1:3|0:3|0:3|0:3,0:0:0:0:
274,126,259332,6,0,P|308:145|328:190,3,73.4999977569581,12|4|4|4,1:3|0:3|1:3|0:3,0:0:0:0:
301,370,259666,5,12,1:3:0:0:
258,115,259832,1,12,0:3:0:0:
225,330,260665,5,12,0:3:0:0:
187,325,260749,1,12,0:3:0:0:
159,320,260832,1,12,0:3:0:0:
129,314,260915,1,4,0:3:0:0:
119,333,260999,5,12,0:3:0:0:
103,342,261082,1,12,0:3:0:0:
85,349,261165,1,12,0:3:0:0:
70,358,261249,1,4,0:3:0:0:
36,381,261332,5,12,0:3:0:0:
0,203,261499,1,4,0:3:0:0:
410,368,261665,6,0,B|451:380|481:375|536:333|527:252|464:225|414:230|378:257|354:287|344:319|341:336|337:352|325:372|294:381|261:372|261:372|232:359|215:338|209:294|218:256|269:232|296:242|313:256|332:268|367:278|407:267|443:218|442:181|420:155|389:142|358:142|332:151|324:168|318:196|301:210|245:240|196:217|186:200|186:200|180:180|200:139|253:126|297:150|297:150|342:176|411:169|439:109|446:63|433:16|384:-27|290:19|346:90,1,1481.1999502771,6|0,0:3|0:0,0:0:0:0:
